<?xml version="1.0" standalone="no"?>
<!DOCTYPE svg PUBLIC "-//W3C//DTD SVG 1.1//EN" "http://www.w3.org/Graphics/SVG/1.1/DTD/svg11.dtd" >
<svg xmlns="http://www.w3.org/2000/svg">
<metadata></metadata>
<defs>
<font id="gotham_narrowbold" horiz-adv-x="1122" >
<font-face units-per-em="2048" ascent="1638" descent="-410" />
<missing-glyph horiz-adv-x="458" />
<glyph unicode="&#xfb01;" horiz-adv-x="1234" d="M51 852v238h111v73q0 164 82 246t239 82q59 0 102.5 -7t78.5 -18v-239q-27 8 -51.5 13t-55.5 5q-106 0 -106 -112v-43h213v-238h-211v-852h-291v852h-111zM811 1214v265h303v-265h-303zM817 0v1098h291v-1098h-291z" />
<glyph unicode="&#xfb02;" horiz-adv-x="1234" d="M51 852v238h111v73q0 164 82 246t239 82q59 0 102.5 -7t78.5 -18v-239q-27 8 -51.5 13t-55.5 5q-106 0 -106 -112v-43h213v-238h-211v-852h-291v852h-111zM817 0v1479h291v-1479h-291z" />
<glyph horiz-adv-x="2048" />
<glyph horiz-adv-x="2048" />
<glyph unicode="&#xd;" horiz-adv-x="458" />
<glyph unicode=" "  horiz-adv-x="458" />
<glyph unicode="&#x09;" horiz-adv-x="458" />
<glyph unicode="&#xa0;" horiz-adv-x="458" />
<glyph unicode="!" horiz-adv-x="602" d="M129 1393v41h344v-41l-94 -918h-158zM141 0v315h318v-315h-318z" />
<glyph unicode="&#x22;" horiz-adv-x="958" d="M109 780l26 654h316v-13l-203 -641h-139zM551 780l24 654h316v-13l-203 -641h-137z" />
<glyph unicode="#" horiz-adv-x="1239" d="M57 313v250h176l48 316h-162v249h198l45 306h238l-45 -306h248l43 306h237l-45 -306h142v-249h-179l-45 -316h162v-250h-198l-46 -313h-237l47 313h-248l-47 -313h-237l45 313h-140zM465 557h258l49 328h-258z" />
<glyph unicode="$" horiz-adv-x="1144" d="M59 197l160 217q63 -55 129 -96.5t144 -59.5v344q-98 41 -170 85t-117 95.5t-66.5 113.5t-21.5 142v2q0 160 101 263.5t267 128.5v131h199v-129q201 -29 352 -158l-149 -219q-49 37 -101.5 67.5t-107.5 46.5v-329q203 -82 293 -184.5t90 -256.5v-4q0 -80 -27.5 -147.5 t-77 -117.5t-119 -84t-153.5 -46v-209h-199v209q-115 14 -225 61.5t-201 133.5zM401 1057q0 -41 18.5 -71t72.5 -60v250q-47 -16 -69 -46t-22 -71v-2zM678 256q98 31 98 129v2q0 41 -21.5 73t-76.5 64v-268z" />
<glyph unicode="%" horiz-adv-x="1585" d="M80 1067v16q0 78 22.5 145.5t64.5 117t100.5 77t127.5 27.5q70 0 127.5 -27.5t98.5 -76t63.5 -115t22.5 -144.5v-16q0 -78 -22.5 -144.5t-64.5 -115.5t-99.5 -76.5t-129.5 -27.5q-70 0 -127 27.5t-98 75.5t-63.5 113.5t-22.5 143.5zM219 0l508 762l426 672h215l-508 -762 l-428 -672h-213zM281 1073q0 -86 30.5 -136t83.5 -50t82 50t29 134v10q0 86 -31 136.5t-84 50.5t-81.5 -50.5t-28.5 -134.5v-10zM879 346v16q0 78 22.5 144.5t64.5 116t100 77t128 27.5t127 -27.5t98 -76t63.5 -114t22.5 -142.5v-17q0 -78 -22.5 -145.5t-63.5 -116.5 t-99 -76.5t-130 -27.5q-70 0 -127 27.5t-98 75.5t-63.5 114.5t-22.5 144.5zM1079 352q0 -86 31 -136t84 -50t82 50t29 134v10q0 86 -31 136.5t-84 50.5t-82 -50.5t-29 -134.5v-10z" />
<glyph unicode="&#x26;" horiz-adv-x="1265" d="M57 385v6q0 135 68 233.5t192 168.5q-53 82 -79.5 153.5t-26.5 145.5v6q0 72 26.5 137t78 114.5t124 79t164.5 29.5q84 0 152.5 -26.5t117 -73.5t75 -109.5t26.5 -136.5v-8q0 -139 -75 -228.5t-198 -148.5l172 -207q53 94 107 225l221 -96q-70 -182 -160 -321l183 -209 l-215 -148l-138 156q-78 -68 -168 -107.5t-206 -39.5q-92 0 -173 28.5t-140.5 80.5t-93.5 128t-34 168zM352 399q0 -78 50 -126t130 -48q49 0 95.5 20.5t89.5 57.5l-246 301q-63 -41 -91 -94t-28 -107v-4zM477 1085q0 -47 19.5 -91t60.5 -101q82 39 122 86t40 113v4 q0 59 -33 94t-86 35q-55 0 -89 -38t-34 -97v-5z" />
<glyph unicode="'" horiz-adv-x="522" d="M109 780l26 654h320v-13l-205 -641h-141z" />
<glyph unicode="(" horiz-adv-x="823" d="M111 588q0 303 129 522t401 352l115 -190q-195 -123 -277 -291t-82 -393q0 -223 82 -391t277 -291l-115 -191q-272 133 -401 352.5t-129 520.5z" />
<glyph unicode=")" horiz-adv-x="823" d="M68 -94q195 123 276.5 291t81.5 391q0 225 -82 393t-276 291l114 190q270 -133 400.5 -352t130.5 -522q0 -301 -130 -520.5t-401 -352.5z" />
<glyph unicode="*" horiz-adv-x="800" d="M82 1016l217 90l-217 90l84 147l184 -147l-33 242h166l-32 -242l184 147l84 -147l-217 -90l217 -90l-84 -146l-184 146l32 -240h-166l33 240l-184 -146z" />
<glyph unicode="+" horiz-adv-x="1153" d="M111 588v266h329v334h273v-334h329v-266h-329v-334h-273v334h-329z" />
<glyph unicode="," horiz-adv-x="544" d="M49 -211q109 16 154 72.5t37 138.5h-127v315h317v-264q0 -193 -91 -284t-265 -99z" />
<glyph unicode="-" horiz-adv-x="792" d="M96 494v282h600v-282h-600z" />
<glyph unicode="." horiz-adv-x="544" d="M113 0v315h317v-315h-317z" />
<glyph unicode="/" horiz-adv-x="950" d="M-45 -244l770 1860h246l-770 -1860h-246z" />
<glyph unicode="0" horiz-adv-x="1302" d="M92 702v27q0 164 40 299t113.5 230.5t177 147.5t230.5 52t229.5 -52t175 -147.5t112.5 -229.5t40 -298v-26q0 -164 -40 -299.5t-113.5 -230.5t-177 -147.5t-230.5 -52.5t-230.5 52.5t-176 147.5t-111.5 229.5t-39 297.5zM395 709q0 -227 70.5 -345t187.5 -118 q115 0 184.5 116.5t69.5 344.5v18q0 227 -71.5 345t-186.5 118t-184.5 -116t-69.5 -345v-18z" />
<glyph unicode="1" horiz-adv-x="761" d="M43 1337l354 107h205v-1444h-293v1139l-219 -60z" />
<glyph unicode="2" horiz-adv-x="1116" d="M90 0v240l422 434q57 59 96 104t63.5 84t36 75t11.5 75q0 82 -49 126t-123 44q-76 0 -134.5 -42t-127.5 -128l-193 182q94 129 208 194.5t269 65.5q98 0 181.5 -28.5t143.5 -83t93 -131t33 -175.5v-4q0 -76 -17.5 -137t-55.5 -121.5t-95 -123t-137 -140.5l-240 -244h547 v-266h-932z" />
<glyph unicode="3" horiz-adv-x="1105" d="M53 176l178 209q55 -59 124 -99t165 -40q86 0 142.5 50t56.5 136v4q0 92 -74 143.5t-213 51.5h-86l-35 188l316 350h-498v265h862v-236l-336 -352q70 -14 134.5 -43t113.5 -77t79 -117.5t30 -162.5v-6q0 -102 -35 -188t-98.5 -147.5t-153.5 -95.5t-199 -34 q-158 0 -273.5 55.5t-199.5 145.5z" />
<glyph unicode="4" horiz-adv-x="1236" d="M53 510l674 932h260v-899h174v-248h-174v-295h-280v295h-617zM379 543h328v463z" />
<glyph unicode="5" d="M66 158l165 221q70 -59 137.5 -94t149.5 -35q100 0 159.5 56t59.5 155v2q0 96 -65.5 149.5t-165.5 53.5q-55 0 -105.5 -13.5t-91.5 -31.5l-166 108l41 705h785v-267h-539l-16 -260q35 10 71.5 15.5t87.5 5.5q92 0 174 -25.5t144.5 -80t99.5 -140.5t37 -207v-6 q0 -115 -37 -206t-103.5 -155.5t-159.5 -98.5t-204 -34q-139 0 -252.5 48.5t-205.5 134.5z" />
<glyph unicode="6" horiz-adv-x="1196" d="M92 664v12q0 184 37 328.5t109.5 246t180 154.5t247.5 53q117 0 206 -34.5t175 -98.5l-144 -235q-51 41 -108.5 68.5t-135.5 27.5q-68 0 -116.5 -30t-79.5 -78t-47.5 -109.5t-20.5 -124.5q55 37 119 61.5t150 24.5q90 0 169.5 -28t139 -85t95.5 -142t36 -200v-4 q0 -111 -38 -202t-104.5 -156.5t-157 -101.5t-194.5 -36q-117 0 -201.5 35t-150.5 101q-37 39 -67.5 89t-52 115.5t-34 151.5t-12.5 197zM391 459q0 -100 56.5 -161.5t154.5 -61.5q100 0 155.5 60t55.5 161v4q0 98 -56.5 158.5t-156.5 60.5q-98 0 -153.5 -59.5t-55.5 -159.5 v-2z" />
<glyph unicode="7" horiz-adv-x="1103" d="M106 1165v269h916v-222l-549 -1212h-323l550 1165h-594z" />
<glyph unicode="8" horiz-adv-x="1153" d="M76 391v6q0 135 58.5 216t156.5 130q-78 49 -125 125t-47 189v8q0 84 32.5 154.5t93 123t145.5 82t188 29.5q102 0 186 -29.5t144.5 -82t94 -123t33.5 -154.5v-8q0 -113 -48 -188.5t-126 -125.5q47 -27 87 -58.5t69 -71.5t44 -92t15 -118v-8q0 -98 -38 -175t-104.5 -130 t-157 -81.5t-199.5 -28.5t-201 28.5t-158.5 82.5t-104.5 130t-38 170zM365 416q0 -86 57.5 -139.5t155.5 -53.5q96 0 154.5 52.5t58.5 140.5v4q0 90 -60.5 140t-152.5 50t-152.5 -50t-60.5 -140v-4zM397 1034q0 -84 50.5 -134t130.5 -50q78 0 128 50t50 134v2 q0 78 -50.5 127t-127.5 49q-80 0 -130.5 -49t-50.5 -127v-2z" />
<glyph unicode="9" horiz-adv-x="1193" d="M90 950v6q0 111 37 203t103.5 158.5t156.5 103.5t197 37q119 0 201.5 -33.5t150.5 -103.5q37 -39 67.5 -88t52 -114.5t34 -151.5t12.5 -197v-12q0 -377 -148.5 -580t-423.5 -203q-123 0 -220 38t-185 110l143 233q63 -51 127 -79.5t140 -28.5q68 0 115.5 28.5t78.5 75.5 t47.5 105.5t20.5 120.5q-53 -41 -117 -65t-145 -24q-94 0 -175 30t-141.5 87.5t-94.5 144.5t-34 199zM381 967q0 -104 56.5 -166t156.5 -62q98 0 153.5 61.5t55.5 164.5v4q0 104 -56.5 166.5t-156.5 62.5q-98 0 -153.5 -61.5t-55.5 -165.5v-4z" />
<glyph unicode=":" horiz-adv-x="565" d="M123 0v315h317v-315h-317zM123 782v316h317v-316h-317z" />
<glyph unicode=";" horiz-adv-x="565" d="M59 -211q109 16 154 72.5t37 138.5h-127v315h317v-264q0 -193 -91 -284t-265 -99zM123 782v316h317v-316h-317z" />
<glyph unicode="&#x3c;" horiz-adv-x="1153" d="M115 588v266l891 422v-289l-605 -264l605 -264v-293z" />
<glyph unicode="=" horiz-adv-x="1153" d="M119 340v272h913v-272h-913zM119 829v273h913v-273h-913z" />
<glyph unicode="&#x3e;" horiz-adv-x="1153" d="M147 166v289l605 264l-605 264v293l891 -422v-266z" />
<glyph unicode="?" horiz-adv-x="978" d="M25 1260q84 86 188 138t246 52q104 0 188 -28.5t143.5 -81t92 -128t32.5 -172.5v-2q0 -92 -27.5 -159.5t-75.5 -114.5t-112.5 -78t-138.5 -49l-22 -162h-197l-39 340l10 10q162 14 236 66.5t74 136.5v4q0 70 -47.5 109t-126.5 39q-80 0 -143.5 -36t-112.5 -87zM279 0v315 h317v-315h-317z" />
<glyph unicode="@" horiz-adv-x="1798" d="M92 526q0 186 62.5 355.5t174 297.5t264 203.5t333.5 75.5q166 0 308 -62.5t246.5 -167t164 -241.5t59.5 -285q0 -129 -28.5 -233t-81 -179t-123 -115t-156.5 -40q-117 0 -183.5 41t-97.5 94q-47 -55 -114.5 -94t-157.5 -39q-66 0 -123 23.5t-100 68.5t-68 111t-25 147 q0 115 34 215.5t91.5 176t132 119.5t156.5 44q94 0 150.5 -40.5t91.5 -98.5l20 111l230 -37l-95 -541q-4 -23 -6 -44t-2 -42q0 -53 33 -86t92 -33q49 0 94 34t78 96.5t52.5 149.5t19.5 194q0 133 -52.5 253.5t-144.5 213t-219 147.5t-278 55q-162 0 -298.5 -69.5 t-235.5 -186.5t-154.5 -271.5t-55.5 -324.5q0 -164 53.5 -303t148.5 -239.5t228 -156.5t293 -56q131 0 234.5 29.5t208.5 90.5l40 -67q-109 -66 -225.5 -100.5t-261.5 -34.5q-172 0 -320.5 62.5t-256 175t-169 267t-61.5 336.5zM686 524q0 -86 37 -137t111 -51q68 0 122 55 q41 43 69 113.5t28 144.5q0 82 -37 133.5t-111 51.5q-70 0 -123 -56q-39 -39 -67.5 -111.5t-28.5 -142.5z" />
<glyph unicode="A" horiz-adv-x="1380" d="M35 0l514 1442h282l515 -1442h-308l-106 311h-494l-104 -311h-299zM528 573h314l-156 467z" />
<glyph unicode="B" horiz-adv-x="1280" d="M143 0v1434h533q121 0 217 -32t158 -93q47 -49 71.5 -108.5t24.5 -135.5v-6q0 -63 -16.5 -112.5t-43 -87.5t-61.5 -65.5t-74 -48.5q117 -45 186.5 -122.5t69.5 -219.5v-10q0 -96 -36.5 -169.5t-105.5 -123t-164 -75t-212 -25.5h-547zM432 262h266q100 0 158.5 42 t58.5 126v2q0 78 -56 122t-167 44h-260v-336zM432 848h207q98 0 156.5 40t58.5 122v2q0 78 -52 118.5t-149 40.5h-221v-323z" />
<glyph unicode="C" horiz-adv-x="1267" d="M92 707v18q0 164 48 298t134 229.5t206 148.5t261 53q160 0 268.5 -52t192.5 -138l-178 -230q-66 66 -135.5 105t-157.5 39q-72 0 -133 -32t-105 -92.5t-70 -144.5t-26 -188v-6q0 -106 26 -191.5t72 -145t107.5 -91t132.5 -31.5q86 0 154.5 39t140.5 111l178 -211 q-96 -100 -208.5 -157.5t-276.5 -57.5q-141 0 -257 52t-199 147t-129 229.5t-46 298.5z" />
<glyph unicode="D" horiz-adv-x="1380" d="M143 0v1434h463q156 0 283 -51.5t216 -144.5t137 -223t48 -288v-18q0 -158 -48 -288t-137 -224.5t-216 -145.5t-283 -51h-463zM440 268h164q170 0 274.5 114t104.5 329v10q0 215 -104.5 329.5t-274.5 114.5h-164v-897z" />
<glyph unicode="E" horiz-adv-x="1165" d="M143 0v1434h924v-269h-629v-309h553v-268h-553v-320h637v-268h-932z" />
<glyph unicode="F" horiz-adv-x="1134" d="M143 0v1434h924v-273h-627v-321h551v-273h-551v-567h-297z" />
<glyph unicode="G" horiz-adv-x="1376" d="M92 707v18q0 160 50.5 293t139.5 230.5t211.5 151.5t268.5 54q152 0 261.5 -42t207.5 -126l-176 -231q-57 53 -125 88t-172 35q-76 0 -142.5 -33t-114.5 -93.5t-76 -143.5t-28 -181v-16q0 -111 29 -197t79 -144.5t117.5 -89t147.5 -30.5q131 0 213 59v254h-260v258h543 v-663q-98 -74 -224 -126t-286 -52q-143 0 -265 50t-211.5 144t-138.5 229.5t-49 303.5z" />
<glyph unicode="H" horiz-adv-x="1351" d="M143 0v1434h297v-576h471v576h297v-1434h-297v584h-471v-584h-297z" />
<glyph unicode="I" horiz-adv-x="604" d="M154 0v1434h297v-1434h-297z" />
<glyph unicode="J" horiz-adv-x="991" d="M18 164l181 209q45 -51 93 -82t109 -31q76 0 120 50t44 161v963h299v-977q0 -121 -31.5 -209t-91.5 -148q-118 -118 -329 -118q-133 0 -231.5 52t-162.5 130z" />
<glyph unicode="K" horiz-adv-x="1296" d="M143 0v1434h297v-619l469 619h351l-482 -609l502 -825h-348l-359 590l-133 -168v-422h-297z" />
<glyph unicode="L" horiz-adv-x="1075" d="M143 0v1434h297v-1162h580v-272h-877z" />
<glyph unicode="M" horiz-adv-x="1546" d="M143 0v1434h312l319 -582l316 582h313v-1434h-291v915l-338 -591h-6l-336 587v-911h-289z" />
<glyph unicode="N" horiz-adv-x="1398" d="M143 0v1434h273l549 -836v836h290v-1434h-254l-567 866v-866h-291z" />
<glyph unicode="O" horiz-adv-x="1480" d="M92 702v25q0 162 48 296t134 231.5t206 150.5t261 53q143 0 262 -53t205 -149.5t133.5 -230.5t47.5 -294v-24q0 -160 -48.5 -295.5t-134.5 -231.5t-206 -150.5t-261 -54.5q-143 0 -262 53.5t-205 149.5t-133 230.5t-47 293.5zM397 711q0 -106 26 -191.5t72 -145t109 -92 t137 -32.5t136.5 31.5t107.5 91t70.5 144.5t25.5 192v14q0 106 -25.5 191t-70.5 145.5t-108.5 92.5t-137.5 32q-76 0 -138 -32t-107 -91.5t-71 -144.5t-26 -191v-14z" />
<glyph unicode="P" horiz-adv-x="1196" d="M143 0v1434h478q121 0 218 -34t164.5 -97.5t104.5 -154.5t37 -206v-4q0 -123 -42 -216t-113.5 -155.5t-170 -95.5t-211.5 -35h-168v-436h-297zM440 702h166q117 0 178.5 64.5t61.5 165.5v2q0 113 -62.5 172t-181.5 59h-162v-463z" />
<glyph unicode="Q" horiz-adv-x="1484" d="M92 702v25q0 162 48 296t134 231.5t206 150.5t261 53q143 0 262 -53t205 -149.5t133.5 -230.5t47.5 -294v-24q0 -123 -30 -230.5t-83 -195.5l143 -125l-178 -197l-141 131q-76 -55 -167 -85t-194 -30q-143 0 -262 53.5t-205 149.5t-133 230.5t-47 293.5zM397 709 q0 -111 26 -196t73 -144.5t111.5 -90t140.5 -30.5q80 0 143 33l-199 176l176 196l183 -170q30 89 30 214v8v20q0 106 -25.5 191t-70.5 144.5t-108.5 91.5t-137.5 32q-76 0 -138 -32t-107 -90t-71 -142t-26 -191v-20z" />
<glyph unicode="R" horiz-adv-x="1284" d="M143 0v1434h539q252 0 389 -138q121 -121 121 -331v-9q0 -164 -74 -267t-192 -157l305 -532h-340l-264 471h-187v-471h-297zM440 733h219q115 0 174.5 58.5t59.5 156.5v2q0 109 -62.5 162t-177.5 53h-213v-432z" />
<glyph unicode="S" horiz-adv-x="1126" d="M39 193l176 219q72 -63 160 -112.5t196 -49.5q86 0 135.5 39t49.5 102v2q0 27 -9.5 49.5t-37 45t-74.5 47t-125 53.5q-94 37 -171 75.5t-130 89t-82 117t-29 158.5v4q0 94 35 171t96.5 132.5t147.5 86t190 30.5q127 0 246 -43t217 -133l-166 -225q-68 55 -144.5 94 t-160.5 39q-78 0 -122 -35t-44 -90v-2q0 -31 11.5 -55.5t41 -48t83 -49t137.5 -60.5q94 -37 165.5 -77t120.5 -90t74 -113.5t25 -147.5v-4q0 -100 -36 -180t-100.5 -135.5t-153 -85t-192.5 -29.5q-137 0 -274 50t-256 161z" />
<glyph unicode="T" horiz-adv-x="1130" d="M57 1159v275h1016v-275h-360v-1159h-295v1159h-361z" />
<glyph unicode="U" horiz-adv-x="1341" d="M125 557v877h297v-879q0 -154 66.5 -228.5t183.5 -74.5t183.5 73.5t66.5 223.5v885h295v-871q0 -147 -39 -257.5t-111 -183.5t-173 -109t-226 -36q-123 0 -223.5 36t-171 109t-109.5 181.5t-39 253.5z" />
<glyph unicode="V" horiz-adv-x="1310" d="M35 1434h321l303 -988l304 988h313l-483 -1442h-275z" />
<glyph unicode="W" horiz-adv-x="1976" d="M45 1434h313l242 -945l262 949h258l264 -949l240 945h307l-409 -1442h-273l-262 911l-262 -911h-270z" />
<glyph unicode="X" horiz-adv-x="1292" d="M49 0l424 729l-405 705h338l243 -465l248 465h330l-410 -701l426 -733h-338l-262 492l-264 -492h-330z" />
<glyph unicode="Y" horiz-adv-x="1263" d="M16 1434h336l283 -564l285 564h327l-467 -865v-569h-297v565z" />
<glyph unicode="Z" horiz-adv-x="1226" d="M104 0v227l654 942h-633v265h999v-228l-653 -942h653v-264h-1020z" />
<glyph unicode="[" horiz-adv-x="843" d="M158 -266v1700h583v-224h-311v-1253h311v-223h-583z" />
<glyph unicode="\" horiz-adv-x="950" d="M-20 1616h245l772 -1860h-247z" />
<glyph unicode="]" horiz-adv-x="843" d="M102 -43h312v1253h-312v224h584v-1700h-584v223z" />
<glyph unicode="^" horiz-adv-x="1024" d="M150 1016l258 414h208l258 -414h-204l-160 246l-160 -246h-200z" />
<glyph unicode="_" horiz-adv-x="1138" d="M-4 -98h1147v-224h-1147v224z" />
<glyph unicode="`" horiz-adv-x="1024" d="M252 1438l244 112l213 -344h-209z" />
<glyph unicode="a" horiz-adv-x="1060" d="M59 313v13q0 90 29 156.5t79 109.5t120.5 63.5t154.5 20.5q70 0 124.5 -12.5t105.5 -32.5v33q0 96 -54.5 144t-152.5 48q-78 0 -139.5 -19.5t-112.5 -41.5l-80 227q80 41 168 64.5t207 23.5q113 0 196.5 -29.5t137.5 -83.5q57 -57 84.5 -141t27.5 -190v-666h-284v119 q-49 -66 -118 -102.5t-167 -36.5q-68 0 -127 22.5t-103 64.5t-70 104t-26 142zM340 330q0 -68 39 -101.5t102 -35.5h7q82 0 134 45q54 47 54 122v93q-33 16 -75 25t-87 9q-80 0 -127 -38.5t-47 -114.5v-4z" />
<glyph unicode="b" horiz-adv-x="1200" d="M117 0v1479h291v-533q47 70 117.5 121t179.5 51q82 0 156.5 -33.5t133 -102.5t93 -172t34.5 -245v-33q0 -141 -34.5 -244.5t-92 -172t-133 -102t-157.5 -33.5q-55 0 -100.5 13t-81.5 36.5t-64.5 52.5t-50.5 59v-141h-291zM403 539q0 -141 61.5 -223.5t153.5 -82.5 t152.5 82t60.5 224v20q0 141 -60 223t-153 82q-92 0 -153.5 -82t-61.5 -223v-20z" />
<glyph unicode="c" horiz-adv-x="991" d="M74 532v25q0 123 38 225.5t105.5 177t160.5 116.5t204 42q119 0 202.5 -38t155.5 -109l-158 -211q-41 41 -86 69.5t-110 28.5q-49 0 -91 -22.5t-71 -63.5t-45.5 -96t-16.5 -123v-8q0 -137 59.5 -223t170.5 -86q66 0 111 27.5t88 72.5l153 -193q-68 -76 -156 -122 t-217 -46q-109 0 -199.5 42t-157.5 116t-103.5 176.5t-36.5 222.5z" />
<glyph unicode="d" horiz-adv-x="1200" d="M78 532v33q0 141 34.5 244.5t92 172.5t133.5 102.5t158 33.5q111 0 180 -50t117 -112v523h290v-1479h-290v152q-47 -70 -117.5 -121t-179.5 -51q-82 0 -157 33.5t-133.5 102t-93 172t-34.5 244.5zM369 539q0 -141 60.5 -223.5t152.5 -82.5t153.5 82t61.5 224v20 q0 141 -61.5 223t-153.5 82t-152.5 -82t-60.5 -223v-20z" />
<glyph unicode="e" horiz-adv-x="1091" d="M72 537v18q0 123 35.5 225.5t100 178t151.5 117.5t192 42q117 0 205 -45t146.5 -124t87 -185.5t28.5 -228.5v-37t-2 -58h-656q18 -111 82 -166t156 -55q68 0 122 28.5t107 80.5l150 -176q-76 -84 -172 -130.5t-219 -46.5q-109 0 -203 40t-162.5 113t-108.5 176.5 t-40 232.5zM358 633h379q-10 115 -57 180.5t-129 65.5q-80 0 -130 -64.5t-63 -181.5z" />
<glyph unicode="f" horiz-adv-x="686" d="M51 852v238h111v73q0 164 82 246t239 82q59 0 102.5 -7t78.5 -18v-239q-27 8 -51.5 13t-55.5 5q-106 0 -106 -112v-43h213v-238h-211v-852h-291v852h-111z" />
<glyph unicode="g" horiz-adv-x="1200" d="M78 598v6q0 129 33.5 226.5t90 161t131.5 95t154 31.5q113 0 182.5 -48t123.5 -114v142h290v-897q0 -131 -31.5 -225.5t-93.5 -157.5q-70 -68 -173 -99.5t-244 -31.5q-117 0 -219.5 23.5t-198.5 68.5l90 225q66 -37 145.5 -58.5t165.5 -21.5q270 0 271 260v70 q-55 -72 -126 -122t-182 -50q-82 0 -155.5 31.5t-130 96t-90 162t-33.5 226.5zM369 600q0 -125 60.5 -196.5t152.5 -71.5t153.5 72.5t61.5 195.5v2q0 123 -61.5 194.5t-153.5 71.5t-152.5 -71.5t-60.5 -194.5v-2z" />
<glyph unicode="h" d="M117 0v1479h291v-529q47 66 112.5 117t169.5 51q154 0 239 -99t85 -271v-748h-291v662q0 98 -41 146t-115 48q-72 0 -115.5 -48t-43.5 -146v-662h-291z" />
<glyph unicode="i" horiz-adv-x="546" d="M121 1214v265h303v-265h-303zM127 0v1098h291v-1098h-291z" />
<glyph unicode="j" horiz-adv-x="546" d="M-27 -78q14 -2 25.5 -3t26.5 -1q47 0 75.5 26.5t28.5 90.5v1063h291v-1088q0 -170 -84 -247.5t-240 -77.5q-41 0 -67.5 3t-55.5 7v227zM123 1214v265h303v-265h-303z" />
<glyph unicode="k" horiz-adv-x="1064" d="M117 0v1479h291v-787l299 406h340l-349 -436l357 -662h-332l-225 440l-90 -116v-324h-291z" />
<glyph unicode="l" horiz-adv-x="546" d="M127 0v1479h291v-1479h-291z" />
<glyph unicode="m" horiz-adv-x="1712" d="M117 0v1098h291v-148q49 70 115.5 119t168.5 49q96 0 164 -43t107 -117q59 72 135 116t176 44q147 0 236 -93t89 -275v-750h-288v662q0 96 -40 145t-112 49t-113.5 -49t-41.5 -145v-662h-291v662q0 194 -148 194h-2q-72 0 -113.5 -49t-41.5 -145v-662h-291z" />
<glyph unicode="n" d="M117 0v1098h291v-148q47 66 112.5 117t169.5 51q154 0 239 -99t85 -271v-748h-291v662q0 98 -41 146t-115 48q-72 0 -115.5 -48t-43.5 -146v-662h-291z" />
<glyph unicode="o" horiz-adv-x="1181" d="M74 535v22q0 123 39 225.5t108.5 177t164.5 116.5t206 42t205 -41t162.5 -115.5t107.5 -177t39 -225.5v-22q0 -123 -39 -225.5t-107.5 -177.5t-163.5 -117t-206 -42t-206 41t-163.5 116t-107.5 177.5t-39 225.5zM360 541q0 -66 16.5 -123.5t47.5 -99.5t74 -66.5t94 -24.5 q53 0 96 23.5t71.5 65.5t44 98.5t15.5 124.5v14q0 68 -16.5 125t-46 99t-71.5 65.5t-95 23.5q-55 0 -97 -23.5t-72 -65.5t-45.5 -98t-15.5 -124v-14z" />
<glyph unicode="p" horiz-adv-x="1200" d="M117 -309v1407h291v-152q47 70 117.5 121t179.5 51q82 0 156.5 -33.5t133 -102.5t93 -172t34.5 -245v-33q0 -141 -34.5 -244.5t-92 -172t-133.5 -102t-157 -33.5q-55 0 -100.5 13t-81.5 36.5t-64.5 52.5t-50.5 59v-450h-291zM403 539q0 -141 61.5 -223.5t153.5 -82.5 t152.5 82t60.5 224v20q0 141 -60 223t-153 82q-92 0 -153.5 -82t-61.5 -223v-20z" />
<glyph unicode="q" horiz-adv-x="1200" d="M78 532v33q0 141 34.5 244.5t92 172.5t133.5 102.5t158 33.5q111 0 180 -50t117 -112v142h290v-1407h-290v461q-47 -70 -118 -121t-179 -51q-82 0 -157 33.5t-133.5 102t-93 172t-34.5 244.5zM369 539q0 -141 60.5 -223.5t152.5 -82.5t153.5 82t61.5 224v20 q0 141 -61.5 223t-153.5 82t-152.5 -82t-60.5 -223v-20z" />
<glyph unicode="r" horiz-adv-x="751" d="M117 0v1098h291v-195q40 99 110 159q63 54 166 55q10 0 21 -1v-315h-13q-135 0 -209.5 -83t-74.5 -257v-461h-291z" />
<glyph unicode="s" horiz-adv-x="897" d="M33 131l127 205q74 -57 149.5 -90t143.5 -33q61 0 88.5 24.5t27.5 59.5v4q0 47 -55 74.5t-145 66.5q-57 25 -110.5 54.5t-92.5 67.5t-62.5 89.5t-23.5 120.5v4q0 80 28.5 142.5t80 105.5t120 65.5t148.5 22.5q90 0 184 -29.5t178 -89.5l-117 -209q-61 41 -125.5 68 t-123.5 27q-53 0 -80 -22.5t-27 -55.5v-4q0 -43 55.5 -73t143.5 -71q59 -29 112.5 -59.5t93.5 -68.5t62.5 -87t22.5 -114v-4q0 -86 -30 -149.5t-82 -106.5t-122.5 -64.5t-152.5 -21.5q-98 0 -207 34.5t-209 116.5z" />
<glyph unicode="t" horiz-adv-x="743" d="M51 852v246h111v280h291v-280h217v-246h-217v-518q0 -94 90 -94q35 0 65.5 8t59.5 22v-231q-43 -25 -96 -41t-119 -16q-63 0 -116.5 13t-92.5 47t-60.5 90t-21.5 142v578h-111z" />
<glyph unicode="u" d="M111 350v748h288v-662q0 -98 41 -146t115 -48t117 48t43 146v662h291v-1098h-291v147q-45 -66 -112 -116.5t-169 -50.5q-156 0 -239.5 99t-83.5 271z" />
<glyph unicode="v" horiz-adv-x="1079" d="M35 1098h303l205 -729l207 729h294l-368 -1106h-270z" />
<glyph unicode="w" horiz-adv-x="1554" d="M41 1098h293l149 -649l170 653h248l172 -656l152 652h288l-294 -1106h-269l-174 651l-178 -651h-266z" />
<glyph unicode="x" horiz-adv-x="1052" d="M37 0l328 559l-316 539h307l172 -322l174 322h302l-318 -535l330 -563h-309l-183 342l-184 -342h-303z" />
<glyph unicode="y" horiz-adv-x="1079" d="M35 1098h303l207 -727l200 727h295l-360 -1112q-27 -82 -58.5 -139.5t-69.5 -94.5t-87 -53t-115 -16t-124 17t-111 48l80 217q27 -16 58.5 -26.5t59.5 -10.5q35 0 56.5 14.5t38.5 55.5z" />
<glyph unicode="z" horiz-adv-x="983" d="M78 0v205l483 655h-467v238h815v-205l-485 -655h485v-238h-831z" />
<glyph unicode="{" horiz-adv-x="894" d="M84 475v225h51q104 0 154.5 44t50.5 151q0 43 -10.5 96t-10.5 96q0 74 23 135.5t75 109.5t138 81t213 51l45 -196q-68 -14 -112 -32.5t-70.5 -44.5t-36.5 -59.5t-10 -76.5q0 -51 11 -101.5t11 -101.5q0 -106 -59.5 -171t-163.5 -93q104 -29 163.5 -93.5t59.5 -170.5 q0 -51 -11 -101.5t-11 -101.5q0 -43 10 -77t36.5 -59.5t70.5 -44t112 -32.5l-45 -197q-127 18 -213 51t-138 81t-75 109.5t-23 135.5q0 43 10.5 96.5t10.5 96.5q0 106 -50 150t-155 44h-51z" />
<glyph unicode="|" horiz-adv-x="655" d="M213 -244v1860h229v-1860h-229z" />
<glyph unicode="}" horiz-adv-x="894" d="M80 -92q68 14 113 32.5t71.5 44t36.5 59.5t10 77q0 51 -11 101t-11 102q0 106 59.5 170.5t163.5 93.5q-104 29 -163.5 93t-59.5 171q0 51 11 101.5t11 101.5q0 43 -10 76.5t-36.5 59.5t-72 44t-112.5 33l47 196q127 -18 213 -51t138 -81t74.5 -109.5t22.5 -135.5 q0 -43 -10 -96t-10 -96q0 -106 50 -150.5t155 -44.5h49v-225h-49q-104 0 -154.5 -44t-50.5 -150q0 -43 10 -96.5t10 -96.5q0 -74 -22.5 -135.5t-74.5 -109.5t-138 -80.5t-213 -51.5z" />
<glyph unicode="~" horiz-adv-x="958" d="M92 522q29 127 84 195.5t148 68.5q51 0 94 -15t78 -32q33 -14 60.5 -24t51.5 -10q41 0 65.5 24.5t43.5 75.5l149 -47q-29 -129 -84 -197.5t-147 -68.5q-51 0 -94 15t-78 32q-31 14 -59.5 25t-53.5 11q-41 0 -61.5 -25.5t-40.5 -74.5z" />
<glyph unicode="&#xa1;" horiz-adv-x="602" d="M129 0v41l92 917h158l94 -917v-41h-344zM141 1118v316h318v-316h-318z" />
<glyph unicode="&#xa2;" horiz-adv-x="1019" d="M82 713v22q0 117 36 217.5t99.5 174t151.5 117.5t192 50l21 152h198l-24 -174q113 -33 198 -123l-155 -209q-20 20 -41 37.5t-45 30.5l-82 -592q49 6 90 29.5t84 64.5l151 -191q-68 -72 -151.5 -115.5t-202.5 -47.5l-22 -168h-199l27 198q-72 27 -132.5 77t-103.5 118 t-66.5 151.5t-23.5 180.5zM367 723q0 -178 88 -256l77 559q-76 -23 -120.5 -101.5t-44.5 -197.5v-4z" />
<glyph unicode="&#xa3;" horiz-adv-x="1140" d="M100 0v195l140 51v309h-138v250h138v186q0 113 29.5 200t88.5 144q57 57 137 88t179 31q139 0 235.5 -53t163.5 -144l-207 -192q-37 49 -77.5 79t-100.5 30q-61 0 -100 -39q-49 -45 -49 -152v-178h385v-250h-385v-297h524v-258h-963z" />
<glyph unicode="&#xa5;" horiz-adv-x="1232" d="M27 1434h329l262 -547l269 547h319l-377 -693h248v-213h-319v-125h319v-213h-319v-190h-285v190h-317v213h317v125h-317v213h243z" />
<glyph unicode="&#xa7;" horiz-adv-x="1159" d="M90 713v4q0 94 50 151.5t128 87.5q-41 35 -60.5 83t-19.5 102v4q0 141 105.5 225t286.5 84q248 0 407 -154l-143 -178q-49 43 -115.5 75t-140.5 32q-59 0 -91 -20.5t-32 -55.5v-2q0 -16 8 -30.5t30.5 -30t63.5 -31t109 -35.5q201 -55 297 -120.5t96 -182.5v-4 q0 -92 -50 -150.5t-128 -89.5q39 -35 59.5 -83t20.5 -101v-4q0 -141 -104.5 -225t-284.5 -84q-250 0 -410 153l143 178q51 -43 117 -74.5t139 -31.5q61 0 93 20.5t32 55.5v2q0 18 -9 33.5t-33.5 29.5t-65.5 29.5t-105 34.5q-199 55 -296 121.5t-97 181.5zM350 754 q0 -43 46 -71t134 -56q66 -23 105 -32t70 -9q43 0 74.5 25.5t31.5 66.5v2q0 43 -46 70.5t-136 56.5q-66 23 -105 32t-69 9q-43 0 -74 -25.5t-31 -66.5v-2z" />
<glyph unicode="&#xa8;" horiz-adv-x="1024" d="M182 1208v258h275v-258h-275zM567 1208v258h275v-258h-275z" />
<glyph unicode="&#xa9;" horiz-adv-x="1513" d="M92 705v22q0 154 51.5 288t140.5 232.5t210.5 154.5t263.5 56q141 0 263 -56t211 -154.5t139 -231.5t50 -287v-22q0 -154 -51 -288t-140 -232.5t-211 -155t-263 -56.5t-263 56.5t-211 155t-139.5 231.5t-50.5 287zM174 702q0 -137 43 -254.5t121 -204.5t184.5 -136.5 t233.5 -49.5t233.5 49.5t184 137.5t121.5 206.5t44 256.5v24q0 137 -43 255t-120.5 205t-184 136t-233.5 49t-233.5 -49t-184.5 -137t-122 -206t-44 -257v-25zM420 717v12q0 90 26.5 165t73.5 128t112.5 82t143.5 29q90 0 148.5 -27t105.5 -72l-98 -129q-33 31 -71 51.5 t-85 20.5q-78 0 -131 -65.5t-53 -182.5v-8q0 -117 52 -182.5t134 -65.5q49 0 85 20.5t73 55.5l98 -117q-53 -59 -116.5 -87t-147.5 -28q-78 0 -142.5 29t-110.5 81t-71.5 126t-25.5 164z" />
<glyph unicode="&#xaa;" horiz-adv-x="714" d="M90 584v123h514v-123h-514zM98 1001v9q0 100 58.5 146t152.5 46q37 0 68 -7t59 -17v18q0 51 -30.5 77.5t-86.5 26.5q-41 0 -74.5 -10t-62.5 -24l-47 125q43 23 93.5 36t117.5 13q117 0 180 -60q33 -31 48.5 -78t15.5 -106v-367h-156v66q-29 -35 -66 -55.5t-92 -20.5 q-76 0 -127 47t-51 135zM252 1010q0 -35 21.5 -54.5t56.5 -19.5q47 0 77.5 25.5t30.5 66.5v51q-18 8 -41.5 14.5t-48.5 6.5q-45 0 -70.5 -20.5t-25.5 -61.5v-8z" />
<glyph unicode="&#xab;" horiz-adv-x="1206" d="M74 541v16l342 455l202 -105l-231 -356l234 -356l-205 -109zM578 541v16l342 455l202 -105l-231 -356l233 -356l-204 -109z" />
<glyph unicode="&#xad;" horiz-adv-x="792" d="M96 494v282h600v-282h-600z" />
<glyph unicode="&#xae;" horiz-adv-x="720" d="M33 1090v12q0 76 24.5 140.5t68.5 112.5t104.5 75.5t129.5 27.5q70 0 130.5 -27.5t104.5 -75.5t68.5 -112.5t24.5 -140.5v-10q0 -76 -25.5 -140.5t-69.5 -112.5t-103.5 -76t-129.5 -28t-130 28t-104 75t-68.5 111.5t-24.5 140.5zM76 1090q0 -66 21.5 -123.5t59.5 -99.5 t90 -66.5t113 -24.5t113.5 24.5t90.5 67.5t59.5 100.5t21.5 123.5v10q0 68 -21.5 125t-59.5 99t-90 66.5t-114 24.5q-61 0 -113 -24.5t-90 -67.5t-59.5 -100.5t-21.5 -122.5v-12zM221 911v381h152q66 0 107.5 -29.5t41.5 -95.5v-2q0 -43 -19.5 -71.5t-51.5 -42.5l81 -140 h-108l-70 119h-37v-119h-96zM317 1110h50q57 0 57 49q0 51 -57 51h-50v-100z" />
<glyph unicode="&#xaf;" horiz-adv-x="1024" d="M184 1214v199h656v-199h-656z" />
<glyph unicode="&#xb0;" horiz-adv-x="858" d="M113 1094v8q0 74 25.5 137.5t68.5 109.5t100.5 71.5t120.5 25.5q66 0 124 -25.5t101 -71.5t69 -109.5t26 -137.5v-8q0 -74 -26 -137.5t-69 -109.5t-101 -71.5t-124 -25.5q-63 0 -120.5 25.5t-100.5 71.5t-68.5 109.5t-25.5 137.5zM274 1096q0 -86 44 -138.5t110 -52.5 q68 0 112 52.5t44 138.5v4q0 86 -44 139t-112 53q-66 0 -110 -53t-44 -139v-4z" />
<glyph unicode="&#xb1;" horiz-adv-x="1153" d="M119 0v246h913v-246h-913zM119 725v260l327 -2l-2 330h265l-2 -330l327 2v-260l-327 2l2 -330h-265l2 330z" />
<glyph unicode="&#xb2;" horiz-adv-x="722" d="M88 1530q59 70 121.5 107.5t157.5 37.5q117 0 187.5 -62.5t70.5 -166.5q0 -70 -30 -124t-108 -128l-170 -158h310v-153h-535v147l240 227q59 57 88 93t29 77t-28 65t-69 24t-77.5 -25t-79.5 -70z" />
<glyph unicode="&#xb3;" horiz-adv-x="722" d="M72 969l90 131q37 -33 84 -55.5t100 -22.5q45 0 77 25.5t32 68.5q0 47 -39 70.5t-109 23.5h-69l-21 111l186 182h-284v154h497v-131l-202 -191q92 -10 153.5 -61t61.5 -152q0 -117 -76 -187.5t-205 -70.5q-92 0 -157.5 30t-118.5 75z" />
<glyph unicode="&#xb4;" horiz-adv-x="1024" d="M307 1206l213 344l244 -112l-248 -232h-209z" />
<glyph unicode="&#xb6;" horiz-adv-x="1069" d="M59 948v4q0 119 40 209t112 150.5t170 91.5t215 31h328v-1434h-297v467h-35q-111 2 -208 32.5t-170 90t-114 149.5t-41 209z" />
<glyph unicode="&#xb7;" horiz-adv-x="557" d="M119 477v316h317v-316h-317z" />
<glyph unicode="&#xb8;" horiz-adv-x="1024" d="M262 -227l182 268h201l-139 -367z" />
<glyph unicode="&#xb9;" horiz-adv-x="587" d="M74 1577l221 90h129v-784h-174v602l-139 -55z" />
<glyph unicode="&#xba;" horiz-adv-x="714" d="M80 1122v15q0 68 21.5 124t58.5 97t88 63.5t110 22.5t110.5 -22.5t88.5 -63.5t57.5 -96.5t20.5 -122.5v-15q0 -68 -21.5 -124t-58.5 -97t-88.5 -63.5t-110.5 -22.5t-110 22.5t-88 63.5t-57.5 96.5t-20.5 122.5zM94 584v123h524v-123h-524zM238 1126q0 -74 32.5 -123 t87.5 -49t87 49.5t32 120.5v11q0 74 -32.5 122t-88.5 48q-55 0 -86.5 -47.5t-31.5 -120.5v-11z" />
<glyph unicode="&#xbb;" horiz-adv-x="1206" d="M82 190l233 357l-233 356l203 109l344 -455v-16l-344 -455zM584 903l204 109l345 -455v-16l-345 -455l-202 104l233 357z" />
<glyph unicode="&#xbc;" horiz-adv-x="1492" d="M74 1354l221 90h129v-785h-174v601l-139 -56zM215 0l457 752l397 682h158l-457 -752l-397 -682h-158zM823 313l322 469h188v-489h92v-139h-92v-158h-157v158h-340zM969 291h211v305h-4z" />
<glyph unicode="&#xbd;" horiz-adv-x="1492" d="M74 1354l221 90h129v-785h-174v601l-139 -56zM193 0l456 752l398 682h157l-456 -752l-398 -682h-157zM864 647q59 70 122 108t157 38q117 0 187.5 -62.5t70.5 -167.5q0 -70 -30 -124t-107 -128l-170 -157h309v-154h-535v147l240 228q59 57 88 93t29 77t-28 64.5t-69 23.5 t-77.5 -24.5t-79.5 -69.5z" />
<glyph unicode="&#xbe;" horiz-adv-x="1626" d="M72 745l90 129q37 -31 84 -54t100 -23q45 0 77 25.5t32 70.5q0 47 -39 70.5t-109 23.5h-69l-21 111l186 180h-284v156h497v-131l-202 -191q90 -10 152.5 -61.5t62.5 -153.5q0 -117 -76 -186.5t-205 -69.5q-92 0 -157.5 28.5t-118.5 75.5zM344 0l457 752l397 682h158 l-457 -752l-397 -682h-158zM963 313l321 469h189v-489h92v-139h-92v-158h-158v158h-340zM1108 291h211v305h-4z" />
<glyph unicode="&#xbf;" horiz-adv-x="978" d="M61 393v2q0 92 29 160t77 115t112.5 77.5t136.5 49.5l24 161h195l41 -340l-10 -10q-162 -14 -236 -66.5t-74 -135.5v-5q0 -70 47.5 -108.5t126.5 -38.5q78 0 142.5 36t113.5 87l168 -203q-86 -86 -190.5 -138t-243.5 -52q-104 0 -188 28.5t-144.5 80.5t-93.5 129t-33 171 zM383 1118v316h315v-316h-315z" />
<glyph unicode="&#xc0;" horiz-adv-x="1380" d="M35 0l514 1442h282l515 -1442h-308l-106 311h-494l-104 -311h-299zM332 1737l250 112l227 -303h-221zM528 573h314l-156 467z" />
<glyph unicode="&#xc1;" horiz-adv-x="1380" d="M35 0l514 1442h282l515 -1442h-308l-106 311h-494l-104 -311h-299zM528 573h314l-156 467zM567 1546l228 303l249 -112l-256 -191h-221z" />
<glyph unicode="&#xc2;" horiz-adv-x="1380" d="M35 0l514 1442h282l515 -1442h-308l-106 311h-494l-104 -311h-299zM326 1540l229 285h266l230 -285h-226l-139 111l-139 -111h-221zM528 573h314l-156 467z" />
<glyph unicode="&#xc3;" horiz-adv-x="1380" d="M35 0l514 1442h282l515 -1442h-308l-106 311h-494l-104 -311h-299zM313 1575q31 129 81 196.5t145 67.5q47 0 92 -14.5t86 -30.5q35 -12 61.5 -21.5t48.5 -9.5q39 0 59.5 23.5t39.5 71.5l157 -48q-31 -129 -81 -196.5t-144 -67.5q-47 0 -91 13.5t-85 29.5 q-35 14 -62.5 23.5t-50.5 9.5q-39 0 -59.5 -22.5t-38.5 -69.5zM528 573h314l-156 467z" />
<glyph unicode="&#xc4;" horiz-adv-x="1380" d="M35 0l514 1442h282l515 -1442h-308l-106 311h-494l-104 -311h-299zM348 1548v248h275v-248h-275zM528 573h314l-156 467zM754 1548v248h274v-248h-274z" />
<glyph unicode="&#xc5;" horiz-adv-x="1380" d="M35 0l483 1368q-59 59 -59 143q0 47 18.5 86t50 67t73.5 43t89 15t89 -15t74 -43t50.5 -66.5t18.5 -86.5q0 -45 -16.5 -80.5t-45.5 -64.5l486 -1366h-308l-106 311h-494l-104 -311h-299zM528 573h314l-156 467zM575 1511q0 -43 32 -73.5t83 -30.5t83 30.5t32 73.5 q0 45 -32 76t-83 31t-83 -31t-32 -76z" />
<glyph unicode="&#xc6;" horiz-adv-x="1843" d="M12 0l656 1434h1077v-269h-594v-309h518v-268h-518v-320h602v-268h-897v311h-405l-140 -311h-299zM569 573h287v592h-31z" />
<glyph unicode="&#xc7;" horiz-adv-x="1267" d="M92 707v18q0 164 48 298t134 229.5t206 148.5t261 53q160 0 268.5 -52t192.5 -138l-178 -230q-66 66 -135.5 105t-157.5 39q-72 0 -133 -32t-105 -92.5t-70 -144.5t-26 -188v-6q0 -106 26 -191.5t72 -145t107.5 -91t132.5 -31.5q86 0 154.5 39t140.5 111l178 -211 q-90 -92 -190 -147.5t-242 -65.5l-117 -308l-243 99l151 225q-109 25 -196.5 86t-149 152.5t-95.5 210t-34 260.5z" />
<glyph unicode="&#xc8;" horiz-adv-x="1165" d="M143 0v1434h924v-269h-629v-309h553v-268h-553v-320h637v-268h-932zM252 1724l250 113l227 -303h-221z" />
<glyph unicode="&#xc9;" horiz-adv-x="1165" d="M143 0v1434h924v-269h-629v-309h553v-268h-553v-320h637v-268h-932zM485 1534l228 303l250 -113l-256 -190h-222z" />
<glyph unicode="&#xca;" horiz-adv-x="1165" d="M143 0v1434h924v-269h-629v-309h553v-268h-553v-320h637v-268h-932zM246 1534l229 285h266l230 -285h-226l-139 111l-139 -111h-221z" />
<glyph unicode="&#xcb;" horiz-adv-x="1165" d="M143 0v1434h924v-269h-629v-309h553v-268h-553v-320h637v-268h-932zM268 1536v248h275v-248h-275zM674 1536v248h274v-248h-274z" />
<glyph unicode="&#xcc;" horiz-adv-x="604" d="M-53 1724l250 113l227 -303h-221zM154 0v1434h297v-1434h-297z" />
<glyph unicode="&#xcd;" horiz-adv-x="604" d="M154 0v1434h297v-1434h-297zM182 1534l228 303l249 -113l-256 -190h-221z" />
<glyph unicode="&#xce;" horiz-adv-x="604" d="M-59 1534l229 285h266l230 -285h-226l-139 111l-139 -111h-221zM154 0v1434h297v-1434h-297z" />
<glyph unicode="&#xcf;" horiz-adv-x="604" d="M-37 1536v248h275v-248h-275zM154 0v1434h297v-1434h-297zM369 1536v248h274v-248h-274z" />
<glyph unicode="&#xd0;" horiz-adv-x="1429" d="M61 590v262h129v582h463q154 0 281 -51.5t217 -144.5t139 -223t49 -288v-18q0 -158 -49 -288t-139 -224.5t-217 -145.5t-281 -51h-463v590h-129zM487 268h164q172 0 276.5 114t104.5 329v10q0 215 -104.5 329.5t-276.5 114.5h-164v-313h248v-262h-248v-322z" />
<glyph unicode="&#xd1;" horiz-adv-x="1398" d="M143 0v1434h273l549 -836v836h290v-1434h-254l-567 866v-866h-291zM322 1563q31 129 81 196.5t144 67.5q47 0 92 -14.5t86 -30.5q35 -12 61.5 -21.5t49.5 -9.5q39 0 59 23.5t39 70.5l158 -47q-31 -129 -81.5 -196.5t-144.5 -67.5q-47 0 -91 13.5t-85 29.5 q-35 14 -62.5 23.5t-49.5 9.5q-39 0 -59.5 -22.5t-39.5 -69.5z" />
<glyph unicode="&#xd2;" horiz-adv-x="1480" d="M92 702v25q0 162 48 296t134 231.5t206 150.5t261 53q143 0 262 -53t205 -149.5t133.5 -230.5t47.5 -294v-24q0 -160 -48.5 -295.5t-134.5 -231.5t-206 -150.5t-261 -54.5q-143 0 -262 53.5t-205 149.5t-133 230.5t-47 293.5zM381 1737l250 112l227 -303h-221zM397 711 q0 -106 26 -191.5t72 -145t109 -92t137 -32.5t136.5 31.5t107.5 91t70.5 144.5t25.5 192v14q0 106 -25.5 191t-70.5 145.5t-108.5 92.5t-137.5 32q-76 0 -138 -32t-107 -91.5t-71 -144.5t-26 -191v-14z" />
<glyph unicode="&#xd3;" horiz-adv-x="1480" d="M92 702v25q0 162 48 296t134 231.5t206 150.5t261 53q143 0 262 -53t205 -149.5t133.5 -230.5t47.5 -294v-24q0 -160 -48.5 -295.5t-134.5 -231.5t-206 -150.5t-261 -54.5q-143 0 -262 53.5t-205 149.5t-133 230.5t-47 293.5zM397 711q0 -106 26 -191.5t72 -145t109 -92 t137 -32.5t136.5 31.5t107.5 91t70.5 144.5t25.5 192v14q0 106 -25.5 191t-70.5 145.5t-108.5 92.5t-137.5 32q-76 0 -138 -32t-107 -91.5t-71 -144.5t-26 -191v-14zM618 1546l228 303l250 -112l-256 -191h-222z" />
<glyph unicode="&#xd4;" horiz-adv-x="1480" d="M92 702v25q0 162 48 296t134 231.5t206 150.5t261 53q143 0 262 -53t205 -149.5t133.5 -230.5t47.5 -294v-24q0 -160 -48.5 -295.5t-134.5 -231.5t-206 -150.5t-261 -54.5q-143 0 -262 53.5t-205 149.5t-133 230.5t-47 293.5zM377 1546l229 285h266l230 -285h-225 l-140 111l-139 -111h-221zM397 711q0 -106 26 -191.5t72 -145t109 -92t137 -32.5t136.5 31.5t107.5 91t70.5 144.5t25.5 192v14q0 106 -25.5 191t-70.5 145.5t-108.5 92.5t-137.5 32q-76 0 -138 -32t-107 -91.5t-71 -144.5t-26 -191v-14z" />
<glyph unicode="&#xd5;" horiz-adv-x="1480" d="M92 702v25q0 162 48 296t134 231.5t206 150.5t261 53q143 0 262 -53t205 -149.5t133.5 -230.5t47.5 -294v-24q0 -160 -48.5 -295.5t-134.5 -231.5t-206 -150.5t-261 -54.5q-143 0 -262 53.5t-205 149.5t-133 230.5t-47 293.5zM362 1575q31 129 81.5 196.5t144.5 67.5 q47 0 92 -14.5t86 -30.5q35 -12 61.5 -21.5t49.5 -9.5q39 0 59 23.5t39 71.5l158 -48q-31 -129 -81.5 -196.5t-144.5 -67.5q-47 0 -91 13.5t-85 29.5q-35 14 -62.5 23.5t-50.5 9.5q-39 0 -59 -22.5t-39 -69.5zM397 711q0 -106 26 -191.5t72 -145t109 -92t137 -32.5 t136.5 31.5t107.5 91t70.5 144.5t25.5 192v14q0 106 -25.5 191t-70.5 145.5t-108.5 92.5t-137.5 32q-76 0 -138 -32t-107 -91.5t-71 -144.5t-26 -191v-14z" />
<glyph unicode="&#xd6;" horiz-adv-x="1480" d="M92 702v25q0 162 48 296t134 231.5t206 150.5t261 53q143 0 262 -53t205 -149.5t133.5 -230.5t47.5 -294v-24q0 -160 -48.5 -295.5t-134.5 -231.5t-206 -150.5t-261 -54.5q-143 0 -262 53.5t-205 149.5t-133 230.5t-47 293.5zM397 711q0 -106 26 -191.5t72 -145t109 -92 t137 -32.5t136.5 31.5t107.5 91t70.5 144.5t25.5 192v14q0 106 -25.5 191t-70.5 145.5t-108.5 92.5t-137.5 32q-76 0 -138 -32t-107 -91.5t-71 -144.5t-26 -191v-14zM399 1548v248h275v-248h-275zM805 1548v248h274v-248h-274z" />
<glyph unicode="&#xd7;" horiz-adv-x="1153" d="M113 428l290 291l-290 293l188 178l277 -291l276 291l186 -176l-290 -291l290 -293l-188 -178l-277 291l-276 -291z" />
<glyph unicode="&#xd8;" horiz-adv-x="1480" d="M84 -10l162 223q-74 94 -114 218t-40 271v25q0 160 48 295t134 231.5t206 150.5t261 54q96 0 181.5 -24.5t156.5 -71.5l64 82h254l-164 -223q74 -94 115 -218t41 -272v-24q0 -160 -48.5 -295.5t-134.5 -231.5t-205.5 -150.5t-261.5 -54.5q-98 0 -183 25t-157 72l-61 -82 h-254zM393 709q0 -135 41 -240l484 664q-80 57 -179 57q-76 0 -140 -33t-109.5 -92t-71 -145t-25.5 -193v-18zM561 301q80 -57 180 -57q76 0 139.5 32.5t109.5 92t71.5 145.5t25.5 193v18q0 139 -43 240z" />
<glyph unicode="&#xd9;" horiz-adv-x="1341" d="M125 557v877h297v-879q0 -154 66.5 -228.5t183.5 -74.5t183.5 73.5t66.5 223.5v885h295v-871q0 -147 -39 -257.5t-111 -183.5t-173 -109t-226 -36q-123 0 -223.5 36t-171 109t-109.5 181.5t-39 253.5zM313 1724l250 113l228 -303h-222z" />
<glyph unicode="&#xda;" horiz-adv-x="1341" d="M125 557v877h297v-879q0 -154 66.5 -228.5t183.5 -74.5t183.5 73.5t66.5 223.5v885h295v-871q0 -147 -39 -257.5t-111 -183.5t-173 -109t-226 -36q-123 0 -223.5 36t-171 109t-109.5 181.5t-39 253.5zM549 1534l227 303l250 -113l-256 -190h-221z" />
<glyph unicode="&#xdb;" horiz-adv-x="1341" d="M125 557v877h297v-879q0 -154 66.5 -228.5t183.5 -74.5t183.5 73.5t66.5 223.5v885h295v-871q0 -147 -39 -257.5t-111 -183.5t-173 -109t-226 -36q-123 0 -223.5 36t-171 109t-109.5 181.5t-39 253.5zM307 1534l230 285h266l229 -285h-225l-139 111l-140 -111h-221z" />
<glyph unicode="&#xdc;" horiz-adv-x="1341" d="M125 557v877h297v-879q0 -154 66.5 -228.5t183.5 -74.5t183.5 73.5t66.5 223.5v885h295v-871q0 -147 -39 -257.5t-111 -183.5t-173 -109t-226 -36q-123 0 -223.5 36t-171 109t-109.5 181.5t-39 253.5zM330 1536v248h274v-248h-274zM735 1536v248h275v-248h-275z" />
<glyph unicode="&#xdd;" horiz-adv-x="1263" d="M16 1434h336l283 -564l285 564h327l-467 -865v-569h-297v565zM510 1534l227 303l250 -113l-256 -190h-221z" />
<glyph unicode="&#xde;" horiz-adv-x="1204" d="M143 0v1434h297v-205h181q121 0 218 -34t164.5 -97.5t104.5 -154.5t37 -206v-4q0 -123 -42 -217t-113.5 -157.5t-170 -95.5t-211.5 -32h-168v-231h-297zM440 498h166q117 0 178.5 64.5t61.5 164.5v2q0 113 -62.5 171t-181.5 58h-162v-460z" />
<glyph unicode="&#xdf;" horiz-adv-x="1132" d="M117 0v1028q0 217 121.5 340t336.5 123q100 0 178 -29.5t130.5 -81t80 -121t27.5 -147.5v-8q0 -129 -51 -205t-125 -127q49 -23 93 -54.5t78 -74.5t53.5 -99.5t19.5 -127.5v-8q0 -199 -135.5 -308.5t-374.5 -103.5v225q111 8 168 57.5t57 141.5v2q0 86 -62.5 139 t-162.5 70v194q72 47 116 107.5t44 144.5v2q0 78 -39 122t-105 44q-74 0 -116.5 -54t-42.5 -153v-1038h-289z" />
<glyph unicode="&#xe0;" horiz-adv-x="1060" d="M59 313v13q0 90 29 156.5t79 109.5t120.5 63.5t154.5 20.5q70 0 124.5 -12.5t105.5 -32.5v33q0 96 -54.5 144t-152.5 48q-78 0 -139.5 -19.5t-112.5 -41.5l-80 227q80 41 168 64.5t207 23.5q113 0 196.5 -29.5t137.5 -83.5q57 -57 84.5 -141t27.5 -190v-666h-284v119 q-49 -66 -118 -102.5t-167 -36.5q-68 0 -127 22.5t-103 64.5t-70 104t-26 142zM190 1438l244 112l213 -344h-209zM340 330q0 -68 39 -101.5t102 -35.5q86 -2 140.5 45t54.5 122v93q-33 16 -75 25t-87 9q-80 0 -127 -38.5t-47 -114.5v-4z" />
<glyph unicode="&#xe1;" horiz-adv-x="1060" d="M59 313v13q0 90 29 156.5t79 109.5t120.5 63.5t154.5 20.5q70 0 124.5 -12.5t105.5 -32.5v33q0 96 -54.5 144t-152.5 48q-78 0 -139.5 -19.5t-112.5 -41.5l-80 227q80 41 168 64.5t207 23.5q113 0 196.5 -29.5t137.5 -83.5q57 -57 84.5 -141t27.5 -190v-666h-284v119 q-49 -66 -118 -102.5t-167 -36.5q-68 0 -127 22.5t-103 64.5t-70 104t-26 142zM340 330q0 -68 39 -101.5t102 -35.5q86 -2 140.5 45t54.5 122v93q-33 16 -75 25t-87 9q-80 0 -127 -38.5t-47 -114.5v-4zM414 1206l213 344l243 -112l-247 -232h-209z" />
<glyph unicode="&#xe2;" horiz-adv-x="1060" d="M59 313v13q0 90 29 156.5t79 109.5t120.5 63.5t154.5 20.5q70 0 124.5 -12.5t105.5 -32.5v33q0 96 -54.5 144t-152.5 48q-78 0 -139.5 -19.5t-112.5 -41.5l-80 227q80 41 168 64.5t207 23.5q113 0 196.5 -29.5t137.5 -83.5q57 -57 84.5 -141t27.5 -190v-666h-284v119 q-49 -66 -118 -102.5t-167 -36.5q-68 0 -127 22.5t-103 64.5t-70 104t-26 142zM176 1206l223 310h263l223 -310h-215l-142 131l-141 -131h-211zM340 330q0 -68 39 -101.5t102 -35.5q86 -2 140.5 45t54.5 122v93q-33 16 -75 25t-87 9q-80 0 -127 -38.5t-47 -114.5v-4z" />
<glyph unicode="&#xe3;" horiz-adv-x="1060" d="M59 313v13q0 90 29 156.5t79 109.5t120.5 63.5t154.5 20.5q70 0 124.5 -12.5t105.5 -32.5v33q0 96 -54.5 144t-152.5 48q-78 0 -139.5 -19.5t-112.5 -41.5l-80 227q80 41 168 64.5t207 23.5q113 0 196.5 -29.5t137.5 -83.5q57 -57 84.5 -141t27.5 -190v-666h-284v119 q-49 -66 -118 -102.5t-167 -36.5q-68 0 -127 22.5t-103 64.5t-70 104t-26 142zM162 1233q31 129 79 196.5t142 67.5q45 0 89 -14.5t79 -28.5q33 -14 60.5 -24.5t50.5 -10.5q41 0 60 23.5t38 70.5l155 -45q-31 -129 -79 -196.5t-142 -67.5q-45 0 -89 14.5t-79 30.5 q-33 12 -60.5 22.5t-49.5 10.5q-41 0 -60.5 -22.5t-38.5 -71.5zM340 330q0 -68 39 -101.5t102 -35.5q86 -2 140.5 45t54.5 122v93q-33 16 -75 25t-87 9q-80 0 -127 -38.5t-47 -114.5v-4z" />
<glyph unicode="&#xe4;" horiz-adv-x="1060" d="M59 313v13q0 90 29 156.5t79 109.5t120.5 63.5t154.5 20.5q70 0 124.5 -12.5t105.5 -32.5v33q0 96 -54.5 144t-152.5 48q-78 0 -139.5 -19.5t-112.5 -41.5l-80 227q80 41 168 64.5t207 23.5q113 0 196.5 -29.5t137.5 -83.5q57 -57 84.5 -141t27.5 -190v-666h-284v119 q-49 -66 -118 -102.5t-167 -36.5q-68 0 -127 22.5t-103 64.5t-70 104t-26 142zM201 1208v258h274v-258h-274zM340 330q0 -68 39 -101.5t102 -35.5q86 -2 140.5 45t54.5 122v93q-33 16 -75 25t-87 9q-80 0 -127 -38.5t-47 -114.5v-4zM586 1208v258h274v-258h-274z" />
<glyph unicode="&#xe5;" horiz-adv-x="1060" d="M59 313v13q0 90 29 156.5t79 109.5t120.5 63.5t154.5 20.5q70 0 124.5 -12.5t105.5 -32.5v33q0 96 -54.5 144t-152.5 48q-78 0 -139.5 -19.5t-112.5 -41.5l-80 227q80 41 168 64.5t207 23.5q113 0 196.5 -29.5t137.5 -83.5q57 -57 84.5 -141t27.5 -190v-666h-284v119 q-49 -66 -118 -102.5t-167 -36.5q-68 0 -127 22.5t-103 64.5t-70 104t-26 142zM303 1421q0 47 18.5 88t49 71t71.5 47.5t88 17.5t88 -17.5t72 -47.5t49.5 -71t18.5 -88t-18.5 -88t-49.5 -70.5t-72 -47t-88 -17.5t-88 17.5t-71.5 47t-49 70.5t-18.5 88zM340 330 q0 -68 39 -101.5t102 -35.5q86 -2 140.5 45t54.5 122v93q-33 16 -75 25t-87 9q-80 0 -127 -38.5t-47 -114.5v-4zM412 1421q0 -51 34.5 -86t83.5 -35t84 35t35 86t-34.5 87t-84.5 36q-49 0 -83.5 -35.5t-34.5 -87.5z" />
<glyph unicode="&#xe6;" horiz-adv-x="1685" d="M59 319v7q0 90 29 156.5t79 109.5t120.5 63.5t154.5 20.5q70 0 124.5 -12.5t105.5 -32.5v33q0 94 -53.5 143t-151.5 49q-78 0 -139.5 -20.5t-114.5 -44.5l-80 231q80 41 168 64.5t207 23.5q121 0 200.5 -35t129.5 -98q59 66 137 103.5t176 37.5q115 0 201 -45t144 -124 t87 -185.5t29 -228.5v-37t-2 -58h-656q18 -111 81 -166t157 -55q70 0 124 27.5t105 81.5l150 -176q-76 -86 -172 -131.5t-219 -45.5q-117 0 -214.5 47.5t-162.5 133.5q-74 -76 -170 -126t-213 -50q-80 0 -145.5 23.5t-113.5 66.5t-75 106.5t-27 142.5zM340 330 q0 -66 42 -100.5t103 -34.5q57 0 115.5 27.5t112.5 86.5q-10 33 -18.5 69t-12.5 75q-35 16 -77 25t-89 9q-82 0 -129 -38.5t-47 -112.5v-6zM952 633h379q-10 115 -57 180.5t-129 65.5q-80 0 -130 -64.5t-63 -181.5z" />
<glyph unicode="&#xe7;" horiz-adv-x="991" d="M74 532v25q0 123 38 225.5t105.5 177t160.5 116.5t204 42q119 0 202.5 -38t155.5 -109l-158 -211q-41 41 -86 69.5t-110 28.5q-49 0 -91 -22.5t-71 -63.5t-45.5 -96t-16.5 -123v-8q0 -137 59.5 -223t170.5 -86q66 0 111 27.5t88 72.5l153 -193q-61 -68 -138 -111.5 t-185 -54.5l-115 -303l-244 99l154 227q-78 25 -141.5 74t-107.5 118.5t-68.5 155.5t-24.5 184z" />
<glyph unicode="&#xe8;" horiz-adv-x="1091" d="M72 537v18q0 123 35.5 225.5t100 178t151.5 117.5t192 42q117 0 205 -45t146.5 -124t87 -185.5t28.5 -228.5v-37t-2 -58h-656q18 -111 82 -166t156 -55q68 0 122 28.5t107 80.5l150 -176q-76 -84 -172 -130.5t-219 -46.5q-109 0 -203 40t-162.5 113t-108.5 176.5 t-40 232.5zM207 1438l244 112l213 -344h-209zM358 633h379q-10 115 -57 180.5t-129 65.5q-80 0 -130 -64.5t-63 -181.5z" />
<glyph unicode="&#xe9;" horiz-adv-x="1091" d="M72 537v18q0 123 35.5 225.5t100 178t151.5 117.5t192 42q117 0 205 -45t146.5 -124t87 -185.5t28.5 -228.5v-37t-2 -58h-656q18 -111 82 -166t156 -55q68 0 122 28.5t107 80.5l150 -176q-76 -84 -172 -130.5t-219 -46.5q-109 0 -203 40t-162.5 113t-108.5 176.5 t-40 232.5zM358 633h379q-10 115 -57 180.5t-129 65.5q-80 0 -130 -64.5t-63 -181.5zM430 1206l213 344l244 -112l-248 -232h-209z" />
<glyph unicode="&#xea;" horiz-adv-x="1091" d="M72 537v18q0 123 35.5 225.5t100 178t151.5 117.5t192 42q117 0 205 -45t146.5 -124t87 -185.5t28.5 -228.5v-37t-2 -58h-656q18 -111 82 -166t156 -55q68 0 122 28.5t107 80.5l150 -176q-76 -84 -172 -130.5t-219 -46.5q-109 0 -203 40t-162.5 113t-108.5 176.5 t-40 232.5zM193 1206l223 310h262l223 -310h-215l-141 131l-142 -131h-210zM358 633h379q-10 115 -57 180.5t-129 65.5q-80 0 -130 -64.5t-63 -181.5z" />
<glyph unicode="&#xeb;" horiz-adv-x="1091" d="M72 537v18q0 123 35.5 225.5t100 178t151.5 117.5t192 42q117 0 205 -45t146.5 -124t87 -185.5t28.5 -228.5v-37t-2 -58h-656q18 -111 82 -166t156 -55q68 0 122 28.5t107 80.5l150 -176q-76 -84 -172 -130.5t-219 -46.5q-109 0 -203 40t-162.5 113t-108.5 176.5 t-40 232.5zM217 1208v258h275v-258h-275zM358 633h379q-10 115 -57 180.5t-129 65.5q-80 0 -130 -64.5t-63 -181.5zM602 1208v258h275v-258h-275z" />
<glyph unicode="&#xec;" horiz-adv-x="546" d="M-68 1438l244 112l213 -344h-209zM127 0v1098h291v-1098h-291z" />
<glyph unicode="&#xed;" horiz-adv-x="546" d="M127 0v1098h291v-1098h-291zM160 1206l213 344l243 -112l-247 -232h-209z" />
<glyph unicode="&#xee;" horiz-adv-x="546" d="M-80 1206l223 310h263l223 -310h-215l-142 131l-141 -131h-211zM127 0v1098h291v-1098h-291z" />
<glyph unicode="&#xef;" horiz-adv-x="546" d="M-55 1208v258h274v-258h-274zM127 0v1098h291v-1098h-291zM330 1208v258h274v-258h-274z" />
<glyph unicode="&#xf0;" horiz-adv-x="1181" d="M74 545v26q0 115 33.5 211.5t91 166t133.5 107.5t162 38q66 0 112.5 -16.5t100.5 -51.5q-27 47 -63 93t-77 93l-219 -59l-55 158l141 39q-37 35 -74.5 66.5t-76.5 62.5h366l58 -54l211 58l53 -158l-135 -39q117 -141 192.5 -311t75.5 -369v-20q0 -133 -36 -246 t-102.5 -193.5t-162.5 -126t-217 -45.5q-111 0 -205 42t-161.5 118t-106.5 180.5t-39 229.5zM360 541q0 -68 16.5 -125.5t46.5 -99.5t73 -65.5t94 -23.5q55 0 97 23.5t71.5 65.5t45 98.5t15.5 122.5v12q0 68 -16.5 125t-47 98t-72.5 64.5t-95 23.5q-109 0 -168.5 -86 t-59.5 -221v-12z" />
<glyph unicode="&#xf1;" d="M117 0v1098h291v-148q47 66 112.5 117t169.5 51q154 0 239 -99t85 -271v-748h-291v662q0 98 -41 146t-115 48q-72 0 -115.5 -48t-43.5 -146v-662h-291zM197 1233q31 129 79 196.5t142 67.5q45 0 89 -14.5t79 -28.5q33 -14 60.5 -24.5t49.5 -10.5q41 0 60.5 23.5 t38.5 70.5l155 -45q-31 -129 -79 -196.5t-142 -67.5q-45 0 -89 14.5t-79 30.5q-33 12 -60.5 22.5t-49.5 10.5q-41 0 -60.5 -22.5t-38.5 -71.5z" />
<glyph unicode="&#xf2;" horiz-adv-x="1181" d="M74 535v22q0 123 39 225.5t108.5 177t164.5 116.5t206 42t205 -41t162.5 -115.5t107.5 -177t39 -225.5v-22q0 -123 -39 -225.5t-107.5 -177.5t-163.5 -117t-206 -42t-206 41t-163.5 116t-107.5 177.5t-39 225.5zM250 1438l244 112l213 -344h-209zM360 541 q0 -66 16.5 -123.5t47.5 -99.5t74 -66.5t94 -24.5q53 0 96 23.5t71.5 65.5t44 98.5t15.5 124.5v14q0 68 -16.5 125t-46 99t-71.5 65.5t-95 23.5q-55 0 -97 -23.5t-72 -65.5t-45.5 -98t-15.5 -124v-14z" />
<glyph unicode="&#xf3;" horiz-adv-x="1181" d="M74 535v22q0 123 39 225.5t108.5 177t164.5 116.5t206 42t205 -41t162.5 -115.5t107.5 -177t39 -225.5v-22q0 -123 -39 -225.5t-107.5 -177.5t-163.5 -117t-206 -42t-206 41t-163.5 116t-107.5 177.5t-39 225.5zM360 541q0 -66 16.5 -123.5t47.5 -99.5t74 -66.5t94 -24.5 q53 0 96 23.5t71.5 65.5t44 98.5t15.5 124.5v14q0 68 -16.5 125t-46 99t-71.5 65.5t-95 23.5q-55 0 -97 -23.5t-72 -65.5t-45.5 -98t-15.5 -124v-14zM473 1206l213 344l244 -112l-248 -232h-209z" />
<glyph unicode="&#xf4;" horiz-adv-x="1181" d="M74 535v22q0 123 39 225.5t108.5 177t164.5 116.5t206 42t205 -41t162.5 -115.5t107.5 -177t39 -225.5v-22q0 -123 -39 -225.5t-107.5 -177.5t-163.5 -117t-206 -42t-206 41t-163.5 116t-107.5 177.5t-39 225.5zM236 1206l223 310h262l223 -310h-215l-141 131l-142 -131 h-210zM360 541q0 -66 16.5 -123.5t47.5 -99.5t74 -66.5t94 -24.5q53 0 96 23.5t71.5 65.5t44 98.5t15.5 124.5v14q0 68 -16.5 125t-46 99t-71.5 65.5t-95 23.5q-55 0 -97 -23.5t-72 -65.5t-45.5 -98t-15.5 -124v-14z" />
<glyph unicode="&#xf5;" horiz-adv-x="1181" d="M74 535v22q0 123 39 225.5t108.5 177t164.5 116.5t206 42t205 -41t162.5 -115.5t107.5 -177t39 -225.5v-22q0 -123 -39 -225.5t-107.5 -177.5t-163.5 -117t-206 -42t-206 41t-163.5 116t-107.5 177.5t-39 225.5zM221 1233q31 129 79 196.5t142 67.5q45 0 89 -14.5 t79 -28.5q33 -14 60.5 -24.5t50.5 -10.5q41 0 60.5 23.5t37.5 70.5l156 -45q-31 -129 -79 -196.5t-142 -67.5q-45 0 -89 14.5t-79 30.5q-33 12 -60.5 22.5t-50.5 10.5q-41 0 -60.5 -22.5t-37.5 -71.5zM360 541q0 -66 16.5 -123.5t47.5 -99.5t74 -66.5t94 -24.5q53 0 96 23.5 t71.5 65.5t44 98.5t15.5 124.5v14q0 68 -16.5 125t-46 99t-71.5 65.5t-95 23.5q-55 0 -97 -23.5t-72 -65.5t-45.5 -98t-15.5 -124v-14z" />
<glyph unicode="&#xf6;" horiz-adv-x="1181" d="M74 535v22q0 123 39 225.5t108.5 177t164.5 116.5t206 42t205 -41t162.5 -115.5t107.5 -177t39 -225.5v-22q0 -123 -39 -225.5t-107.5 -177.5t-163.5 -117t-206 -42t-206 41t-163.5 116t-107.5 177.5t-39 225.5zM260 1208v258h275v-258h-275zM360 541q0 -66 16.5 -123.5 t47.5 -99.5t74 -66.5t94 -24.5q53 0 96 23.5t71.5 65.5t44 98.5t15.5 124.5v14q0 68 -16.5 125t-46 99t-71.5 65.5t-95 23.5q-55 0 -97 -23.5t-72 -65.5t-45.5 -98t-15.5 -124v-14zM645 1208v258h275v-258h-275z" />
<glyph unicode="&#xf7;" horiz-adv-x="1153" d="M113 596v250h927v-250h-927zM430 172v279h293v-279h-293zM430 991v279h293v-279h-293z" />
<glyph unicode="&#xf8;" horiz-adv-x="1181" d="M45 -12l141 184q-53 72 -82.5 163t-29.5 200v22q0 123 39 225.5t108.5 177t164.5 116.5t206 42q74 0 139.5 -18.5t122.5 -52.5l49 61h232l-142 -186q53 -72 83 -164t30 -199v-22q0 -123 -39 -225.5t-107.5 -177.5t-164 -117t-205.5 -42q-147 0 -264 70l-47 -57h-234z M352 541q0 -72 19 -133l329 432q-53 33 -110 32q-115 0 -176.5 -90t-61.5 -227v-14zM479 254q47 -33 113 -33q55 0 99 24.5t75 66.5t47 100.5t16 126.5v14q0 35 -5 68.5t-15 64.5z" />
<glyph unicode="&#xf9;" d="M111 350v748h288v-662q0 -98 41 -146t115 -48t117 48t43 146v662h291v-1098h-291v147q-45 -66 -112 -116.5t-169 -50.5q-156 0 -239.5 99t-83.5 271zM217 1438l244 112l213 -344h-209z" />
<glyph unicode="&#xfa;" d="M111 350v748h288v-662q0 -98 41 -146t115 -48t117 48t43 146v662h291v-1098h-291v147q-45 -66 -112 -116.5t-169 -50.5q-156 0 -239.5 99t-83.5 271zM440 1206l213 344l244 -112l-248 -232h-209z" />
<glyph unicode="&#xfb;" d="M111 350v748h288v-662q0 -98 41 -146t115 -48t117 48t43 146v662h291v-1098h-291v147q-45 -66 -112 -116.5t-169 -50.5q-156 0 -239.5 99t-83.5 271zM203 1206l223 310h262l223 -310h-215l-141 131l-141 -131h-211z" />
<glyph unicode="&#xfc;" d="M111 350v748h288v-662q0 -98 41 -146t115 -48t117 48t43 146v662h291v-1098h-291v147q-45 -66 -112 -116.5t-169 -50.5q-156 0 -239.5 99t-83.5 271zM227 1208v258h275v-258h-275zM612 1208v258h275v-258h-275z" />
<glyph unicode="&#xfd;" horiz-adv-x="1079" d="M35 1098h303l207 -727l200 727h295l-360 -1112q-27 -82 -58.5 -139.5t-69.5 -94.5t-87 -53t-115 -16t-124 17t-111 48l80 217q27 -16 58.5 -26.5t59.5 -10.5q35 0 56.5 14.5t38.5 55.5zM422 1206l213 344l244 -112l-248 -232h-209z" />
<glyph unicode="&#xfe;" horiz-adv-x="1200" d="M117 -309v1788h291v-533q47 70 117.5 121t179.5 51q82 0 156.5 -33.5t133 -102.5t93 -172t34.5 -245v-33q0 -141 -34.5 -244.5t-92 -172t-133.5 -102t-157 -33.5q-55 0 -100.5 13t-81.5 36.5t-64.5 52.5t-50.5 59v-450h-291zM403 539q0 -141 61.5 -223.5t153.5 -82.5 t152.5 82t60.5 224v20q0 141 -60 223t-153 82q-92 0 -153.5 -82t-61.5 -223v-20z" />
<glyph unicode="&#xff;" horiz-adv-x="1079" d="M35 1098h303l207 -727l200 727h295l-360 -1112q-27 -82 -58.5 -139.5t-69.5 -94.5t-87 -53t-115 -16t-124 17t-111 48l80 217q27 -16 58.5 -26.5t59.5 -10.5q35 0 56.5 14.5t38.5 55.5zM209 1208v258h274v-258h-274zM594 1208v258h274v-258h-274z" />
<glyph unicode="&#x152;" horiz-adv-x="1886" d="M92 707v18q0 158 49 288t138.5 224t216.5 145.5t280 51.5h1012v-269h-594v-309h518v-268h-518v-320h602v-268h-1020q-154 0 -280.5 51t-216 144.5t-138.5 223.5t-49 288zM397 713q0 -215 104.5 -330t274.5 -115h123v897h-121q-172 0 -276.5 -113.5t-104.5 -328.5v-10z " />
<glyph unicode="&#x153;" horiz-adv-x="1830" d="M74 535v22q0 123 40 225.5t108.5 177t162.5 116.5t201 42q111 0 202 -46t154 -126q63 80 151.5 126t196.5 46q117 0 205 -45t146.5 -124t87 -185.5t28.5 -228.5q0 -12 -1 -37t-3 -58h-653q20 -111 81.5 -166t155.5 -55q70 0 124.5 27.5t105.5 81.5l149 -176 q-76 -86 -172 -131.5t-219 -45.5q-119 0 -217 46.5t-168 132.5q-63 -84 -156 -131.5t-206 -47.5q-104 0 -196.5 41t-160 116t-107.5 177.5t-40 225.5zM360 541q0 -66 16.5 -123.5t46.5 -99.5t71 -66.5t92 -24.5q53 0 93 23.5t68.5 65.5t43 98.5t14.5 124.5v14 q0 68 -15.5 125t-44 99t-69.5 65.5t-92 23.5q-53 0 -94 -23.5t-70 -65.5t-44.5 -99t-15.5 -123v-14zM1096 633h381q-10 115 -57.5 180.5t-129.5 65.5q-80 0 -130 -64.5t-64 -181.5z" />
<glyph unicode="&#x178;" horiz-adv-x="1263" d="M16 1434h336l283 -564l285 564h327l-467 -865v-569h-297v565zM291 1536v248h274v-248h-274zM696 1536v248h275v-248h-275z" />
<glyph unicode="&#x2c6;" horiz-adv-x="1024" d="M158 1206l223 310h262l223 -310h-215l-141 131l-141 -131h-211z" />
<glyph unicode="&#x2dc;" horiz-adv-x="1024" d="M135 1233q31 129 79 196.5t142 67.5q45 0 89 -14.5t79 -28.5q33 -14 60.5 -24.5t50.5 -10.5q41 0 60.5 23.5t37.5 70.5l156 -45q-31 -129 -79 -196.5t-142 -67.5q-45 0 -89 14.5t-79 30.5q-33 12 -60.5 22.5t-50.5 10.5q-41 0 -60.5 -22.5t-37.5 -71.5z" />
<glyph unicode="&#x2000;" horiz-adv-x="929" />
<glyph unicode="&#x2001;" horiz-adv-x="1858" />
<glyph unicode="&#x2002;" horiz-adv-x="929" />
<glyph unicode="&#x2003;" horiz-adv-x="1858" />
<glyph unicode="&#x2004;" horiz-adv-x="619" />
<glyph unicode="&#x2005;" horiz-adv-x="464" />
<glyph unicode="&#x2006;" horiz-adv-x="309" />
<glyph unicode="&#x2007;" horiz-adv-x="309" />
<glyph unicode="&#x2008;" horiz-adv-x="232" />
<glyph unicode="&#x2009;" horiz-adv-x="371" />
<glyph unicode="&#x200a;" horiz-adv-x="103" />
<glyph unicode="&#x2010;" horiz-adv-x="792" d="M96 494v282h600v-282h-600z" />
<glyph unicode="&#x2011;" horiz-adv-x="792" d="M96 494v282h600v-282h-600z" />
<glyph unicode="&#x2012;" horiz-adv-x="792" d="M96 494v282h600v-282h-600z" />
<glyph unicode="&#x2013;" horiz-adv-x="1038" d="M96 498v274h846v-274h-846z" />
<glyph unicode="&#x2014;" horiz-adv-x="1703" d="M96 498v274h1512v-274h-1512z" />
<glyph unicode="&#x2018;" horiz-adv-x="548" d="M106 797v264q0 193 91.5 283t265.5 100l26 -121q-111 -16 -155.5 -72.5t-36.5 -138.5h127v-315h-318z" />
<glyph unicode="&#x2019;" horiz-adv-x="548" d="M59 907q111 16 156 72.5t37 138.5h-127v316h317v-265q0 -193 -91 -283.5t-267 -99.5z" />
<glyph unicode="&#x201a;" horiz-adv-x="563" d="M53 -211q115 16 162 72.5t39 138.5h-127v315h317v-264q0 -193 -92 -283t-272 -100z" />
<glyph unicode="&#x201c;" horiz-adv-x="1030" d="M106 797v264q0 193 91.5 283t265.5 100l26 -121q-111 -16 -155.5 -72.5t-36.5 -138.5h127v-315h-318zM588 797v264q0 193 92 283t266 100l25 -121q-111 -16 -156 -72.5t-37 -138.5h127v-315h-317z" />
<glyph unicode="&#x201d;" horiz-adv-x="1030" d="M59 907q111 16 156 72.5t37 138.5h-127v316h317v-265q0 -193 -91 -283.5t-267 -99.5zM541 907q111 16 155.5 72.5t36.5 138.5h-127v316h318v-265q0 -193 -92.5 -283.5t-266.5 -99.5z" />
<glyph unicode="&#x201e;" horiz-adv-x="1050" d="M53 -211q115 16 162 72.5t39 138.5h-127v315h317v-264q0 -193 -92 -283t-272 -100zM541 -211q115 16 162 72.5t38 138.5h-127v315h318v-264q0 -193 -92 -283t-273 -100z" />
<glyph unicode="&#x2022;" horiz-adv-x="933" d="M184 715v14q0 66 21.5 121t60.5 95t90.5 61.5t110.5 21.5t110.5 -21.5t89.5 -61.5t60.5 -95t22.5 -121v-14q0 -66 -22.5 -120t-60.5 -94t-89.5 -62.5t-110.5 -22.5t-110.5 22.5t-90.5 62.5t-60.5 94t-21.5 120z" />
<glyph unicode="&#x2026;" horiz-adv-x="1656" d="M119 0v309h313v-309h-313zM672 0v309h311v-309h-311zM1225 0v309h311v-309h-311z" />
<glyph unicode="&#x202f;" horiz-adv-x="371" />
<glyph unicode="&#x2039;" horiz-adv-x="702" d="M74 541v16l342 455l202 -105l-231 -356l234 -356l-205 -109z" />
<glyph unicode="&#x203a;" horiz-adv-x="702" d="M82 190l233 357l-233 356l203 109l344 -455v-16l-344 -455z" />
<glyph unicode="&#x205f;" horiz-adv-x="464" />
<glyph unicode="&#x20ac;" horiz-adv-x="1267" d="M80 451v200h139v56v16v33.5t2 34.5h-141v200h172q55 215 195.5 341t345.5 126q147 0 241 -56t170 -151l-198 -188q-41 53 -90.5 89t-124.5 36q-78 0 -138.5 -49t-95.5 -148h330v-200h-367v-64v-16v-60h367v-200h-332q35 -106 96.5 -155.5t145.5 -49.5q74 0 124 36.5 t97 94.5l188 -180q-78 -102 -177 -162t-238 -60q-209 0 -349.5 125t-193.5 351h-168z" />
<glyph unicode="&#x2122;" horiz-adv-x="1255" d="M47 1307v127h453v-127h-158v-508h-139v508h-156zM610 799v635h150l137 -250l139 250h144v-635h-133v415l-148 -268h-8l-146 268v-415h-135z" />
<glyph unicode="&#xe000;" horiz-adv-x="1095" d="M0 0v1096h1096v-1096h-1096z" />
<glyph unicode="&#xfb03;" horiz-adv-x="1921" d="M51 852v238h111v73q0 164 82 246t239 82q59 0 102.5 -7t78.5 -18v-239q-27 8 -51.5 13t-55.5 5q-106 0 -106 -112v-43h211v-238h-209v-852h-291v852h-111zM741 852v238h109v73q0 166 82 246q80 82 239 82q59 0 102.5 -7t78.5 -18v-239q-27 8 -51.5 13t-55.5 5 q-51 0 -79.5 -26.5t-28.5 -85.5v-43h213v-238h-209v-852h-291v852h-109zM1497 1214v265h301v-265h-301zM1503 0v1098h289v-1098h-289z" />
<glyph unicode="&#xfb04;" horiz-adv-x="1921" d="M51 852v238h111v73q0 164 82 246t239 82q59 0 102.5 -7t78.5 -18v-239q-27 8 -51.5 13t-55.5 5q-106 0 -106 -112v-43h211v-238h-209v-852h-291v852h-111zM741 852v238h109v73q0 166 82 246q80 82 239 82q59 0 102.5 -7t78.5 -18v-239q-27 8 -51.5 13t-55.5 5 q-51 0 -79.5 -26.5t-28.5 -85.5v-43h213v-238h-209v-852h-291v852h-109zM1503 0v1479h289v-1479h-289z" />
</font>
</defs>
</svg>
