<?xml version="1.0" standalone="no"?>
<!DOCTYPE svg PUBLIC "-//W3C//DTD SVG 1.1//EN" "http://www.w3.org/Graphics/SVG/1.1/DTD/svg11.dtd">
<svg xmlns="http://www.w3.org/2000/svg">
<metadata>Copyright (C) 2018 by original authors @ fontello.com</metadata>
<defs>
<font id="fontello-custom" horiz-adv-x="1000" >
<font-face font-family="fontello-custom" font-weight="400" font-stretch="normal" units-per-em="1000" ascent="850" descent="-150" />
<missing-glyph horiz-adv-x="1000" />
<glyph glyph-name="instagram-with-circle" unicode="&#xe800;" d="M703 504a86 86 0 0 1-49 49 144 144 0 0 1-49 9c-27 1-35 2-105 2s-78-1-105-2a144 144 0 0 1-49-9 86 86 0 0 1-49-49 144 144 0 0 1-9-49c-1-27-1-35-1-105s0-78 1-105a144 144 0 0 1 9-49 86 86 0 0 1 49-49 144 144 0 0 1 49-9c27-1 36-1 105-1s78 0 105 1a144 144 0 0 1 49 9 86 86 0 0 1 49 49 144 144 0 0 1 9 49c1 27 2 36 2 105s-1 78-2 105a144 144 0 0 1-9 49z m-203-288a134 134 0 1 0 134 134 134 134 0 0 0-134-134z m139 242a31 31 0 1 0 31 31 31 31 0 0 0-31-31z m-52-108a87 87 0 1 0-87 87 87 87 0 0 0 87-87z m-87 500a500 500 0 1 1 500-500 500 500 0 0 1-500 500z m259-607a191 191 0 0 0-12-64 133 133 0 0 0-76-76 191 191 0 0 0-64-12c-27-1-36-1-107-1s-80 0-107 1a191 191 0 0 0-64 12 133 133 0 0 0-76 76 191 191 0 0 0-12 64c-1 27-1 36-1 107s0 80 1 107a191 191 0 0 0 12 64 133 133 0 0 0 76 76 191 191 0 0 0 64 12c27 1 36 1 107 1s80 0 107-1a191 191 0 0 0 64-12 133 133 0 0 0 76-76 191 191 0 0 0 12-64c1-27 1-36 1-107s0-80-1-107z" horiz-adv-x="1000" />

<glyph glyph-name="facebook-6" unicode="&#xe801;" d="M124-150v469h-124v169h124v145c0 113 73 217 242 217 69 0 119-7 119-7l-4-157s-51 0-108 0c-60 0-70-28-70-74v-124h183l-8-169h-175v-469h-179" horiz-adv-x="486" />

<glyph glyph-name="facebook-rect-1" unicode="&#xe802;" d="M183 850c-102 0-183-81-183-183l0-634c0-102 81-183 183-183l344 0 0 391-104 0 0 141 104 0 0 120c0 94 61 181 201 181 57 0 100-5 100-5l-4-132s-43 1-90 1c-50 0-58-24-58-62l0-103 152 0-6-141-146 0 0-391 141 0c102 0 183 81 183 183l0 634c0 102-81 183-183 183l-634 0z" horiz-adv-x="1000" />

<glyph glyph-name="twitter-6" unicode="&#xe803;" d="M749-25c0-34-13-64-37-88-25-25-54-37-89-37l-248 0c-103 0-192 36-265 110-73 73-110 161-110 264l0 501c0 35 12 65 37 89 24 24 54 36 89 36 34 0 64-12 88-37 25-24 37-54 37-88l0-181 353 0c32 0 60-12 83-35 22-22 34-49 34-81 0-32-12-59-34-82-23-23-51-34-82-34l-354 0 0-88c0-34 12-64 36-88 24-24 54-36 88-36l248 0c35 0 64-12 89-37 24-24 37-54 37-88" horiz-adv-x="749" />

<glyph glyph-name="twitter-bird-1" unicode="&#xe804;" d="M1231 732q-51-77-126-131 1-14 1-32 0-102-30-203-29-102-90-195-61-92-145-164-84-72-201-114-118-43-253-43-210 0-387 113 31-3 60-3 176 0 314 108-82 2-147 51-64 49-89 125 24-5 48-5 34 0 66 9-87 17-145 87-57 69-57 160l0 4q53-30 114-32-52 34-82 90-30 55-30 120 0 68 34 127 95-117 230-186 135-70 290-78-6 28-6 58 0 104 74 178 74 74 178 74 110 0 185-80 85 17 160 62-29-91-111-140 76 9 145 39z" horiz-adv-x="1231" />

<glyph glyph-name="vimeo-3" unicode="&#xe805;" d="M1158 619q-8-169-236-463-236-306-400-306-101 0-171 187l-94 343q-52 187-112 187-13 0-90-55l-55 70q86 76 169 151 114 99 171 104 135 13 166-185 34-212 47-264 39-177 86-177 36 0 109 114 73 115 78 174 10 99-78 99-42 0-86-18 86 278 327 270 180-5 169-231z" horiz-adv-x="1158.8" />

<glyph glyph-name="vimeo-rect" unicode="&#xe806;" d="M193 850c-107 0-193-86-193-193l0-614c0-107 86-193 193-193l614 0c107 0 193 86 193 193l0 614c0 107-86 193-193 193l-614 0z m517-197c3 0 6 0 9 0 74-2 108-50 104-143-3-69-52-164-146-285-97-126-179-189-247-189-41 0-77 38-106 115l-57 212c-22 77-45 115-69 115-6 0-24-11-56-34l-34 44c35 31 70 62 104 93 47 40 83 62 106 64 56 5 90-33 103-114 14-88 23-142 29-163 16-73 33-109 52-109 15 0 38 23 68 70 30 47 46 83 48 107 4 41-12 61-48 61-17 0-35-3-53-11 34 111 98 167 193 167z" horiz-adv-x="1000" />

<glyph glyph-name="tumblr-3" unicode="&#xe807;" d="M346 850v-253h237v-157h-237v-256c0-58 3-95 9-112 6-16 17-29 34-39 22-13 48-20 76-20 51 0 101 16 151 49v-157c-43-21-81-35-116-43-35-8-72-12-112-12-46 0-86 6-122 17-35 12-65 28-89 50-25 21-42 44-52 68-10 24-14 59-14 105v350h-111v142c39 13 73 31 101 55 28 24 50 52 67 86 17 33 29 75 35 127h143" horiz-adv-x="616.1" />

<glyph glyph-name="tumblr-rect" unicode="&#xe808;" d="M193 850c-107 0-193-86-193-193l0-614c0-107 86-193 193-193l614 0c107 0 193 86 193 193l0 614c0 107-86 193-193 193l-614 0z m242-141l99 0 0-177 166 0 0-109-166 0 0-179c0-40 2-66 7-78 4-11 12-20 23-27 16-9 33-14 53-14 36 0 71 12 106 35l0-110c-30-14-57-24-81-30-24-6-51-8-79-8-31 0-60 4-84 12-25 8-45 19-63 34-17 15-29 31-36 48-6 16-10 41-10 73l0 244-77 0 0 99c28 9 51 21 71 38 19 17 35 36 47 60 11 23 20 53 24 89z" horiz-adv-x="1000" />

<glyph glyph-name="googleplus-rect" unicode="&#xe809;" d="M92 850c-51 0-92-26-92-92l0-79c4 3 8 7 12 11 83 68 173 80 250 81l307 0-82-66-89 0c36-31 89-86 89-184 0-108-57-159-118-207-19-19-41-40-41-72 0-32 22-49 38-63l52-40c64-54 148-117 148-217 0-27-3-52-12-72l354 0c51 0 92 28 92 79l0 580-184 0 0-185-79 0 0 185-184 0 0 78 184 0 0 184 79 0 0-184 184 0 0 171c0 66-41 92-92 92l-816 0z m908-263l0-78 1 0 0 78-1 0z m-813 135c-38 0-78-19-102-48-24-31-28-70-28-108 0-98 51-242 176-242 36 0 74 9 98 36 27 31 37 72 37 93 0 106-60 269-181 269z m-187-398l0-259c66 53 180 44 235 47-20 27-43 54-43 99 0 25 7 40 14 57-16-1-32-3-46-3-66 0-120 26-160 59z m251-252c-13 0-91-3-152-24-21-8-69-26-99-66l0-53c0-51 41-79 92-79l377 0c2 7 6 12 6 26-1 75-80 115-190 194-12 2-19 2-34 2z" horiz-adv-x="1001" />

<glyph glyph-name="github-text" unicode="&#xe80a;" d="M527 850c-21 0-39-8-54-24-15-16-22-35-22-58 0-22 7-41 22-57 15-16 33-24 54-24 20 0 38 8 53 24 15 16 22 35 22 57 0 23-7 42-22 58-15 16-33 24-53 24z m164-156c2-13 3-29 3-49l0-43-53 0 0-106c15 2 27 3 37 3l16-1 0-2-1 0 0-196c0-61 8-106 23-134 20-38 57-57 110-57 38 0 71 7 98 22l0 109c-18-12-39-19-61-19-33 0-49 25-49 74l0 203 47 0c9 0 19 0 28-1 10-1 17-1 21-1l0 106-96 0 0 45c0 17 2 33 4 47l-127 0 0 0z m-501-87c-49 0-92-16-128-49-37-35-55-79-55-131 0-35 10-68 30-98 18-29 39-47 63-55l0-2c-24-10-35-36-35-77 0-31 12-54 37-70l0-2c-68-23-102-64-102-126 0-53 23-92 68-117 36-19 81-29 136-29 135 0 203 56 203 169 0 71-52 114-157 130-24 4-42 13-54 27-10 9-14 19-14 28 0 27 14 43 43 47 45 7 81 27 109 62 28 34 42 75 42 122 0 14-3 30-9 47 19 4 34 8 44 12l0 112c-46-17-86-26-121-26-31 18-64 26-100 26l0 0z m275-5c1-13 2-37 2-71l0-340c0-35-1-60-2-74l123 0c-1 16-2 43-2 80l0 336c0 32 1 55 2 69l-123 0z m-270-95c22 0 39-9 51-25 10-16 15-34 15-55 0-51-22-77-66-77-46 0-69 26-69 76 0 54 23 81 69 81z m7-445c62 0 92-19 92-56 0-39-28-59-84-59-64 0-96 19-96 57 0 39 29 58 88 58l0 0z" horiz-adv-x="924" />

<glyph glyph-name="github-5" unicode="&#xe80b;" d="M1079 851c-33 1-110-11-239-97-70 18-145 26-219 26-83 0-166-10-243-31-185 126-267 100-267 100-53-133-20-232-10-256-63-68-101-154-101-260 0-80 9-151 31-214 2-4 1-3 3-8 5-12 11-25 17-37 2-4 4-8 4-8 62-116 185-191 404-215l331 0c233 23 345 98 397 216l3 7c5 12 9 24 21 66 12 41 17 113 17 193 0 115-43 207-113 276 12 40 28 128-17 240 0 0-6 2-19 2z m-261-421c54 0 100-9 135-46l0 0c43-45 69-100 69-159 0-277-178-285-398-285-219 0-397 39-397 285 0 58 25 113 68 158 71 76 192 36 329 36 71 0 137 11 194 11z m-408-82c-46 0-83-61-83-137 0-77 37-138 83-138 45 0 82 61 82 138 0 76-37 137-82 137z m443 0c-45 0-82-61-82-137 0-77 37-138 82-138 46 0 83 61 83 138 0 76-37 137-83 137z" horiz-adv-x="1228" />

<glyph glyph-name="skype-4" unicode="&#xe80c;" d="M958 278c4 23 6 47 6 72 0 256-208 464-464 464-25 0-49-2-72-6-43 27-94 42-148 42-154 0-280-125-280-280 0-54 15-105 42-148-4-23-6-47-6-72 0-256 208-464 464-464 25 0 49 2 72 6 43-27 94-42 148-42 155 0 280 125 280 280 0 54-15 105-42 148z m-238-139c-19-28-48-50-86-66-38-16-82-24-134-24-61 0-113 11-153 33-29 15-52 36-70 62-18 27-27 52-27 77 0 15 6 28 17 38 11 11 25 16 42 16 14 0 25-4 35-12 10-9 18-21 24-36 8-19 17-34 26-46 9-12 21-22 38-30 16-8 38-12 65-12 37 0 67 8 90 24 23 16 34 35 34 59 0 19-6 34-18 45-13 12-29 21-48 27-20 6-47 13-80 20-45 10-83 21-113 34-31 14-55 31-73 54-18 23-27 52-27 85 0 33 10 61 29 86 19 25 46 45 82 58 35 13 77 20 126 20 38 0 71-4 99-13 29-9 52-21 71-36 18-14 32-30 41-46 8-17 13-33 13-48 0-15-6-28-17-39-11-12-25-18-41-18-15 0-27 4-35 11-7 7-16 18-24 33-12 22-25 39-41 51-15 12-40 18-75 18-32 0-58-7-78-20-19-13-29-28-29-46 0-11 4-21 10-29 7-8 16-15 27-21 12-6 24-10 36-14 12-3 32-8 60-15 36-7 67-16 96-25 29-9 53-21 73-34 20-13 36-30 48-51 11-20 17-45 17-74 0-36-10-68-30-96z" horiz-adv-x="1000" />

<glyph glyph-name="icq" unicode="&#xe80d;" d="M355 823c-31 7-57 4-84-10-29-18-46-47-53-86-7-41 0-80 21-120l10-14-34 11c-42 10-82 4-121-17-41-21-66-50-83-91-16-40-15-78 5-113 9-16 21-28 33-37 17-17 38-27 63-31l10-3-21-18c-20-17-31-38-38-59-7-26-4-51 10-75 7-11 14-21 25-28 11-10 25-17 42-18 31-7 64-7 99 4l-25-42-7-19c-15-45-10-84 11-125 10-16 21-30 32-43 17-15 38-25 64-32 42-11 84-10 125 11 40 21 65 55 78 98l1 8c27-30 52-49 80-56 29-9 57-7 82 10 24 14 41 38 50 67 7 31 7 62 0 97 14-9 28-16 45-21 45-14 84-12 124 9 38 21 63 55 76 99 11 42 8 83-13 122l-7 11c-11 17-22 34-39 46-14 9-31 16-47 24 44 21 75 50 89 88 10 31 7 57-7 82l0 3c-17 28-40 46-75 56-21 5-45 5-66 3l-47-10 16 36c14 45 10 88-14 129l-4 7c-22 36-53 57-95 68-44 11-84 7-124-14-39-21-68-54-80-96l0-3-2-10-5 10-14 26c-23 35-51 56-86 66z m359-85c7-14 11-31 11-49l-4-31c-5-16-13-30-21-42l-127-156c-13 10-27 17-41 24l-14 160-1 56 1 14c7 28 27 50 52 64 26 14 54 17 81 7 29-7 50-23 63-47z m-437-28c1 25 11 42 28 52 9 7 21 7 33 2 25-8 46-26 63-61 7-14 14-28 17-45l28-167-21-7-125 137-7 14c-12 26-19 50-16 75z m-76-165l38-15 124-91c-11-14-18-28-22-42l-204-25-14 2c-25 5-42 16-53 37-11 21-11 42-3 64 10 26 28 47 55 59 25 14 51 18 79 11z m134-230l10-28 4-10c-21-18-37-35-54-51l-42-35-11-7c-27-13-50-17-74-14-21 1-38 8-45 21l-4 16 3 12c7 21 25 43 58 58 17 7 31 14 42 17l113 21z m440 229c25 11 49 14 74 11 24-3 41-14 50-31l5-18-2-15c-10-25-31-45-67-60-14-7-29-10-46-13l-174-21-2 10-3 4 5 7 143 119 17 7z m-360-134c17 15 40 25 66 25 26 0 50-10 65-25 20-20 29-41 29-67s-9-49-29-66c-18-18-39-28-65-28-26 0-49 10-66 28-18 17-28 41-28 66s10 47 28 67z m33-205c2-48 7-98 14-153l0-57-2-14c-10-25-26-46-52-58-25-14-52-17-77-10-29 7-50 24-61 47-7 14-13 31-13 48l7 32c3 14 10 28 22 40l118 141c14-7 28-14 44-16z m108 19l59-61 37-45 7-14c13-24 20-47 17-74-3-25-11-43-28-50-10-7-21-7-33-6-26 7-48 28-63 62l-17 47-21 122 24 9 18 10z m64 87l159 14 56 1 14-1c22-7 41-20 53-41 14-15 21-36 21-60l-4-29c-7-28-24-49-48-60-26-14-51-17-79-7-17 4-29 11-38 22l-148 123 9 21 5 17z" horiz-adv-x="981" />

<glyph glyph-name="yandex" unicode="&#xe80e;" d="M456 306h-68c-107 0-210 64-210 224 0 167 97 235 196 235h82v-459z m107 544h-185c-181 0-334-113-334-333 0-132 74-230 207-278l-248-368c-8-12 0-21 13-21h115c10 0 16 3 19 9l225 362h81v-362c0-4 5-9 11-9h101c9 0 13 4 13 11v976c0 9-7 13-18 13" horiz-adv-x="580.6" />

<glyph glyph-name="yandex-rect" unicode="&#xe80f;" d="M177 850c-98 0-177-79-177-177l0-646c0-98 79-177 177-177l475 0 348 500-348 500-475 0z m266-183l113 0c7 0 11-2 11-8l0-622c0-4-2-7-8-7l-61 0c-4 0-7 3-7 6l0 230-50 0-137-230c-2-4-6-6-12-6l-71 0c-7 0-12 6-7 14l151 234c-81 31-127 93-127 177 0 140 94 212 205 212z m-3-54c-60 0-119-43-119-150 0-102 63-142 128-142l42 0 0 292-51 0z" horiz-adv-x="1000" />

<glyph glyph-name="vkontakte-rect" unicode="&#xe810;" d="M196 850c-108 0-196-88-196-196l0-608c0-108 88-196 196-196l608 0c108 0 196 88 196 196l0 608c0 108-88 196-196 196l-608 0z m112-226l197 0c41 0 73-1 94-4 21-4 41-10 59-20 20-11 35-25 45-43 10-18 15-39 15-63 0-27-7-51-21-72-13-22-32-37-56-47l0-3c34-8 62-22 83-45 21-22 31-52 31-90 0-28-5-52-16-73-10-21-24-39-42-53-21-16-44-28-70-35-25-7-56-10-95-10l-224 0 0 558z m140-102l0-118 17 0c24 0 41 0 51 0 9 1 19 3 30 8 11 5 19 13 23 22 4 9 6 20 6 32 0 9-2 19-7 28-4 10-11 16-21 21-10 4-20 6-33 6-13 1-32 1-57 1l-9 0z m0-214l0-140 7 0c37 0 62 0 76 1 14 0 28 4 43 10 13 6 22 14 28 24 6 11 8 23 8 36 0 18-3 31-10 41-7 10-18 17-32 22-8 3-20 5-35 6-14 0-34 0-59 0l-26 0z" horiz-adv-x="1000" />

<glyph glyph-name="odnoklassniki" unicode="&#xe811;" d="M290 850c-143 0-258-116-258-258 0-142 115-258 258-258 142 0 258 116 258 258 0 142-116 258-258 258z m0-151c59 0 107-48 107-107 0-59-48-107-107-107-59 0-107 48-107 107 0 59 48 107 107 107z m-213-374c-26 0-51-12-65-35-23-36-12-82 23-105 47-29 98-50 150-62l-144-144c-30-30-30-77 0-107 15-15 34-22 53-22 20 0 39 7 54 22l142 142 141-142c30-29 78-29 107 0 30 30 30 78 0 107l-144 144c53 12 103 33 150 62 35 23 46 69 24 105-23 35-69 46-105 23-105-66-241-66-347 0-12 8-26 12-39 12z" horiz-adv-x="579" />

<glyph glyph-name="odnoklassniki-rect" unicode="&#xe812;" d="M141 850c-78 0-141-63-141-141v-718c0-78 63-141 141-141h718c78 0 141 63 141 141v718c0 78-63 141-141 141h-718z m381-102c114 0 206-92 206-206 0-113-92-206-206-206-113 0-205 93-205 206 0 114 92 206 205 206z m-2-121c-46-1-83-39-83-85 0-47 38-85 85-85 47 0 86 38 86 85 0 47-39 85-86 85 0 0-1 0-2 0z m-168-298c11 0 22-3 32-9 84-53 193-53 277 0 28 18 65 9 83-19 18-28 9-65-19-83-37-23-77-40-119-50l115-115c23-23 23-61 0-85-24-23-62-23-85 0l-114 113-113-113c-11-12-27-18-42-18-16 0-31 6-43 18-23 24-23 62 0 85l115 115c-42 10-82 27-119 50-28 18-37 55-19 83 11 18 30 28 49 28 1 0 1 0 2 0z" horiz-adv-x="1000" />

<glyph glyph-name="friendfeed" unicode="&#xe813;" d="M717 850c-47 0-98-8-150-36-58 21-120 39-206 32-193-18-267-116-279-255-40-5-79-16-82-123-3-123 36-143 77-156l2-358c6-43-2-90 94-100l144-3c53-7 90 27 109 103 7-62 34-96 85-97l167 0c38 10 80 13 86 82l3 373 44-3c36 5 71 11 96 70l0 112c-7 46-19 40-32 50 34 8 70 11 82 94l-3 91c2 57-30 89-110 111-36 5-80 13-127 13z m-333-87c23 0 54-4 121-25l2-108c-35 12-65 26-89 23-76 3-83-35-87-75l0-77 193-2c4 102-23 232 146 254 73 10 141 1 192-21l-2-115c-27 22-62 29-100 34-104 14-80-79-85-148l139 0 0-102-139 0 2-460-153 4 0 456-200-4 0-452-153 0 4 452-75 0-2 115 81-5-2 32c3 74-3 202 156 222 20-1 33 1 51 2z" horiz-adv-x="957" />

<glyph glyph-name="friendfeed-rect" unicode="&#xe814;" d="M196 850c-108 0-196-88-196-196l0-608c0-108 88-196 196-196l608 0c107 0 195 88 195 196l0 608c0 108-88 196-195 196l-608 0z m478-138c35 0 66-6 93-10 58-15 82-39 81-81l2-67c-9-60-35-63-60-68 9-7 18-3 23-37l0-81c-18-44-44-48-70-52l-33 2-2-273c-4-50-34-53-62-60l-123 0c-37 1-57 26-62 71-14-56-41-80-79-75l-106 2c-70 7-64 42-68 73l-3 262c-29 10-57 25-55 114 2 79 30 87 60 90 8 102 62 174 204 187 62 5 108-8 150-23 38 20 76 26 110 26z m-244-64c-13 0-22-2-37-1-116-15-112-109-114-163l1-23-59 3 2-83 54 0-3-332 113 0 0 332 146 3 0-335 112-3-2 338 102 0 0 74-102 0c4 50-13 119 63 108 27-3 53-9 73-24l1 83c-37 16-87 23-141 16-123-16-103-111-106-186l-142 2 0 56c4 29 9 57 64 55 18 2 40-8 65-17l-1 79c-49 15-72 18-89 18z" horiz-adv-x="999" />

<glyph glyph-name="blogger-1" unicode="&#xe815;" d="M550 850l-300-1c-128-18-237-97-246-231-3-13-2-25-2-37-2-59-1-122-1-182 1-96-2-173 0-244 1-209 124-306 348-302 55 1 119 1 192-1 72 0 128-5 177 2 221 31 264 179 273 299l0 137c-6 140-108 178-194 181 9 35 12 82 3 146-10 124-98 221-250 233z m-251-187l245 0c135-18 129-164 0-185l-245 0c-135 18-129 164 0 185z m-56-404l450-2c136-17 136-183 5-203l-450 2c-139 17-137 182-5 203z" horiz-adv-x="991" />

<glyph glyph-name="blogger-rect" unicode="&#xe816;" d="M196 850c-108 0-196-88-196-196l0-608c0-108 88-196 196-196l608 0c108 0 196 88 196 196l0 608c0 108-88 196-196 196l-608 0z m338-187c94-8 149-68 155-146 5-40 4-70-2-91 54-2 116-26 120-113l0-86c-5-75-32-168-169-188-31-4-65-1-110-1-45 1-85 1-119 0-139-2-216 59-216 190-1 44 0 93 0 152 0 38-1 78 0 115 1 7 0 15 1 23 6 84 74 133 153 144l187 1z m-156-117c-80-13-84-105 0-116l152 0c80 13 84 105 0 116l-152 0z m-35-253c-82-13-83-117 3-127l279-1c82 12 82 116-3 127l-279 1z" horiz-adv-x="1000" />

<glyph glyph-name="deviantart" unicode="&#xe817;" d="M360 557l5-340-206 0c23 98 69 177 203 197l-2 44c-293-38-356-199-360-315l473 1 0 283c143 4 320-2 369-208l-210 2 0 144c-38 11-70 11-106 9l-2-230 469 0c5 230-199 334-520 329l0 84-113 0z" horiz-adv-x="993" />

<glyph glyph-name="jabber" unicode="&#xe818;" d="M225 850c-4 0-9 0-13-1l0 0c-18-2-37-2-55-5-35-5-68-16-101-29-12-5-24-10-35-16-4-2-11-3-14-7-2-1-2-5-2-8-1-6-2-13-2-19-3-26-4-52-1-77 1-8 4-23 14-24 15-3 27 16 35 27 17 24 37 47 66 58 34 13 73 16 109 18 102 7 212-11 287-86 10-11 20-22 29-34 33-48 51-103 59-161 4-27 7-54 1-81-11-47-39-88-71-123-23-23-47-45-73-64-15-11-31-20-45-32-15-14-28-31-38-49-27-50-34-109-26-164 2-11 3-22 6-33 0-4 1-9 3-12 4-5 15-8 21-8 6-1 10 4 12 10 3 10 1 21 0 31-4 20-7 40-6 61 2 38 17 74 43 101 27 28 63 44 94 68 61 47 116 111 137 187 8 27 10 56 7 84-5 35-18 71-30 104-37 102-101 198-202 245-40 18-82 26-126 32-20 3-40 5-61 6-7 0-15 1-22 1z m-53-421c-10-1-20-3-28-8-13-8-20-22-24-36-8-28-5-59 1-87 2-9 3-18 6-27 1-3 1-8 3-10 4-5 13-6 18-5 16 2 12 29 12 40-2 27-9 52-2 79 3 11 9 23 21 28 10 4 20-1 24-11 7-16 5-34 9-51 1-6 3-11 6-17 0-1 1-4 3-4 6 0 13 9 17 12 13 11 26 22 40 30 7 3 18 9 25 3 2-2 4-4 5-5 8-13 0-23-5-36-7-16-14-31-24-45-9-13-21-23-28-37-4-8-7-18-5-27 2-8 8-13 16-11 6 1 10 7 13 11 6 9 12 17 18 26 11 16 25 32 35 49 12 21 18 45 18 69 0 20-8 50-31 55-4 0-9 0-13-1-5-1-11-3-16-5-13-6-24-16-34-26-6-7-11-15-18-21 0 15-3 30-12 43-11 16-30 25-50 25z m-115-237c-1 0-2 0-3 0-20-3-26-19-22-37 4-22 22-40 40-54 46-35 105-54 162-51 22 1 47 5 67 14 11 5 23 23 8 31-2 1-5 2-7 2-7 1-14-1-20-3-11-3-22-6-33-8-34-6-71 2-98 22-23 16-41 37-58 59-10 12-19 26-36 25z m-21-111c-3 0-6 0-8-1-5 0-11 0-15-3-9-7 1-20 5-26 14-18 32-32 50-45 50-35 107-56 168-60 18-1 35 0 53 3 6 1 14 2 20 4 17 8 12 39-3 46-7 4-17-1-24-1-16-3-32-3-48-3-42 2-87 15-124 35-15 8-28 18-40 29-8 7-16 18-26 21-2 1-5 1-8 1z m3-95c0 0-1 0-1 0-7-1-13-4-17-10-4-3-7-7-8-11-11-26 17-50 36-62 21-13 43-23 67-31 53-19 115-31 169-14 17 5 33 14 44 26 7 7 12 18 0 22-8 3-17-4-23-6-16-7-32-11-48-13-22-3-42 2-63 7-18 5-37 9-54 16-15 5-30 12-43 21-4 3-8 5-11 9-11 11-19 25-30 36-4 5-11 10-18 10z" horiz-adv-x="667" />

<glyph glyph-name="lastfm-3" unicode="&#xe819;" d="M439 134l-37 99s-59-66-148-66c-78 0-134 69-134 178 0 140 70 190 140 190 100 0 132-65 159-148l37-114c36-110 105-199 302-199 141 0 237 43 237 157 0 92-52 140-150 163l-73 16c-51 11-65 32-65 66 0 39 30 62 81 62 54 0 84-21 88-70l114 14c-9 102-79 144-196 144-102 0-202-38-202-163 0-77 37-126 132-149l77-18c58-14 78-38 78-71 0-42-41-59-119-59-115 0-163 60-190 144l-38 114c-48 148-124 202-276 202-167 0-256-106-256-286 0-173 89-266 249-266 128 0 190 60 190 60z" horiz-adv-x="995" />

<glyph glyph-name="lastfm-rect" unicode="&#xe81a;" d="M196 850c-108 0-196-88-196-196l0-608c0-108 88-196 196-196l608 0c108 0 196 88 196 196l0 608c0 108-88 196-196 196l-608 0z m89-253c135 0 203-49 246-181l34-102c24-74 67-128 169-128 70 0 106 15 106 53 0 29-17 50-69 63l-69 16c-85 20-118 64-118 133 0 111 89 146 181 146 104 0 167-38 175-129l-102-13c-4 44-30 62-79 62-45 0-72-20-72-55 0-30 13-48 58-59l65-14c87-20 134-63 134-145 0-102-85-141-212-141-176 0-237 80-269 178l-33 102c-24 74-53 132-142 132-62 0-125-44-125-170 0-97 49-158 120-158 79 0 132 59 132 59l32-89s-54-54-169-54c-143 0-222 84-222 238 0 161 79 256 229 256z" horiz-adv-x="1000" />

<glyph glyph-name="linkedin-5" unicode="&#xe81b;" d="M238-150l0 675-225 0 0-675 225 0z m-113 767c79 0 127 52 127 116-1 67-48 117-125 117-77 0-127-50-127-117 0-64 49-116 124-116l1 0z m237-767l224 0 0 377c0 20 1 40 7 55 17 40 53 82 115 82 82 0 114-62 114-153l0-361 224 0 0 387c0 207-110 304-258 304-121 0-174-68-204-114l2 0 0 98-224 0c3-64 0-675 0-675z" horiz-adv-x="1046" />

<glyph glyph-name="linkedin-rect" unicode="&#xe81c;" d="M196 850c-108 0-196-88-196-196l0-608c0-108 88-196 196-196l608 0c107 0 196 88 196 196l0 608c0 108-89 196-196 196l-608 0z m49-165c52 0 84-34 85-79 0-43-33-78-86-78l-1 0c-50 0-83 35-83 78 0 45 34 79 85 79z m445-208c100 0 174-65 174-205l0-260-151 0 0 243c0 61-22 102-76 102-42 0-67-28-78-55-4-10-5-23-5-37l0-253-151 0s2 411 0 454l151 0 0-64c20 31 56 75 136 75z m-521-11l151 0 0-454-151 0 0 454z" horiz-adv-x="1000" />

<glyph glyph-name="picasa-1" unicode="&#xe81d;" d="M474 850c-55 0-106-11-157-22l377-343-5 301c-83 49-152 64-215 64z m-235-56c-262-184-242-367-236-551l416 382-180 169z m520-55l3-558 142 5c66 262-18 422-145 553z m-569-413l-169-163c66-151 119-195 172-237l-3 400z m88-205l-2-244c362-90 500 58 602 242l-600 2z" horiz-adv-x="927.2" />

<glyph glyph-name="wordpress-1" unicode="&#xe81e;" d="M502 850c-196 0-380-116-465-300l238 0 0-26c-73 9-67-30-56-70l156-391 115 269-53 126c-19 34-20 71-98 68l1 24 349-1 0-27c-41-3-90 10-64-74l141-370 77 216c26 91 2 178-28 264-17 57-9 105 66 124-114 117-249 168-379 168z m475-342l-227-590c63 54 127 74 205 224 52 124 47 239 22 366z m-964-10c-22-174-20-225 35-367 71-136 126-165 205-218l-240 585z m498-221l-168-404c118-34 223-30 320 8l-152 396z" horiz-adv-x="995" />

<glyph glyph-name="instagram-3" unicode="&#xe81f;" d="M749 849h-498c-138 0-249-111-249-248v-502c0-137 111-248 249-248h498c138 0 250 111 250 248v502c0 136-112 248-250 248z m157-750c0-86-70-156-157-156h-498c-87 0-157 70-157 156v324h197c-14-30-23-64-23-100 0-130 107-236 237-236 131 0 237 106 237 236 0 36-8 70-23 100h187v-324z m-499 224c0 54 44 98 98 98 54 0 98-44 98-98 0-54-44-98-98-98-54 0-98 44-98 98z m499 192h-264c-39 28-86 44-137 44-51 0-98-16-137-44h-274v86c0 86 70 156 157 156h498c87 0 157-70 157-156v-86h0z m-100 186h-85c-15 0-28-12-28-27v-86c0-15 13-27 28-27h85c16 0 28 12 28 27v86c0 15-12 27-28 27z" horiz-adv-x="1000" />

<glyph glyph-name="instagram-filled" unicode="&#xe820;" d="M604 339c0 54-45 98-99 98-54 0-98-44-98-98 0-54 44-98 98-98 54 0 99 44 99 98z m146 510h-500c-137 0-249-111-249-248v-69h367c39 27 86 43 137 43 51 0 99-16 137-43h358v69c0 137-112 248-250 248z m101-236c0-15-12-28-28-28h-85c-16 0-28 13-28 28v85c0 16 12 28 28 28h85c16 0 28-12 28-28v-85z m-109-274c0-130-106-236-237-236-131 0-237 106-237 236 0 36 8 70 23 101h-290v-341c0-137 112-248 249-248h500c138 0 250 111 250 248v341h-280c14-31 22-65 22-101z" horiz-adv-x="1000" />

<glyph glyph-name="diigo" unicode="&#xe821;" d="M251 457c112 2 173 61 230 117l0-673-112 0c-1 27-2 55-2 82l0 189c0 71 1 142 2 212-16-4-34-13-54-18-61-16-141-8-187 19 0-33 1-66 1-100l0-352c0-10 0-21-1-32l-113 0 0 675c58-62 122-121 236-119z m176 196c41 0 73 33 73 74s-32 74-73 74c-40 0-72-33-72-74s32-74 72-74z m-354 0c40 0 72 33 72 74s-32 74-72 74c-40 0-73-33-73-74s33-74 73-74z" horiz-adv-x="500" />

<glyph glyph-name="box-4" unicode="&#xe822;" d="M352 555c-76 0-146-24-204-64l0 285c0 41-33 74-74 74s-74-33-74-74l0-545c-1-10 0-63 3-78 24-171 171-303 349-303 194 0 352 158 352 353 0 194-158 352-352 352z m0-556c-113 0-204 91-204 204s91 203 204 203c112 0 203-91 203-203s-91-204-203-204z" horiz-adv-x="704" />

<glyph glyph-name="box-rect" unicode="&#xe823;" d="M193 850l614 0c107 0 193-86 193-193l0-614c0-107-86-193-193-193l-614 0c-107 0-193 86-193 193l0 614c0 107 86 193 193 193z m307-356c-53 0-102-17-143-46l0 200c0 29-23 52-51 52-29 0-52-23-52-52l0-382c-1-6 0-43 2-54 17-120 119-212 244-212 136 0 246 111 246 247 0 136-110 247-246 247z m0-389c-79 0-143 63-143 142 0 78 64 142 143 142s142-64 142-142c0-79-64-142-142-142z" horiz-adv-x="1000" />

<glyph glyph-name="tudou" unicode="&#xe824;" d="M499 850c-14 0-28 0-43-1-227-19-421-193-451-425-39-296 173-550 440-572 212-17 347 71 440 182 81 97 130 238 108 394-21 145-125 284-247 355-69 40-150 67-247 67z m2-96c51 0 103-9 156-29 137-74 246-183 247-371 1-215-151-391-367-409-235-20-489 174-440 475 31 185 198 335 404 334z m184-246c-66 0-133-42-128-123 61 40 171 47 255 16-3 72-65 108-127 107z m-375-1c-60 0-120-34-124-106 37 4 77 25 112 19-14-32-29-63-35-104-42 44-95-36-42-62-39-8-25-75 15-70 14 6 23 16 35 24 28-65 104 24 43 50 61 27-12 97-39 62 18 35 19 91 58 100 36 8 71-26 108-35 8 80-62 123-131 122z m-43-238c4 0 9-4 16-15-30-30-30 14-16 15z" horiz-adv-x="998" />

<glyph glyph-name="youku" unicode="&#xe825;" d="M450 710c-16 0-31-4-44-13-29-20-45-82-65-126-21-48-40-97-61-132-56 64-95 206-163 258-22 17-70 16-92 0-58-44 0-122 24-163 52-90 109-186 153-269-28-75-172-287 20-275 47 30 67 93 92 150 52 116 96 216 150 336 22 50 76 124 64 180-6 32-42 54-78 54z m466-46c-28 0-56-13-68-38-20-23-42-45-65-65-11-14-23-26-37-37-16-17-29-37-51-48l0 133c-1 72-136 72-136 0l0-378c6-27 18-47 47-51l41 0c28 5 44 22 48 51l0 82c0 28-5 76 13 48 28-28 67-57 102-89 34-31 67-81 102-88 73-16 106 54 79 105-29 54-111 88-147 136 24 55 154 88 143 184-4 37-37 56-71 55z" horiz-adv-x="1000" />

<glyph glyph-name="win8" unicode="&#xe826;" d="M986 850l-549-80 0-398 549 0 0 478z m-587-86l-399-58 0-334 399 0 0 392z m-399-430l0-339 399-58 0 397-399 0z m437 0l0-403 549-81 0 484-549 0z" horiz-adv-x="986" />

<glyph glyph-name="amex" unicode="&#xe827;" d="M47 664c-26 0-47-21-47-46v-535c0-26 21-47 47-47h907c25 0 46 21 46 47v535c0 25-21 46-46 46h-907z m-10-132h73l10-19v19h85l19-42 18 42h271c13 0 24-2 32-9v9h74v-9c13 7 29 9 47 9h107l10-19v19h80l11-19v19h77v-164h-78l-15 25v-25h-98l-10 27h-24l-11-27h-51c-20 0-35 5-45 10v-10h-121v38c0 5-1 5-4 5h-4l0-43h-234v21l-8-21h-49l-8 20v-20h-94l-11 27h-24l-11-27h-48v86l34 78z m-34-141h31l11 26h58l10-26h57v92l41-92h24l41 92 0-92h29v118h-47l-33-80-37 80h-46v-112l-47 112h-42l-50-118z m323 118v-118h93v24h-66v24h64v24h-64v21h66v25h-93z m113 0v-118h28v43h30c10 0 16-1 20-5 5-6 5-16 5-23l0-15h28v23c0 11-1 16-5 22-2 3-7 7-13 10 7 3 19 12 19 31 0 13-5 21-14 26-9 5-19 6-34 6h-64z m128 0v-118h29v118h-29z m100 0c-20 0-34-5-43-14-12-13-15-29-15-46 0-21 5-35 15-45 10-10 27-13 41-13h32l11 26h58l11-26h57v88l53-88h39v118h-28v-82l-49 82h-43v-112l-47 112h-42l-40-93h-12c-8 0-15 2-20 6-5 6-7 15-7 28 0 12 3 22 8 26 5 6 11 7 21 7h27v26h-27z m-594-20l19-47h-37l18 47z m664 0l20-47h-39l19 47z m-270-5h34c5 0 10 0 13-2 4-2 6-5 6-10 0-5-2-9-6-11-3-3-8-3-13-3h-34v26z m-266-153h150l22-25 23 25h101c11 0 30-2 39-10v10h90c9 0 27-2 38-10v10h136v-10c7 7 21 10 34 10h76v-10c8 6 19 10 35 10h52v-24h-56c-29 0-40-18-40-35 0-37 33-35 59-36 5 0 8-1 10-3 2-1 3-4 3-7 0-4-1-6-3-8-2-2-6-3-11-3h-54v-25h54c18 0 31 5 38 15v-31c-11-5-26-7-41-7h-73v10c-8-6-23-10-38-10h-228v38c0 4 0 5-5 5h-3v-43h-76v44c-12-5-26-6-39-6h-8v-38l-92 0-22 25-24-25h-147v164z m25-24v-118h110l36 39 35-39h54v40h35c24 0 49 7 49 39 0 33-25 39-48 39h-89l-35-39-35 39h-112z m331 0v-118h28v43h30c10 0 16-1 21-5 5-5 4-16 4-23v-15h28v24c0 10-1 15-5 21-2 4-7 8-13 10 7 3 20 13 20 31 0 14-6 21-15 26-9 5-19 6-33 6h-65z m128 0v-118h94v25l-66 0v23h64v24h-64v22h66v24h-94z m147 0c-29 0-40-18-40-35 0-37 33-35 59-36 5 0 8-1 10-3 2-2 3-4 3-8 0-3-1-6-3-7-2-3-6-3-12-3h-54v-26h55c28 0 44 12 44 38 0 12-3 19-9 24-6 7-17 10-32 10l-15 0c-4 0-8 1-11 2-3 1-6 4-6 8 0 4 1 7 5 9 2 2 6 2 11 2h51v25h-56z m-399-13v-94l-43 48 43 46z m-180-11h71l30-35-32-34h-69v23h62v24h-62v22z m208 0h36c10 0 17-4 17-15 0-10-6-16-17-16h-36v31z m125 0h34c5 0 10 0 14-2 3-2 5-6 5-11 0-5-2-9-5-11-4-2-9-2-14-2h-34v26z m360-1h51v-34c-1 1-2 2-3 3-6 7-16 9-32 10l-15 0c-4 0-8 0-10 1-4 2-7 5-7 9 0 4 2 7 5 9 2 2 6 2 11 2z" horiz-adv-x="1000" />

<glyph glyph-name="discover" unicode="&#xe828;" d="M46 664c-26 0-47-21-47-46v-535c0-26 21-47 47-47h907c26 0 46 21 46 47v535c0 25-20 46-46 46h-907z m480-177c1 0 1 0 2 0 44 0 79-35 79-79 0-43-35-79-79-79-44 0-79 36-79 79 0 43 34 78 77 79z m-250-3c16 0 30-6 42-16l-14-19c-7 8-14 11-23 11-12 0-20-6-20-15 0-8 4-12 21-18 32-12 41-22 41-45 0-28-20-47-49-47-21 0-37 8-50 27l18 18c7-13 18-20 31-20 12 0 22 9 22 21 0 6-3 11-9 14-3 2-8 5-19 9-26 9-35 19-35 39 0 23 19 41 44 41z m132 0c12 0 22-3 34-9v-33c-12 12-22 16-35 16-26 0-47-21-47-49 0-28 20-49 48-49 13 0 23 5 34 16v-33c-13-6-23-8-35-8-43 0-76 32-76 74 0 42 34 75 77 75z m-353-3h41c46 0 77-29 77-71 0-20-9-41-26-54-14-11-29-16-51-16h-41v141z m131 0h27v-141h-27v141z m409 0h31l38-96 38 96h31l-62-146h-15l-61 146z m149 0h79v-24h-51v-31h49v-24h-49v-38h51v-24h-79v141z m99 0h42c32 0 50-15 50-41 0-22-11-36-32-41l45-59h-35l-38 57h-4v-57h-28v141z m28-22v-43h8c18 0 27 8 27 22 0 14-9 21-26 21h-9z m-788-1v-95h7c19 0 30 4 39 12 10 8 15 22 15 36 0 13-5 27-15 35-9 8-20 12-39 12h-7z m904-135s1-152 0-232c0-7-3-18-11-27-8-10-20-14-27-14-8 0-725 0-725 0 492 85 763 273 763 273z" horiz-adv-x="1000" />

<glyph glyph-name="visa" unicode="&#xe829;" d="M40 664c-22 0-40-18-40-40v-548c0-22 18-40 40-40h920c22 0 40 18 40 40v548c0 22-18 40-40 40h-920z m557-187c25 0 44-5 57-10l-9-54-6 3c-11 5-26 10-47 9-24 0-35-11-35-21-1-11 13-19 35-30 36-18 53-39 52-67 0-52-43-85-109-85-28 1-55 6-70 13l9 56 8-4c21-10 34-13 59-13 18 0 38 7 38 24 0 11-8 18-33 30-24 12-55 32-55 67 1 48 44 82 106 82z m-509-8h102c13 0 24-5 28-20l22-112c0 0 0 0 0 0l7-34 61 166h67l-99-243-67 0-53 196c32-17 59-36 74-63-4 9-9 18-16 28-8 11-25 25-32 31-24 20-58 37-94 46l0 5z m313 0h65l-40-243h-65l40 243z m368 0h49l52-243h-59s-6 28-8 36c-9 0-74 0-82 0-2-6-13-36-13-36h-67l95 223c6 15 18 20 33 20z m5-66c-3-9-9-23-9-23 0 0-20-53-25-67l53 0c-3 12-15 70-15 70l-4 20z" horiz-adv-x="1000" />

<glyph glyph-name="mastercard" unicode="&#xe82a;" d="M47 655c-26 0-47-21-47-46v-535c0-26 21-47 47-47h907c25 0 46 21 46 47v535c0 25-21 46-46 46h-907z m281-76c57 0 109-19 151-53-35-31-61-71-74-117h20c12 38 34 72 62 98 28-26 49-60 61-98h20c-13 46-39 86-73 117 41 33 94 53 151 53 132 0 240-107 240-239 0-132-108-240-240-240-58 0-112 21-153 56 37 32 64 75 77 125h-20c-11-42-33-78-63-107-30 29-53 65-64 107h-19c13-49 40-92 77-124-42-34-95-54-153-54-132 0-240 106-240 238s108 238 240 238z m300-168c-29 0-57-25-57-72 0-32 15-52 45-52 9 0 22 3 22 3l4 27s-12-6-20-6c-18 0-25 14-25 28 0 30 15 46 32 46 13 0 23-7 23-7l4 27s-15 6-28 6z m242-2l-25 0-5-33s-10 13-24 13c-23 0-42-28-42-59 0-20 10-40 31-40 14 0 23 10 23 10l-1-8h24l19 117z m-717-1l-20-117h24l15 89 3-89h17l32 89-14-89h25l20 117h-40l-24-72-1 72h-37z m251-7c0-1-14-81-14-91 0-15 8-21 19-21 8 0 15 2 18 3 0 0 1 0 1 0l3 21c-2 0-4-1-7-1-8 0-9 5-9 8l7 43h13l4 23h-13l3 15h-25z m291-12c-17 0-30-6-30-6l-4-21s11 4 27 4c9 0 16-1 16-8 0-5-1-7-1-7s-7 1-10 1c-22 0-44-9-44-37 0-22 15-27 24-27 17 0 24 11 25 11l-1-9h22l9 69c0 29-25 30-33 30z m-404 0c-17 0-30-6-30-6l-4-21s11 4 27 4c9 0 16-1 16-8 0-5-1-7-1-7s-7 1-10 1c-22 0-44-9-44-37 0-22 15-27 24-27 17 0 25 11 25 11l-1-9h22l9 69c0 29-25 30-33 30z m76 0c-18 0-36-7-36-32 0-29 30-26 30-38 0-8-8-8-15-8-11 0-22 4-22 3l-3-21c1 0 7-3 28-3 5 0 37-2 37 31 0 31-30 25-30 37 0 6 5 8 14 8 3 0 17-1 17-1l3 22c0 0-9 2-23 2z m113 0c-25 0-44-27-44-58 0-35 24-43 44-43 18 0 26 4 26 4l4 24s-14-6-26-6c-27 0-22 20-22 20h50s4 16 4 22c0 17-8 37-36 37z m91-1c-11 0-20-15-20-15l3 14h-24l-16-97h26c8 41 9 75 27 69 3 16 6 22 9 28 0 0-2 1-5 1z m210 0c-11 0-19-15-19-15l2 14h-23l-16-97h26c7 41 8 75 26 69 3 16 6 22 9 28 0 0-1 1-5 1z m-301-21c14 0 12-16 12-17h-28c0 1 2 17 16 17z m339-2c10 0 14-6 14-20 0-13-6-31-20-31-9 0-13 8-13 19 0 20 8 32 19 32z m-124-33c3 0 4 0 5 0 0 0 0 0 0 0 0-4-3-25-17-25-8 0-10 6-10 10 0 7 4 15 22 15z m-404 0c4 0 4 0 5 0 1-5-2-25-17-25-8 0-10 6-10 10 0 7 4 15 22 15z" horiz-adv-x="1000" />

<glyph glyph-name="houzz" unicode="&#xe82b;" d="M289 850l0-333-289-167 0 333 289 167m-289-500l0-333 289 166-289 167 0 0m289-167l0-333 288 167 0 333-288-167m0 334l288-167 0 333-288-166" horiz-adv-x="577" />

<glyph glyph-name="bandcamp" unicode="&#xe82c;" d="M0 58l694 0 306 584-667 0z" horiz-adv-x="1000" />

<glyph glyph-name="codepen" unicode="&#xe82d;" d="M988 506c0 1-1 1-1 2 0 1 0 2 0 4-1 0-1 1-1 2 0 1-1 2-1 3 0 0-1 1-1 2-1 1-1 2-2 3 0 0 0 1-1 2 0 0-1 1-2 2 0 1 0 1-1 2-1 1-1 2-2 2-1 1-1 1-2 2-1 1-1 1-2 2-1 0-1 1-2 1 0 1-1 1-1 1l-451 301c-15 9-33 9-47 0l-452-301c0 0 0 0-1-1 0 0-1-1-2-1 0-1-1-1-2-2-1-1-1-1-2-2 0 0-1-1-2-2 0-1-1-1-1-2-1-1-2-2-2-2-1-1-1-2-1-2-1-1-1-2-2-3 0-1 0-2-1-2 0-1 0-2-1-3 0-1 0-2 0-2-1-2-1-3-1-4 0-1 0-1-1-2 0-2 0-4 0-5l0-301c0-2 0-4 0-6 1-1 1-1 1-2 0-1 0-2 1-3 0-1 0-2 0-2 1-1 1-3 1-4 1 0 1-1 1-2 1-1 1-2 2-2 0-1 0-2 1-2 0-1 1-2 2-3 0-1 1-1 1-2 1-1 2-1 2-2 1-1 1-1 2-2 1 0 2-1 2-2 1 0 2-1 2-1 1 0 1-1 1-1l452-301c7-5 15-7 23-7 8 0 16 2 24 7l451 301c0 0 1 1 1 1 1 0 1 1 2 1 1 1 1 2 2 2 1 1 1 1 2 2 1 1 1 1 2 2 1 1 1 1 1 2 1 1 2 2 2 3 1 0 1 1 1 2 1 0 1 1 2 2 0 1 1 2 1 2 0 1 1 3 1 4 0 0 0 1 1 2 0 1 0 2 0 3 0 1 1 1 1 2 0 2 0 4 0 6l0 301c0 1 0 3 0 5z m-451 216l332-221-148-100-184 123 0 198z m-85 0l0-198-184-123-149 100 333 221z m-367-301l106-71-106-71 0 142z m367-443l-333 222 149 99 184-123 0-198z m42 272l-150 100 150 100 150-100-150-100z m43-272l0 198 184 123 148-99-332-222z m366 301l-106 71 106 71 0-142z" horiz-adv-x="988" />

<glyph glyph-name="cancel" unicode="&#xe82e;" d="M654 349l346-346-154-154-346 346-346-346-154 154 346 346-346 346 154 154 346-346 346 346 154-154z" horiz-adv-x="1000" />

<glyph glyph-name="cancel-1" unicode="&#xe82f;" d="M123 654l181-181 181 181 123-124-182-178 183-184-124-121-181 182-181-182-123 122 183 183-182 178z" horiz-adv-x="609" />

<glyph glyph-name="battery" unicode="&#xe883;" d="M946 537c0 18-14 32-31 32h-882c-17 0-31-14-31-32v-374c0-17 14-31 31-31h882c17 0 31 14 31 31v68h23c17 0 31 14 31 31v167c0 18-14 32-31 32h-23v76z m-62-343h-820v312h820v-312z m-723 32c17 0 31 14 31 31v187c0 17-14 31-31 31-18 0-32-14-32-31v-187c0-17 14-31 32-31z m125 0c17 0 31 14 31 31v187c0 17-14 31-31 31-17 0-31-14-31-31v-187c0-17 14-31 31-31z m125 0c17 0 31 14 31 31v187c0 17-14 31-31 31-17 0-31-14-31-31v-187c0-17 14-31 31-31z m125 0c17 0 31 14 31 31v187c0 17-14 31-31 31-17 0-31-14-31-31v-187c0-17 14-31 31-31z" horiz-adv-x="1000" />

<glyph glyph-name="bell" unicode="&#xe884;" d="M596-5c-17 0-31-14-31-31 0-29-27-53-60-53s-59 24-59 53c0 17-14 31-31 31-18 0-32-14-32-31 0-64 55-115 122-115s122 51 122 115c0 17-14 31-31 31z m222 317h-48l0 118c-2 124-104 225-233 240v24c31 12 53 41 53 75 0 45-38 81-85 81s-85-36-85-81c0-34 23-63 54-75v-24c-129-14-231-116-233-238 0-1 0-76 0-120h-49c-17 0-31-14-31-31 0-147 50-231 136-231h416c136 0 136 174 136 231 0 17-13 31-31 31z m-313 475c12 0 23-8 23-18 0-10-11-18-23-18s-22 8-22 18c0 10 10 18 22 18z m-201-357c1 99 92 179 201 179 110 0 201-80 202-179l0-118h-403c0 43 0 115 0 118z m409-317h-416c-55 0-69 86-72 136h561c-3-95-26-136-73-136z" horiz-adv-x="1000" />

<glyph glyph-name="blank" unicode="&#xe885;" d="M848-149c17 0 31 14 31 31v767c0 1 0 2 0 2 0 3-1 6-2 9 0 1 0 2-1 3-1 3-3 5-5 8 0 0-1 0-1 1 0 0 0 0 0 0l-172 168c-2 3-5 5-8 6-1 0-2 1-3 1-3 1-6 2-8 2-1 0-2 0-2 0h-515c-17 0-31-14-31-31v-936c0-17 14-31 31-31h686z m-140 892l64-62h-64v62z m-515 44h452v-138c0-17 14-31 32-31h140v-705h-624v874z m536-442h-432c-18 0-31-14-31-32 0-17 13-31 31-31h432c17 0 31 14 31 31 0 18-14 32-31 32z m0 131h-432c-18 0-31-14-31-32 0-17 13-31 31-31h432c17 0 31 14 31 31 0 18-14 32-31 32z m0-262h-432c-18 0-31-14-31-32s13-31 31-31h432c17 0 31 14 31 31s-14 32-31 32z m0-131h-432c-18 0-31-14-31-32 0-17 13-31 31-31h432c17 0 31 14 31 31 0 18-14 32-31 32z" horiz-adv-x="1000" />

<glyph glyph-name="bluetooth" unicode="&#xe886;" d="M832 581c9 6 14 16 14 26-1 11-6 20-14 26l-312 209c-9 7-22 7-32 2-10-6-16-16-16-28v-410l-34-23-229 162c-14 10-33 6-43-8s-7-33 7-43l211-149-211-146c-14-10-17-29-8-44 10-14 30-17 44-7l229 159 34-24v-402c0-11 6-22 16-27 4-3 10-4 15-4 6 0 11 2 16 5l312 198c9 5 14 15 15 25 0 11-5 20-14 26l-298 211v59l298 207z m-298 177l225-151-225-157v308z m224-678l-224-142v301l224-159z" horiz-adv-x="1000" />

<glyph glyph-name="browser" unicode="&#xe887;" d="M33-57h936c17 0 31 14 31 31v748c0 18-14 32-31 32h-936c-17 0-31-14-31-32v-748c0-17 14-31 31-31z m31 62v463h874v-463h-874z m874 686v-161h-874v161h874z" horiz-adv-x="1000" />

<glyph glyph-name="camera" unicode="&#xe888;" d="M758 564l-23 133c-2 15-15 26-31 26h-406c-15 0-28-11-31-27l-22-132h-213c-17 0-31-14-31-31v-529c0-18 14-32 31-32h938c17 0 32 14 32 32v529c0 17-15 31-32 31h-212z m181-529h-875v466h207c16 0 29 11 31 26l23 133h353l22-133c3-15 16-26 31-26h208v-466l0 0z m-438 456c-103 0-187-83-187-186 0-102 84-186 187-186s188 84 188 186c0 103-84 186-188 186z m0-309c-69 0-125 55-125 123 0 69 56 124 125 124 69 0 125-55 125-124 0-68-56-123-125-123z" horiz-adv-x="1000" />

<glyph glyph-name="cart" unicode="&#xe889;" d="M962 734l-187-37c-14-2-25-15-25-30v-126h-716c-12 0-22-6-28-17-5-10-4-22 2-32l172-250c6-9 16-14 26-14h507l0-69h-430c0 0-1 0-1 0-1 0-2 0-3 0-55 0-99-46-99-102 0-56 44-102 99-102 55 0 99 46 99 102 0 14-3 27-8 40h256c-5-13-7-26-7-40 0-56 44-102 99-102 54 0 99 46 99 102 0 34-17 64-41 82l0 89h5c18 0 32 14 32 31v251c0 1-1 2-1 2 0 1 1 2 1 3v126l161 31c17 4 28 20 25 37-3 17-20 28-37 25z m-683-716c-20 0-37 17-37 39s17 40 37 40c20 0 37-18 37-40s-17-39-37-39z m439 0c-21 0-37 17-37 39s16 40 37 40c20 0 36-18 36-40s-16-39-36-39z m-625 461h657v-189h-528l-129 189z" horiz-adv-x="1000" />

<glyph glyph-name="chat" unicode="&#xe88a;" d="M180 76c2-1 3-2 3-4 3-16-15-51-30-70-6-9-8-20-4-30 3-10 12-18 23-20 8-2 17-2 25-2 48 0 83 30 104 49 5 4 11 9 15 12 46-10 116-19 161-19 25 0 50 2 75 5 37-12 78-19 121-19 29 0 74 5 105 12 2-2 4-3 5-5 15-13 41-35 77-35 6 0 12 0 19 2 10 2 19 9 23 19 4 10 2 22-5 30-8 12-17 28-18 36 77 49 122 127 122 209 0 50-17 97-47 138-4 210-216 379-477 379-263 0-477-173-477-385 0-119 68-232 180-302z m664 13c-14-9-23-22-26-38-1-4-1-8-1-12-10 8-21 15-35 15-3 0-7-1-10-1-26-7-72-12-99-12-147 0-266 92-266 205 0 113 119 205 266 205 147 0 266-92 266-205 0-62-35-120-95-157z m-367 612c195 0 359-106 403-248-57 38-129 60-207 60-181 0-329-120-329-267 0-74 37-141 97-190-39 3-86 10-116 17-27 7-47-11-65-27-8-7-15-13-22-18 6 18 10 37 7 55-4 20-15 36-32 46-94 59-150 152-150 249 0 178 186 323 414 323z" horiz-adv-x="1000" />

<glyph glyph-name="check-mark" unicode="&#xe88b;" d="M948 683l-603-603-290 291c-13 12-32 12-45 0-12-13-12-32 0-45l313-312c6-6 14-9 22-9 8 0 16 3 22 9l625 625c13 12 13 32 0 44-12 12-32 12-44 0z" horiz-adv-x="1000" />

<glyph glyph-name="clock" unicode="&#xe88c;" d="M500-149c275 0 500 224 500 500 0 275-225 499-500 499-275 0-500-224-500-499 0-276 225-500 500-500z m0 937c241 0 437-196 437-437 0-241-196-438-437-438-241 0-437 197-437 438 0 241 196 437 437 437z m170-652c6-6 14-9 22-9 8 0 16 3 23 9 12 12 12 32 0 44l-184 183v338c0 17-14 31-31 31-17 0-31-14-31-31v-350c0-9 3-17 9-23l192-192z" horiz-adv-x="1000" />

<glyph glyph-name="close" unicode="&#xe88d;" d="M9-141c6-6 14-9 22-9 8 0 16 3 22 9l447 447 447-447c6-6 14-9 22-9 8 0 16 3 22 9 12 12 12 32 0 44l-446 447 446 447c12 12 12 32 0 44-12 12-32 12-44 0l-447-447-447 447c-12 12-32 12-44 0-12-12-12-32 0-44l446-447-446-447c-12-12-12-32 0-44z" horiz-adv-x="1000" />

<glyph glyph-name="cocktail" unicode="&#xe88e;" d="M755 850c-93 0-170-70-184-161h-473c-12 0-24-7-29-19-4-11-2-25 7-34l335-341v-382h-77c-18 0-32-14-32-31 0-17 14-31 32-31h218c17 0 31 14 31 31 0 17-14 31-31 31h-78v382l195 199c27-14 56-22 86-22 103 0 186 85 186 189 0 104-83 189-186 189z m-43-223l-269-274-270 274h539z m43-92c-13 0-27 2-39 6l93 95c9 9 12 23 7 34-5 12-17 20-29 20h-152c13 56 62 98 120 98 69 0 124-57 124-127 0-69-56-126-124-126z" horiz-adv-x="1000" />

<glyph glyph-name="compass" unicode="&#xe88f;" d="M500-150c276 0 500 224 500 500 0 276-224 500-500 500-276 0-500-224-500-500 0-276 224-500 500-500z m0 938c241 0 437-197 437-438s-196-437-437-437c-241 0-437 196-437 437s196 438 437 438z m-219-688c5 0 10 1 14 3l294 144c6 3 11 8 14 14l144 294c6 12 3 26-6 36-10 9-24 12-36 6l-294-144c-6-3-11-8-14-14l-144-294c-6-12-3-26 6-36 6-6 14-9 22-9z m167 302l203 99-99-203-203-99 99 203z" horiz-adv-x="1000" />

<glyph glyph-name="connection" unicode="&#xe890;" d="M37-148h132c17 0 31 14 31 31v226c0 17-14 31-31 31h-132c-17 0-31-14-31-31v-226c0-17 14-31 31-31z m31 226h70v-164h-70v164z m734 738v-933c0-17 13-31 31-31h132c17 0 31 14 31 31v933c0 17-14 31-31 31h-132c-18 0-31-14-31-31z m61-31h71v-871h-71v871z m-429-437h-132c-17 0-31-13-31-31v-433c0-17 14-31 31-31h132c18 0 31 14 31 31v433c0 18-13 31-31 31z m-30-433h-71v371h71v-371z m132 608v-639c0-17 14-31 31-31h133c17 0 31 14 31 31v639c0 17-14 31-31 31h-133c-17 0-31-14-31-31z m62-31h71v-577h-71v577z" horiz-adv-x="1000" />

<glyph glyph-name="cursor" unicode="&#xe891;" d="M873-85c1 3 1 5 1 8v272c0 46-38 83-84 83h-6c-9 0-17-1-25-3-11 34-43 59-81 59h-6c-9 0-17-2-25-4-10 35-43 61-81 61h-6c-8 0-15-1-22-3v139c0 46-38 83-85 83h-6c-46 0-84-37-84-83v-385l-35 34c-32 31-87 31-119 0l-4-4c-16-16-25-37-25-59 0-23 9-44 24-58l163-180c14-16 35-25 56-25h377c38 0 69 28 73 65z m-459 2l-166 182c-4 3-6 9-6 14 0 5 2 10 6 14l5 4c4 4 10 7 16 7 6 0 11-3 16-7l87-85c9-9 23-11 34-6 12 5 19 16 19 28v459c0 11 10 21 22 21h6c13 0 23-10 23-21v-211c0-17 12-30 28-31 17-2 31 10 34 26 1 10 11 17 22 17h5c13 0 23-9 23-20v-49c0-17 12-30 28-31 17-2 31 10 34 26 1 10 11 17 22 17h6c12 0 22-9 22-20v-48c0-16 12-29 28-31 17-1 31 10 34 26 1 11 11 18 22 18h6c12 0 22-9 22-21v-267c-1-2-1-4-1-6 0-5-5-10-11-10h-377c-3 0-6 2-9 5z m-288 642c0-17 14-31 31-31h104c17 0 31 14 31 31 0 18-14 32-31 32h-104c-17 0-31-14-31-32z m357 157v101c0 17-14 31-31 31-18 0-32-14-32-31v-101c0-18 14-32 32-32 17 0 31 14 31 32z m-148-85c1 0 1 0 1 0 17 0 31 14 31 31 0 11-5 20-13 26l-71 68c-12 12-32 12-44 0-12-13-12-32 1-44l74-72c6-6 13-9 21-9z m273-72c0-17 14-31 31-31h105c17 0 31 14 31 31 0 18-14 32-31 32h-105c-17 0-31-14-31-32z m9 197l-74-71c-12-12-12-32 0-44 6-7 14-10 22-10 8 0 16 3 22 9l74 72c12 12 12 31 0 44-12 12-31 12-44 0z" horiz-adv-x="1000" />

<glyph glyph-name="display" unicode="&#xe892;" d="M969 817h-935c-17 0-31-14-31-31v-715c0-17 14-31 31-31h436v-96h-197c-17 0-31-14-31-31 0-17 14-31 31-31h457c17 0 31 14 31 31 0 17-14 31-31 31h-197v96h436c17 0 31 14 31 31v715c0 17-14 31-31 31z m-31-62v-438h-873v438h873z m-873-653v153h873v-153h-873z" horiz-adv-x="1000" />

<glyph glyph-name="download" unicode="&#xe893;" d="M62 104c-17 0-31-14-31-31v-192c0-17 14-31 31-31h875c17 0 31 14 31 31v192c0 17-14 31-31 31-17 0-31-14-31-31v-161h-813v161c0 17-14 31-31 31z m437 746c-17 0-31-14-31-31v-672l-198 191c-12 12-32 12-44 0-12-13-12-33 1-45l250-242c0 0 0 0 0 0l1 0c1-2 2-2 4-3 2-1 3-3 6-4 3-1 7-2 11-2s8 1 12 2c2 1 4 3 6 4 1 1 3 1 4 3l251 242c13 12 13 32 1 45-12 12-32 12-44 0l-198-191v672c0 17-14 31-32 31z" horiz-adv-x="1000" />

<glyph glyph-name="drop" unicode="&#xe894;" d="M503-150c207 0 375 162 375 361 0 66-19 131-55 188l-294 437c-6 9-16 14-26 14-11 0-20-5-26-14l-295-438c-35-56-54-121-54-187 0-199 168-361 375-361z m-269 514l269 399 268-398c29-46 45-99 45-154 0-164-141-299-313-299-172 0-313 135-313 299 0 55 16 108 44 153z" horiz-adv-x="1000" />

<glyph glyph-name="empty-blank" unicode="&#xe895;" d="M849-149c17 0 31 14 31 31v768c0 1 0 2 0 2-1 3-1 6-2 8 0 1-1 2-1 3-2 3-3 6-6 9 0 0 0 0 0 0 0 0 0 0 0 1l-172 168c-3 3-6 4-9 6-1 0-2 1-3 1-3 1-5 1-8 2-1 0-1 0-2 0h-515c-17 0-31-14-31-31v-937c0-17 14-31 31-31h687z m-141 893l64-63h-64v63z m-515 44h453v-138c0-17 14-31 31-31h140v-706h-624v875z" horiz-adv-x="1000" />

<glyph glyph-name="flag" unicode="&#xe896;" d="M810-150c3 0 6 0 9 1 13 4 22 16 22 30v934c0 17-14 31-31 31h-623c-17 0-31-14-31-31v-934c0-14 9-26 22-30 13-4 27 1 35 12l285 429 286-429c6-8 15-13 26-13z m-31 134l-255 381c-5 9-15 14-26 14-10 0-20-5-25-14l-255-381v800h561v-800z" horiz-adv-x="1000" />

<glyph glyph-name="forward-2" unicode="&#xe897;" d="M110-138c5-3 10-4 15-4 6 0 12 1 17 5l701 440v-421c0-18 14-32 32-32s31 14 31 32v937c0 17-14 31-31 31s-32-14-32-31v-421l-701 440c-10 6-22 6-32 1-10-6-16-16-16-28v-922c0-11 6-22 16-27z m46 893l645-405-645-404v809z" horiz-adv-x="1000" />

<glyph glyph-name="forward" unicode="&#xe898;" d="M16 42c5-2 10-4 15-4 6 0 11 2 16 5l427 254v-236c0-12 6-22 15-28 5-2 11-4 16-4 5 0 11 2 16 5l464 277c10 5 15 15 15 26 0 11-5 22-15 27l-464 277c-10 6-22 6-32 1-9-6-15-16-15-28v-218l-427 254c-9 6-21 6-31 0-10-5-16-16-16-27v-554c0-11 6-21 16-27z m520 517l372-222-372-221v443z m-473 9l372-222-372-222v444z" horiz-adv-x="1000" />

<glyph glyph-name="gift" unicode="&#xe899;" d="M968 571h-268c33 35 53 78 53 118 0 29-10 53-29 71-18 18-43 28-72 28-42 0-89-21-125-57-11-10-20-21-28-32-7 11-16 22-27 32-36 36-83 57-125 57-29 0-54-10-72-27-19-19-29-43-29-72 0-40 20-83 53-118h-268c-17 0-31-14-31-31v-218c0-17 14-31 31-31h50v-346c0-17 14-31 31-31h775c17 0 31 14 31 31v346h50c17 0 31 14 31 31v218c0 17-14 31-31 31z m-599-217v155h261v-155h-261z m261-63v-315h-261v315h261z m22 435c9 0 21-2 29-10 6-6 9-15 9-27 0-25-15-55-39-79-25-24-56-39-82-39-9 0-21 2-29 10-6 6-9 15-9 27 0 25 15 55 39 79 25 24 56 39 82 39z m-334-10c8 8 20 10 29 10 26 0 57-15 82-39 24-24 39-54 39-79 0-12-3-21-9-27-9-8-21-10-29-10-26 0-58 15-82 39-24 24-40 54-40 79 0 12 4 21 10 27z m-256-207h244v-155h-194-50v155z m81-218h163v-315h-163v315z m712-315h-163v315h163v-315z m81 378h-49-195v155h244v-155h0z" horiz-adv-x="1000" />

<glyph glyph-name="graphic" unicode="&#xe89a;" d="M921 605c-44 0-80-36-80-80 0-11 2-21 6-30l-238-222c-12 9-28 14-44 14-8 0-17-1-24-4l-76 96c5 11 9 23 9 36 0 44-36 80-81 80-44 0-80-36-80-80 0-4 1-8 2-12l-192-150c-13 8-27 12-43 12-44 0-80-36-80-80 0-44 36-80 80-80 44 0 80 36 80 80 0 8-1 16-4 23l186 146c0-1 1-1 1-2 14-11 32-17 51-17 10 0 20 2 30 6l73-92c-8-13-12-27-12-42 0-45 36-81 80-81 44 0 80 36 80 81 0 7-1 14-3 21l243 226c11-6 23-9 36-9 45 0 81 36 81 80 0 44-36 80-81 80z m-841-445c-14 0-25 12-25 25 0 14 11 25 25 25 14 0 25-11 25-25 0-13-11-25-25-25z m298 236c-6 5-9 12-9 19 0 14 11 25 24 25 14 0 25-11 25-25 0-7-2-13-7-17 0 0 0 0 0 0s0 0 0 0c-10-10-27-7-33-2z m187-214c-14 0-25 11-25 25 0 7 4 14 10 19 0 0 0 0 0 0l0 0c3 3 8 5 15 5 13 0 25-11 25-24 0-14-12-25-25-25z m356 318c-13 0-24 11-24 25s11 25 24 25c14 0 25-11 25-25s-11-25-25-25z" horiz-adv-x="1000" />

<glyph glyph-name="grid" unicode="&#xe89b;" d="M33 385h403c17 0 31 14 31 31v403c0 17-14 31-31 31h-403c-18 0-32-14-32-31v-403c0-17 14-31 32-31z m31 403h340v-341h-340v341z m502-403h403c17 0 31 14 31 31v403c0 17-14 31-31 31h-403c-17 0-31-14-31-31v-403c0-17 14-31 31-31z m31 403h341v-341h-341v341z m-564-937h403c17 0 31 14 31 31v404c0 17-14 31-31 31h-403c-18 0-32-14-32-31v-403c0-18 14-32 32-32z m31 403h340v-340h-340v340z m471-372c0-17 14-31 31-31h403c17 0 31 14 31 31v404c0 17-14 31-31 31h-403c-17 0-31-14-31-31v-404z m62 372h341v-340h-341v340z" horiz-adv-x="1000" />

<glyph glyph-name="hamburger-menu" unicode="&#xe89c;" d="M31 660h937c18 0 32 14 32 31 0 18-14 32-32 32h-937c-17 0-31-14-31-32 0-17 14-31 31-31z m0-687h937c18 0 32 14 32 31 0 18-14 31-32 31h-937c-17 0-31-13-31-31 0-17 14-31 31-31z m0 344h937c18 0 32 14 32 31 0 17-14 31-32 31h-937c-17 0-31-14-31-31 0-17 14-31 31-31z" horiz-adv-x="1000" />

<glyph glyph-name="minus" unicode="&#xe89d;" d="M969 386h-937c-17 0-31-14-31-31 0-18 14-32 31-32h937c17 0 31 14 31 32 0 17-14 31-31 31z" horiz-adv-x="1000" />

<glyph glyph-name="headphones" unicode="&#xe89e;" d="M887 389h-54c-21 178-163 317-333 317-170 0-313-139-334-317h-53c-63 0-114-53-114-120v-131c0-66 51-120 114-120h81c9 0 17 3 23 9 5 6 9 14 9 22l0 89v54c0 0 0 0 0 0 0 2 0 153 0 157 2 162 125 294 274 294 149 0 272-132 274-295 0-3 0-75 0-120 0-21 0-36 0-36v-143c0-17 14-31 31-31h82c62 0 113 54 113 120v131c0 67-51 120-113 120z m-774-308c-28 0-51 25-51 57v131c0 32 23 58 51 58h50l0-58 0-188h-50z m825 57c0-32-23-57-51-57h-51v111c0 0 0 16 0 36v99h51c28 0 51-26 51-58v-131h0z" horiz-adv-x="1000" />

<glyph glyph-name="heart" unicode="&#xe89f;" d="M479-108c6-6 14-10 23-10h0c9 0 17 4 23 10l411 461c42 50 64 114 64 179 0 157-130 285-291 285-79 0-153-30-207-85-55 55-128 85-208 85-160 0-291-128-291-285 0-65 23-129 65-181 4-4 316-352 411-459z m-185 863c73 0 139-33 183-89 12-15 38-15 49 0 44 56 111 89 183 89 126 0 229-100 229-223 0-52-17-100-49-139l-387-433c-142 159-379 424-386 432-33 40-51 88-51 140 0 123 103 223 229 223z" horiz-adv-x="1000" />

<glyph glyph-name="home" unicode="&#xe8a0;" d="M987 409l-467 339c-11 8-26 8-37 0l-467-339c-14-11-17-30-7-44 10-14 30-17 44-7l61 45v-428c0-17 14-31 31-31h252c17 0 31 14 31 31v293h147v-293c0-17 14-31 31-31h252c17 0 31 14 31 31v428l62-45c5-4 12-6 18-6 9 0 19 5 25 13 10 14 7 33-7 44z m-160-402h-190v292c0 17-13 31-31 31h-209c-17 0-31-14-31-31v-292h-190v441l326 237 325-237v-441h0z" horiz-adv-x="1000" />

<glyph glyph-name="hyperlink" unicode="&#xe8a1;" d="M436 404c-71 25-151 7-206-46-4-5-24-25-39-40 0 0 0 0 0 0-132-131-133-133-133-133-76-77-75-201 1-278 39-38 89-57 140-57 50 0 101 19 140 57 103 103 125 126 130 131l42 41c53 55 70 133 45 205-6 16-24 25-40 19-16-6-25-24-19-40 17-49 6-103-30-140l-59-58c0 0 0 0 0 0-33-34-105-105-114-114-53-52-138-52-190 1-52 52-53 137-1 190 3 3 132 132 132 132 0 0 0 0 0 0 15 15 35 35 40 40 37 37 91 48 140 31 16-6 34 3 40 19 6 16-3 34-19 40z m197-120c52 0 102 20 140 57l40 40 18 18 115 115c75 77 74 202-2 278-76 77-201 77-277 2-1-1-1-1-134-133 0 0 0 0 0 0l-40-41c-54-54-71-133-45-204 4-13 16-21 29-21 4 0 7 0 11 2 16 5 24 23 19 40-18 49-6 102 30 139l58 58c36 36 112 112 115 115 52 52 138 51 190-1 52-52 52-137 1-190l-115-115-17-17-40-40c-37-36-92-49-140-32-17 6-35-2-40-19-6-16 2-34 19-39 21-8 43-12 65-12z m-315-118c6-6 14-9 22-9 8 0 16 3 22 9l324 323c12 13 12 32 0 45-13 12-32 12-45 0l-323-324c-12-12-12-32 0-44z" horiz-adv-x="1000" />

<glyph glyph-name="justify-all" unicode="&#xe8a2;" d="M31-59l0 0h621 316c17 0 31 14 31 32s-14 31-31 31h-316-621l0 0c-17 0-31-14-31-31s14-32 31-32z m0 249h932c17 0 31 14 31 31s-14 31-31 31h-932c-17 0-31-14-31-31s14-31 31-31z m932 560h-932c-17 0-31-14-31-31s14-31 31-31h932c17 0 31 13 31 31s-14 31-31 31z m5-249h-316-621l0 0c-17 0-31-14-31-31 0-17 14-31 31-31l0 0h621 316c17 0 31 14 31 31 0 17-14 31-31 31z" horiz-adv-x="1000" />

<glyph glyph-name="key" unicode="&#xe8a3;" d="M168 183c82 0 150 61 165 142h453v-85c0-17 14-31 31-31s31 14 31 31v85h90v-135c0-17 14-31 31-31s31 14 31 31v166c0 18-14 32-31 32h-635c-14 83-83 146-166 146-92 0-168-79-168-175 0-97 76-176 168-176z m0 289c58 0 106-51 106-113 0-63-48-113-106-113-58 0-105 50-105 113 0 62 47 113 105 113z" horiz-adv-x="1000" />

<glyph glyph-name="label" unicode="&#xe8a4;" d="M460 841c-6 6-14 9-22 9l-405 0c-17 0-31-14-31-31l-2-406c0-9 3-17 9-23l531-531c6-6 14-9 22-9s17 3 23 9l406 407c12 12 12 32 0 44l-531 531z m102-915l-499 499 1 363 361 0 500-500-363-362z" horiz-adv-x="1000" />

<glyph glyph-name="launch" unicode="&#xe8a5;" d="M490 61c-10 13-30 16-44 6-24-18-38-44-38-73 0-17 6-34 17-50l60-82c6-8 15-12 25-12l0 0c10 0 19 4 25 12l61 83c10 15 15 32 15 49 0 30-14 57-39 74-15 10-34 7-44-7-10-14-7-34 8-44 8-6 12-14 12-23 0-5-1-9-3-13l-35-47-34 46c-3 5-5 9-5 14 0 9 5 17 12 23 14 10 17 30 7 44z m218-4c6-5 13-8 21-8 4 0 9 1 13 3 11 5 18 16 18 29v200c0 9-4 17-11 23l-112 100v288c0 7-2 13-6 19l-96 127c-12 16-38 16-50 0l-96-127c-4-6-7-12-7-19v-288l-112-100c-7-6-11-14-11-23v-200c0-13 8-24 19-29 4-2 8-3 13-3 7 0 15 3 20 8l84 74c5-5 11-8 19-8h192c7 0 14 3 19 8l83-74z m-11 93l-60 53v117l60-53v-117z m-187 617l64-86v-264h-129v264l65 86z m-188-500l60 53v-117l-60-53v117z m123-81v169h130v-169h-130z" horiz-adv-x="1000" />

<glyph glyph-name="lock-closed" unicode="&#xe8a6;" d="M161-150h687c18 0 32 14 32 31v535c0 17-14 31-32 31h-14c0 32 0 78 0 79-2 178-150 324-329 324-180 0-328-146-329-326v-77h-15c-18 0-32-14-32-31v-535c0-17 14-31 32-31z m656 62h-625v473h625v-473z m-579 612c1 145 121 264 267 264 145 0 264-118 266-263 0-2 0-46 0-78h-533l0 77z m198-507c0-17 14-31 32-31h73c18 0 32 14 32 31v101c25 21 40 51 40 84 0 60-48 109-108 109-61 0-109-49-109-109 0-33 15-63 40-84v-101z m69 231c25 0 46-20 46-46 0-16-9-32-24-40-11-5-17-16-17-27v-87h-11v87c0 11-6 22-16 27-15 8-25 24-25 40 0 26 21 46 47 46z" horiz-adv-x="1000" />

<glyph glyph-name="lock-open" unicode="&#xe8a7;" d="M435 17c0-17 14-31 32-31h73c17 0 31 14 31 31v101c26 20 41 51 41 84 0 60-49 108-109 108s-108-48-108-108c0-33 15-64 40-84v-101z m68 231c26 0 47-21 47-46 0-17-10-32-25-40-10-6-16-16-16-28v-86h-11v86c0 12-6 22-17 28-14 8-24 23-24 40 0 25 21 46 46 46z m-343-398h687c17 0 31 14 31 31v529c0 17-14 31-31 31h-622c-31 94-8 198 64 268 103 102 270 102 374 2 2-2 77-76 77-76l44 44c0 0-77 76-77 77-128 124-335 123-462-2-84-83-115-202-85-313-17 0-31-14-31-31v-529c0-17 14-31 31-31z m655 63h-624v466h624v-466z" horiz-adv-x="1000" />

<glyph glyph-name="magnet" unicode="&#xe8a8;" d="M990 300c13 12 13 32 0 44l-146 146c-6 6-14 9-22 9-8 0-16-3-22-9l-311-311c-25-25-57-38-90-38-29 0-56 11-76 31-43 43-40 117 7 166 2 2 106 106 194 193l0 0 0 0c59 60 111 111 117 118 12 12 12 32 0 44l-146 146c-6 6-14 9-22 9 0 0 0 0 0 0-8 0-16-3-22-9-2-1-55-54-118-118l0 0 0 0c-1-1-2-2-3-3-93-93-205-205-206-206-156-160-164-409-17-556 68-69 161-106 261-106 109 0 213 43 294 121 2 2 325 325 328 329z m-517 473l102-102c-27-27-51-51-73-74l-103 102c30 30 57 57 74 74z m146-757c-69-67-158-104-251-104-83 0-160 31-217 88-123 123-115 333 18 469 2 2 99 99 186 186l102-102c-170-171-171-172-171-172-71-72-75-186-7-254 31-31 74-48 120-48 49 0 97 19 134 55l171 172 102-102c-87-88-184-185-187-188z m232 232l-103 102 74 74 102-102c-17-18-44-44-73-74z" horiz-adv-x="1000" />

<glyph glyph-name="magnifying-glass-2" unicode="&#xe8a9;" d="M365 123c86 0 168 30 233 84l33-33-11-11c-6-6-9-14-9-23 0-8 3-16 9-22l258-257c6-6 14-9 22-9 8 0 16 3 22 9l69 69c6 5 9 13 9 22 0 8-3 16-9 22l-258 257c-12 13-32 13-44 0l-14-13-33 33c56 66 87 148 87 235 0 98-38 189-107 258-69 68-160 106-257 106-97 0-188-38-257-106-69-69-106-160-106-258 0-97 37-188 106-257 69-68 160-106 257-106z m560-171l-25-25-214 213 25 25 214-213z m-773 747c57 57 133 89 213 89 80 0 156-32 213-89 57-56 88-132 88-213 0-80-31-156-88-212-57-57-133-89-213-89-80 0-156 32-213 89-57 56-88 132-88 212 0 81 31 157 88 213z" horiz-adv-x="1000" />

<glyph glyph-name="magnifying-glass-minus" unicode="&#xe8aa;" d="M374 99c90 0 175 32 243 90l329-330c6-6 14-9 22-9 8 0 16 3 22 9 12 12 12 32 0 44l-329 330c123 148 116 368-22 506-71 71-165 110-265 110-100 0-194-39-265-110-146-146-146-384 0-530 71-71 165-110 265-110z m-220 596c59 59 137 92 220 92s162-33 221-92c121-122 121-320 0-442-59-59-137-92-221-92s-161 33-220 92c-122 122-122 320 0 442z m73-253h305c18 0 32 14 32 32 0 17-14 31-32 31h-305c-17 0-31-14-31-31 0-18 14-32 31-32z" horiz-adv-x="1000" />

<glyph glyph-name="magnifying-glass-plus" unicode="&#xe8ab;" d="M375 100c90 0 175 32 243 90l329-330c6-6 14-9 22-9 8 0 16 3 22 9 12 12 12 32 0 44l-329 330c123 147 116 368-22 506-71 71-165 110-265 110-100 0-194-39-264-110-146-146-146-384 0-530 70-71 164-110 264-110z m-220 596c59 59 137 92 220 92 83 0 162-33 221-92 121-122 121-320 0-442-59-59-138-92-221-92-83 0-161 33-220 92-122 122-122 320 0 442z m80-252h118v-117c0-17 13-31 31-31 17 0 31 14 31 31v117h117c17 0 31 14 31 32 0 17-14 31-31 31h-117v117c0 17-14 31-31 31-18 0-31-14-31-31v-117h-118c-17 0-31-14-31-31 0-18 14-32 31-32z" horiz-adv-x="1000" />

<glyph glyph-name="magnifying-glass" unicode="&#xe8ac;" d="M374 100c90 0 175 32 243 90l328-330c6-6 14-9 22-9 8 0 16 3 22 9 13 13 13 32 1 44l-330 330c124 148 116 368-22 506-70 71-164 110-264 110s-194-39-265-110c-145-146-145-384 0-530 71-71 165-110 265-110z m-220 596c58 59 137 92 220 92s161-33 220-92c122-122 122-320 0-442-59-59-137-91-220-91s-162 32-220 91c-122 122-122 320 0 442z" horiz-adv-x="1000" />

<glyph glyph-name="mail" unicode="&#xe8ad;" d="M999 63v561c0 16-12 28-28 30 0 0 0 0 0 0-1 0-2 1-3 1h-935c-1 0-2-1-3-1-2 0-4 0-6-1-2-1-4-1-6-2-1-1-3-2-4-3-2-2-3-3-5-5 0-1-1-1-2-2 0-1-1-2-1-2-1-2-2-4-2-6-1-2-2-4-2-6 0-1 0-2 0-3v-561c0-18 14-32 31-32h935c17 0 31 14 31 32z m-134 529l-366-252-366 252h732z m-801-498v470l417-287c6-4 12-6 18-6 6 0 12 2 18 6l420 289v-472h-873z" horiz-adv-x="1000" />

<glyph glyph-name="map-pin" unicode="&#xe8ae;" d="M475-136c6-8 15-14 26-14l0 0c10 0 20 6 25 14l294 437c35 56 54 120 54 186 0 199-168 360-374 360-206 0-373-161-373-360 0-66 18-130 54-187l294-436z m25 921c172 0 312-134 312-298 0-54-16-107-44-152l-267-398-268 397c-29 46-44 99-44 153 0 164 140 298 311 298z m0-468c98 0 177 77 177 171s-79 172-177 172c-97 0-177-77-177-172s80-171 177-171z m0 280c64 0 115-49 115-109 0-60-51-109-115-109-63 0-114 49-114 109 0 60 51 109 114 109z" horiz-adv-x="1000" />

<glyph glyph-name="map" unicode="&#xe8af;" d="M33-86c2 0 5 0 7 1l305 74 305-74c2-1 5-1 7-1s5 0 8 1l312 76c14 3 24 16 24 30v736c0 10-5 19-12 25-8 6-17 8-27 6l-305-75-305 75c0 0 0 0 0 0-2 0-5 0-7 0-2 0-5 0-7 0 0 0 0 0 0 0l-313-77c-14-3-23-16-23-30v-736c0-9 4-18 11-24 6-5 13-7 20-7z m905 132l-249-61v672l249 60v-671z m-312-61l-250 61v671l250-60v-672z m-562 672l250 60v-671l-250-61v672z" horiz-adv-x="1000" />

<glyph glyph-name="maximize" unicode="&#xe8b0;" d="M982 845c-3 2-8 3-12 3h-348c-17 0-31-14-31-32 0-17 14-31 31-31h273l-472-472c-13-12-13-32 0-44 6-6 14-10 22-10s16 4 22 10l472 472v-273c0-17 14-31 31-31s32 14 32 31v348c0 5-1 9-3 12-3 8-9 14-17 17z m-12-570c-17 0-31-13-31-31v-332h-873v873h333c17 0 31 14 31 31 0 18-14 32-31 32h-365c-17 0-31-14-31-32v-936c0-17 14-31 31-31h936c18 0 32 14 32 31v364c0 17-14 31-32 31z" horiz-adv-x="1000" />

<glyph glyph-name="microphone" unicode="&#xe8b1;" d="M157 556c-17 0-31-14-31-32 0-1 0-159 0-160 2-192 154-349 343-365 0 0 0-1 0-1v-84h-142c-17 0-31-14-31-32 0-17 14-31 31-31h346c17 0 31 14 31 31 0 18-14 32-31 32h-142v84c0 0 0 1 0 1 189 16 340 173 343 363 0 2 0 161 0 162 0 18-14 32-31 32s-31-14-31-32c0-1 0-157 0-161-3-167-143-303-312-303-170 0-310 137-312 304 0 5 0 159 0 160 0 18-14 32-31 32z m558-190v270c0 117-96 213-215 213-119 0-215-96-215-213v-270c0-117 96-213 215-213 119 0 215 96 215 213z m-368 0v270c0 83 69 150 153 150 84 0 153-67 153-150v-270c0-83-69-151-153-151-84 0-153 68-153 151z" horiz-adv-x="1000" />

<glyph glyph-name="minimize" unicode="&#xe8b2;" d="M150 534c17 0 31 14 31 31 0 17-14 31-31 31h-117c-18 0-31-14-31-31v-685c0-17 13-31 31-31h684c17 0 31 14 31 31v118c0 17-14 31-31 31s-31-14-31-31v-86h-622v622h86z m818 313h-684c-18 0-32-14-32-31v-685c0-17 14-31 32-31h684c17 0 31 14 31 31v685c0 17-14 31-31 31z m-31-684h-622v621h622v-621h0z" horiz-adv-x="1000" />

<glyph glyph-name="mouse" unicode="&#xe8b3;" d="M814 163v374c0 172-140 312-312 312-171 0-311-140-311-312v-374c0-173 140-312 311-312 172 0 312 139 312 312z m-561 0v374c0 137 112 249 249 249 138 0 250-112 250-249v-374c0-138-112-250-250-250-137 0-249 112-249 250z m331 337v93c0 43-35 78-78 78-43 0-78-35-78-78v-93c0-43 35-78 78-78 43 0 78 35 78 78z m-93 0v93c0 9 7 16 15 16 9 0 16-7 16-16v-93c0-9-7-16-16-16-8 0-15 7-15 16z" horiz-adv-x="1000" />

<glyph glyph-name="music" unicode="&#xe8b4;" d="M790 298c-79 0-144-66-144-146s65-146 144-146c70 0 128 51 141 117 2 4 3 8 3 13v679c0 9-4 18-11 24-7 6-17 8-26 6l-583-124c-14-3-24-16-24-31v-574c-24 16-52 26-82 26-80 0-145-65-145-146 0-80 65-146 145-146 79 0 144 66 144 146 0 4-1 7-1 10 0 2 1 4 1 6v467l520 111v-318c-23 16-51 26-82 26z m0-230c-45 0-82 38-82 84s37 84 82 84c45 0 82-38 82-84s-37-84-82-84z m-583-155c-45 0-81 37-81 83 0 47 36 84 81 84 46 0 82-37 82-84 0-46-36-83-82-83z m145 629v123l520 111v-123l-520-111z" horiz-adv-x="1000" />

<glyph glyph-name="navigation" unicode="&#xe8b5;" d="M464 308l60-431c2-14 13-25 27-27 1 0 3 0 4 0 12 0 23 7 28 18l414 933c6 12 3 25-6 34-9 10-23 12-35 7l-932-414c-13-6-20-19-18-33 2-14 13-24 26-26l432-61z m444 444l-337-759-49 347c-2 14-13 25-27 26l-346 49 759 337z" horiz-adv-x="1000" />

<glyph glyph-name="notifications" unicode="&#xe8b6;" d="M684 849c-62 0-123-13-182-25-59-12-114-23-170-23-43 0-81 7-117 22-4 1-7 1-10 2-1 0-1 0-2 0 0 0 0 0-1 0-3 0-7-1-10-2-1-1-1-1-2-1-1-1-2-1-4-2-1-1-2-2-3-3-1-1-1-1-2-2-2-2-4-5-5-8-1-1-1-1-1-2-1-3-2-7-2-11v-413-501c0-16 14-30 30-30s31 14 31 30v460c31-9 63-13 98-13 62 0 123 12 182 25 59 11 114 23 170 23 43 0 81-7 117-22 9-4 20-3 29 3 8 6 13 15 13 25v413c0 13-7 24-19 29-43 17-89 26-140 26z m98-425c-31 8-63 12-98 12-62 0-123-13-182-25-59-12-114-23-170-23-36 0-68 5-98 15v349c31-8 63-12 98-12 62 0 123 13 182 25 59 12 114 23 170 23 35 0 68-5 98-15v-349h0z" horiz-adv-x="1000" />

<glyph glyph-name="pause" unicode="&#xe8b7;" d="M432 818c0 17-14 31-31 31h-235c-18 0-32-14-32-31v-936c0-18 14-32 32-32h235c17 0 31 14 31 32v936l0 0z m-63-905h-172v874h172v-874l0 0z m483 936h-235c-17 0-31-14-31-31v-936c0-18 14-32 31-32h235c18 0 32 14 32 32v936c0 17-14 31-32 31z m-31-936h-172v874h172v-874z" horiz-adv-x="1000" />

<glyph glyph-name="pencil" unicode="&#xe8b8;" d="M668 593c-1 2-1 3-2 4l-125 236c-10 21-44 21-55 0l-125-236c0-1-1-2-1-4 0 0-1-1-1-1 0 0 0 0 0-1-1-2-1-5-1-8v-701c0-17 14-31 31-31h250c17 0 31 14 31 31v701c0 3-1 6-1 8-1 1 0 1-1 1 0 0 0 1 0 1z m-248-53l85-26c3-1 6-1 9-1 3 0 6 0 9 1l84 26v-486h-187v486z m94 212l80-151-80-24-80 24 80 151z m-94-839v78h187v-78h-187v0z" horiz-adv-x="1000" />

<glyph glyph-name="play" unicode="&#xe8b9;" d="M123-149c6 0 11 1 16 4l750 469c9 6 15 16 15 26 0 11-6 21-15 27l-750 468c-9 6-21 7-31 1-10-5-16-16-16-27v-937c0-11 6-22 16-27 5-3 10-4 15-4z m31 911l659-412-659-412v824z" horiz-adv-x="1000" />

<glyph glyph-name="plus" unicode="&#xe8ba;" d="M31 318h438v-438c0-17 14-31 31-31 18 0 32 14 32 31v438h438c17 0 31 14 31 32 0 17-14 31-31 31h-438v438c0 17-14 31-32 31-17 0-31-14-31-31v-438h-438c-17 0-31-14-31-31 0-18 14-32 31-32z" horiz-adv-x="1000" />

<glyph glyph-name="power" unicode="&#xe8bb;" d="M409 615c17 4 26 21 22 38-5 17-22 26-39 22-176-50-299-216-299-406 0-231 182-420 405-420s406 189 406 420c0 190-123 356-300 406-16 4-34-5-38-22-5-17 5-34 21-38 150-42 255-184 255-346 0-197-154-357-344-357s-343 160-343 357c0 162 104 304 254 346z m121-251v453c0 17-14 31-32 31-17 0-31-14-31-31v-453c0-17 14-31 31-31 18 0 32 14 32 31z" horiz-adv-x="1000" />

<glyph glyph-name="print" unicode="&#xe8bc;" d="M971 478h-223v322c0 17-14 31-31 31h-433c-17 0-31-14-31-31v-322h-222c-18 0-32-14-32-31v-407c0-17 14-31 32-31h216v-112c0-17 14-31 31-31h433c17 0 31 14 31 31v112h229c17 0 31 14 31 31v407c0 17-14 31-31 31z m-655 291h370v-291h-370v291z m363-841h-370v199h370v-199z m260 143h-197v87c0 17-14 31-31 31h-433c-17 0-31-14-31-31v-87h-185v344h216c2 0 4-1 6-1h433c2 0 4 1 6 1h216v-344h0z" horiz-adv-x="1000" />

<glyph glyph-name="repeat" unicode="&#xe8bd;" d="M905 271c0 0-1 1-1 1-1 1-2 3-3 4-1 2-3 3-4 5-2 1-3 1-4 2-2 1-5 3-7 3 0 0-1 1-1 1-2 0-3 0-4 0-2 0-4 1-6 0-2 0-4 0-6-1-1 0-2 0-3 0l-176-66c-16-6-24-24-18-40 6-16 24-24 40-18l115 43c-58-134-188-224-335-224-166 0-312 115-354 280-4 17-21 27-38 22-16-4-26-21-22-37 49-193 219-327 414-327 172 0 323 103 391 258l56-108c5-11 16-17 28-17 4 0 9 1 14 3 15 8 21 27 13 42l-89 174z m-413 459c161 0 301-106 349-263 5-16 23-26 39-21 17 5 26 23 21 39-56 184-220 307-409 307-164 0-310-93-382-239l-51 108c-7 15-26 22-41 14-16-7-22-26-15-41l82-172c0 0 0 0 0 0 1-1 1-2 2-3 1-2 3-4 5-6 1-1 2-1 2-2 3-2 6-4 9-5 0 0 1 0 1 0 0 0 0 0 0 0 3-1 6-2 9-2l0 0 0 0c0 0 0 0 0 0 3 0 6 1 8 2l178 49c17 4 26 21 22 38-5 16-22 26-39 22l-118-33c61 126 187 208 328 208z" horiz-adv-x="1000" />

<glyph glyph-name="rule" unicode="&#xe8be;" d="M638-149c18 0 32 14 32 32v934c0 18-14 33-32 33h-290c-18 0-32-15-32-33v-934c0-18 14-32 32-32h290z m-33 934v-869h-224v64h54c18 0 33 14 33 32s-15 33-33 33h-54v65h54c18 0 33 15 33 33 0 18-15 33-33 33h-54v65h54c18 0 33 15 33 33 0 18-15 33-33 33h-54v65h54c18 0 33 15 33 33 0 18-15 32-33 32h-54v66h54c18 0 33 14 33 32 0 18-15 33-33 33h-54v65h54c18 0 33 15 33 33s-15 33-33 33h-54v86h224z" horiz-adv-x="1000" />

<glyph glyph-name="selection" unicode="&#xe8bf;" d="M968 850h-165c-17 0-31-14-31-31v-51h-544v51c0 17-14 31-32 31h-165c-17 0-31-14-31-31v-165c0-17 14-31 31-31h52v-545h-52c-17 0-31-14-31-31v-165c0-17 14-31 31-31h165c18 0 32 14 32 31v51h544v-51c0-17 14-31 31-31h165c17 0 31 14 31 31v165c0 17-14 31-31 31h-51v545h51c17 0 31 14 31 31v165c0 17-14 31-31 31z m-905-62h102v-52c0 0 0 0 0 0v0-51h-102v103z m0-875v103h102v-52c0 0 0 0 0 0v0-51h-102v0z m874 0h-103v103h103v-103z m-83 165h-51c-17 0-31-14-31-31v-51h-544v51c0 17-14 31-32 31h-51v545h51c18 0 32 14 32 31v51h544v-51c0-17 14-31 31-31h51v-545h0z m83 607h-103v103h103v-103z" horiz-adv-x="1000" />

<glyph glyph-name="settings" unicode="&#xe8c0;" d="M28 260l75-8c10-41 26-79 48-115l-46-57c-10-12-9-30 3-41l82-83c12-11 29-12 42-2l57 46c35-22 73-37 112-47l8-76c2-15 16-27 32-27h116c16 0 30 12 31 27l8 74c42 10 81 26 117 47l57-46c13-9 31-8 42 3l83 82c11 11 12 29 2 42l-45 56c22 37 39 76 49 117l71 8c16 2 28 15 28 31v117c0 15-12 29-28 31l-71 7c-10 42-27 81-49 118l45 56c10 12 9 30-2 42l-83 82c-11 11-29 12-42 2l-56-45c-37 22-76 37-118 47l-8 73c-2 16-15 28-31 28h-116c-16 0-30-12-32-28l-8-74c-39-10-77-26-112-47l-57 46c-13 10-31 9-42-2l-83-82c-11-12-12-30-2-42l46-57c-22-36-38-75-48-116l-75-8c-15-2-27-16-27-31v-117c0-16 12-29 27-31z m35 120l69 7c14 2 25 12 28 26 9 48 27 93 55 134 8 11 8 26-1 37l-43 53 43 43 54-43c11-8 26-9 37-1 40 27 84 45 131 54 13 3 23 14 25 28l7 69h61l8-68c1-14 12-25 25-28 49-8 95-27 136-55 11-7 26-7 37 2l53 42 43-43-42-52c-9-10-9-26-1-37 28-41 47-87 56-136 3-13 14-24 28-25l66-7v-61l-66-7c-14-2-25-12-28-25-9-49-28-95-57-136-8-11-7-27 2-37l42-52-43-43-53 42c-11 9-26 9-38 2-40-28-86-46-134-55-14-2-25-13-26-27l-8-69h-60l-8 70c-2 13-12 25-25 27-48 9-92 28-131 55-12 8-27 7-37-1l-53-43-43 43 42 53c9 10 9 26 1 37-28 40-46 85-55 133-3 14-14 24-27 26l-70 7v61h0z m437-155c69 0 125 56 125 124 0 69-56 125-125 125-69 0-125-56-125-125 0-68 56-124 125-124z m0 187c35 0 63-28 63-63 0-34-28-62-63-62-34 0-62 28-62 62 0 35 28 63 62 63z" horiz-adv-x="1000" />

<glyph glyph-name="share" unicode="&#xe8c1;" d="M782 541c85 0 154 69 154 154 0 85-69 154-154 154-85 0-154-69-154-154 0-20 4-39 11-57l-306-177c-28 28-66 45-109 45-85 0-154-69-154-154 0-85 69-154 154-154 43 0 82 19 110 47l304-191c-6-16-10-33-10-52 0-85 69-154 154-154 85 0 154 69 154 154 0 85-69 154-154 154-44 0-84-19-112-48l-302 190c6 17 10 35 10 54 0 20-4 39-11 56l306 178c28-28 67-45 109-45z m0-447c51 0 92-41 92-92 0-50-41-91-92-91-50 0-91 41-91 91 0 17 5 33 12 46 1 1 1 1 1 1 1 1 1 1 1 2 16 26 45 43 77 43z m-558 167c-50 0-91 41-91 91 0 51 41 92 91 92 30 0 56-15 73-37 0-1 0-2 1-3 1-2 3-5 5-7 8-13 13-28 13-45 0-18-6-34-15-48 0 0 0 0 0-1 0 0 0 0 0 0-17-25-45-42-77-42z m558 525c51 0 92-41 92-91 0-51-41-92-92-92-50 0-91 41-91 92 0 50 41 91 91 91z" horiz-adv-x="1000" />

<glyph glyph-name="shopping-bag" unicode="&#xe8c2;" d="M900-14l-57 644c-1 15-14 26-28 26h-117c-2 107-90 194-198 194s-196-87-197-194h-118c-15 0-26-11-28-26l-57-644c0-1 0-2 0-3 0-73 67-133 150-133h500c83 0 150 60 150 133 0 1 0 2 0 3z m-400 809c78 0 141-62 142-139h-284c1 77 65 139 142 139z m250-890h-500c-52 0-94 35-95 77l55 618h92v-84c0-15 13-27 28-27s28 12 28 27v84h284v-84c0-15 13-27 28-27s28 12 28 27v84h92l55-618c-1-42-43-77-95-77z" horiz-adv-x="1000" />

<glyph glyph-name="shuffle" unicode="&#xe8c3;" d="M868 74c6-6 14-9 22-9 8 0 16 3 22 9l79 79c6 6 9 14 9 22 0 8-3 16-9 22l-79 79c-12 12-32 12-44 0-12-12-12-32 0-44l26-26h-216l-59 59c-12 12-32 12-44 0-12-13-12-32 0-45l68-67c6-6 14-9 22-9h229l-26-26c-12-12-12-32 0-44z m-837 412h278l60-60c6-6 14-9 22-9 8 0 16 3 22 9 13 13 13 32 0 45l-69 68c-6 6-14 10-22 10h-291c-17 0-31-14-31-32 0-17 14-31 31-31z m0-342h294c9 0 17 3 22 9l334 333h213l-26-25c-12-13-12-32 0-45 6-6 14-9 22-9 8 0 16 3 22 9l79 79c6 6 9 14 9 22 0 9-3 17-9 22l-79 79c-12 13-32 13-44 0-12-12-12-32 0-44l26-25h-226c-8 0-16-4-22-10l-334-333h-281c-17 0-31-14-31-31s14-31 31-31z" horiz-adv-x="1000" />

<glyph glyph-name="sound-minus" unicode="&#xe8c4;" d="M849 371l142 142c12 12 12 31 0 44-12 12-32 12-44 0l-142-142-142 142c-12 12-32 12-44 0-12-13-12-32 0-44l142-142-142-142c-12-12-12-32 0-44 6-6 14-9 22-9 8 0 16 3 22 9l142 142 142-142c6-6 14-9 22-9 8 0 16 3 22 9 12 12 12 32 0 44l-142 142z m-408-426c5 0 10 1 14 3 11 6 17 16 17 28v748c0 12-6 23-17 28-10 5-23 4-32-3l-256-191h-133c-17 0-31-14-31-31v-353c0-18 14-32 31-32h133l256-191c5-4 12-6 18-6z m-31 94l-214 160c-5 4-12 6-19 6h-112v291h112c7 0 14 2 19 6l214 160v-623z" horiz-adv-x="1000" />

<glyph glyph-name="sound-plus" unicode="&#xe8c5;" d="M837-35c9 0 17 4 23 10 89 93 140 229 140 372 0 143-51 279-140 372-12 13-32 13-44 1-12-12-13-32-1-44 78-82 123-202 123-329 0-127-45-247-123-329-12-12-12-32 1-44 6-6 14-9 21-9z m-103 97c8 0 15 3 22 9 69 67 109 168 109 276 0 108-40 209-109 277-13 12-33 11-45-1-12-12-11-32 1-44 57-56 90-141 90-232 0-91-33-176-90-232-12-12-13-32-1-44 7-6 15-9 23-9z m-123 153c-13-11-15-31-4-44 6-7 15-11 24-11 7 0 14 2 20 7 49 41 78 108 78 180 0 73-30 141-80 182-13 11-33 9-44-5-11-13-8-33 5-44 36-29 57-79 57-133 0-53-21-103-56-132z m-189 532l-256-192h-133c-17 0-31-14-31-31v-354c0-17 14-31 31-31h133l256-191c6-4 12-7 19-7 5 0 9 2 14 4 10 5 17 16 17 28v749c0 11-7 22-17 27-11 6-23 5-33-2z m-12-712l-215 160c-5 4-12 7-18 7h-113v291h113c6 0 13 2 18 6l215 160v-624l0 0z" horiz-adv-x="1000" />

<glyph glyph-name="speaker" unicode="&#xe8c6;" d="M815 846h-621c-17 0-31-14-31-31v-932c0-17 14-31 31-31h621c18 0 32 14 32 31v932c0 17-14 31-32 31z m-31-932h-559v870h559v-870z m-279 76c114 0 207 95 207 211 0 116-93 210-207 210-115 0-208-94-208-210 0-116 93-211 208-211z m0 359c80 0 145-67 145-148 0-82-65-148-145-148-80 0-146 66-146 148 0 81 66 148 146 148z m-1 163c51 0 92 41 92 92s-41 93-92 93c-51 0-92-41-92-93s41-92 92-92z m0 123c16 0 30-14 30-31 0-16-13-30-30-30s-30 14-30 30c0 17 14 31 30 31z" horiz-adv-x="1000" />

<glyph glyph-name="star" unicode="&#xe8c7;" d="M252 226l-73-304c-3-12 2-25 12-32 10-7 24-8 35-2l273 162 273-162c5-3 10-4 16-4 6 0 13 2 18 6 10 7 15 20 12 32l-73 304 241 205c10 8 14 21 10 33-4 12-15 20-27 21l-318 27-124 288c-5 11-16 19-28 19-13 0-24-8-29-19l-124-288-317-27c-13-1-24-9-27-21-4-12-1-25 9-33l241-205z m118 225c12 1 22 8 26 19l103 239 102-239c4-11 14-18 26-19l262-21-199-168c-9-8-13-20-10-31l60-252-225 135c-10 5-22 5-32 0l-226-135 60 252c3 11-1 23-10 31l-198 168 261 21z" horiz-adv-x="1000" />

<glyph glyph-name="statistics" unicode="&#xe8c8;" d="M31-151h134c18 0 32 14 32 31v229c0 17-14 31-32 31h-134c-17 0-31-14-31-31v-229c0-17 14-31 31-31z m32 229h71v-167h-71v167z m370-229c18 0 32 14 32 31v646c0 17-14 31-32 31h-134c-17 0-31-14-31-31v-646c0-17 14-31 31-31h134z m-102 645h71v-583h-71v583z m370-645c18 0 32 14 32 31v432c0 17-14 31-32 31h-134c-17 0-31-14-31-31v-432c0-17 14-31 31-31h134z m-102 432h71v-370h-71v370z m205 537v-938c0-17 14-31 31-31h134c18 0 32 14 32 31v938c0 18-14 32-32 32h-134c-17 0-31-14-31-32z m63-31h71v-876h-71v876z" horiz-adv-x="1000" />

<glyph glyph-name="stop" unicode="&#xe8c9;" d="M34-147h931c17 0 31 14 31 31v931c0 17-14 31-31 31h-931c-17 0-31-14-31-31v-931c0-17 14-31 31-31z m31 931h869v-869h-869v869z" horiz-adv-x="1000" />

<glyph glyph-name="sun" unicode="&#xe8ca;" d="M719 350c0 121-99 219-219 219-121 0-219-98-219-219 0-120 98-218 219-218 120 0 219 98 219 218z m-219-156c-86 0-156 70-156 156 0 86 70 156 156 156 86 0 156-70 156-156 0-86-70-156-156-156z m-31-121v-191c0-18 14-32 31-32 17 0 31 14 31 32v191c0 18-14 32-31 32-17 0-31-14-31-32z m0 746v-192c0-17 14-31 31-31 17 0 31 14 31 31v192c0 17-14 31-31 31-17 0-31-14-31-31z m340-822c6-6 14-9 22-9s16 3 22 9c13 12 13 32 0 44l-135 136c-12 12-32 12-44 0-13-13-13-32 0-45l135-135z m-663 707c-12-12-12-32 0-44l136-136c6-6 14-9 22-9s16 3 22 9c12 12 12 32 0 44l-135 136c-13 12-32 12-45 0z m823-322h-192c-17 0-31-14-31-32 0-17 14-31 31-31h192c17 0 31 14 31 31 0 18-14 32-31 32z m-969-32c0-17 14-31 31-31h192c17 0 31 14 31 31 0 18-14 32-31 32h-192c-17 0-31-14-31-32z m809 354l-135-136c-13-12-13-32 0-44 6-6 14-9 22-9 8 0 16 3 22 9l135 136c13 12 13 32 0 44-12 12-32 12-44 0z m-640-716c8 0 16 3 22 9l135 135c12 13 12 32 0 45-12 12-32 12-44 0l-136-136c-12-12-12-32 0-44 7-6 15-9 23-9z" horiz-adv-x="1000" />

<glyph glyph-name="trash-bin" unicode="&#xe8cb;" d="M33 673h97l45-794c1-16 14-29 31-29h591c16 0 30 13 31 29l44 794h97c17 0 31 14 31 31 0 18-14 32-31 32h-117c-2 0-3-1-5-1-1 0-3 1-5 1h-163v81c0 17-14 31-31 31h-294c-17 0-31-14-31-31v-81h-164c-1 0-3-1-4-1-1 0-3 1-4 1h-118c-17 0-31-14-31-32 0-17 14-31 31-31z m352 113h231v-50h-231v50z m425-113l-43-761h-532l-43 761h618l0 0z m-464-702c1 0 2 0 2 0 17 1 31 16 30 33l-33 578c-1 17-16 30-33 30-17-1-31-16-30-33l33-579c1-16 15-29 31-29z m306 0c1 0 2 0 2 0 17 0 30 13 31 29l33 579c1 17-12 32-29 33-17 0-32-13-33-30l-33-578c-1-17 12-32 29-33z m-151 0c17 0 31 14 31 31v578c0 18-14 32-31 32-17 0-31-14-31-32v-578c0-17 14-31 31-31z" horiz-adv-x="1000" />

<glyph glyph-name="umbrella" unicode="&#xe8cc;" d="M502 850c-241 0-438-209-438-467 0-17 14-31 32-31s31 14 31 31c0 43 31 78 70 78 39 0 71-35 71-78 0-17 14-31 31-31s31 14 31 31c0 43 32 78 71 78 38 0 70-35 70-78 0 0 0 0 0-1v-363c0-1 1-2 1-4 0-2-1-4-1-6 0-54-44-98-97-98s-97 44-97 98c0 17-14 31-32 31-17 0-31-14-31-31 0-89 72-160 160-160s159 71 159 160c0 1 0 3-1 4 1 2 2 4 2 6v367c1 41 32 75 70 75 39 0 70-35 70-78 0-17 14-31 31-31s32 14 32 31c0 43 31 78 70 78 39 0 70-35 70-78 0-17 14-31 32-31 0 0 0 0 0 0 0 0 0 0 0 0 18 0 31 14 31 31 0 258-196 467-438 467z m305-327c-41 0-77-20-102-50-24 30-60 50-101 50-41 0-77-20-102-50-24 30-60 50-101 50-41 0-78-20-102-50-24 30-61 50-102 50-17 0-34-3-50-10 50 159 191 274 355 274 165 0 306-115 356-274-16 7-33 10-51 10z" horiz-adv-x="1000" />

<glyph glyph-name="upload" unicode="&#xe8cd;" d="M64 104c-17 0-31-14-31-32v-191c0-17 14-31 31-31h874c17 0 31 14 31 31v191c0 18-14 32-31 32-18 0-32-14-32-32v-160h-811v160c0 18-14 32-31 32z m438-63c17 0 31 14 31 31v671l198-191c6-6 14-9 22-9 8 0 16 4 22 10 12 12 12 32 0 44l-251 242c0 0 0 0 0 0l0 0c-1 1-3 2-4 3-2 1-4 3-6 4-4 1-7 2-11 2 0 0-1 0-1 0 0 0 0 0 0 0-4 0-8-1-12-2-2-1-4-3-6-4-1-1-2-2-3-3l-1 0c0 0 0 0 0 0l-250-242c-13-12-13-32-1-44 12-12 32-13 44-1l198 191v-671c0-17 14-31 31-31z" horiz-adv-x="1000" />

<glyph glyph-name="video-camera" unicode="&#xe8ce;" d="M597 366h-565c-17 0-31-14-31-31v-358c0-18 14-32 31-32h565c17 0 31 14 31 32v358c0 17-14 31-31 31z m-31-358h-503v296h503v-296l0 0z m395 300l-252-63c-14-3-23-16-23-30v-121c0-14 10-27 24-30l251-60c2-1 5-1 7-1 7 0 14 2 20 7 7 5 11 15 11 24v243c0 10-4 19-11 25-8 6-18 8-27 6z m-24-234l-189 45v72l189 46v-163z m-801 357c66 0 119 52 119 116 0 64-53 116-119 116s-120-52-120-116c0-64 54-116 120-116z m0 169c31 0 57-24 57-53 0-29-26-53-57-53-32 0-57 24-57 53 0 29 25 53 57 53z m327 157c-93 0-168-73-168-163 0-90 75-163 168-163 93 0 169 73 169 163 0 90-76 163-169 163z m0-263c-58 0-106 45-106 100 0 55 48 100 106 100 59 0 106-45 106-100 0-55-47-100-106-100z" horiz-adv-x="1000" />

<glyph glyph-name="wifi" unicode="&#xe8cf;" d="M57 438c111 126 272 199 443 199 172 0 333-73 444-199 6-7 14-11 23-11 7 0 15 3 20 8 13 11 15 31 3 44-122 140-300 220-490 220-189 0-367-80-490-220-11-13-10-33 3-44 13-11 33-10 44 3z m758-123c6-8 15-12 24-12 7 0 14 2 19 7 14 11 16 31 5 44-88 108-221 171-363 171-142 0-274-63-362-171-11-13-9-33 4-44 14-11 33-9 44 5 77 94 191 147 314 147 124 0 238-53 315-147z m-132-121c10-14 29-17 43-8 14 10 18 30 8 44-53 75-140 120-234 120-94 0-182-46-235-123-10-14-6-34 8-43 6-4 12-6 18-6 10 0 20 5 26 14 40 60 109 96 183 96 74 0 142-35 183-94z" horiz-adv-x="1000" />

<glyph glyph-name="align-left" unicode="&#xe8d0;" d="M656-58c17 0 31 14 31 31 0 17-14 31-31 31h-624c-17 0-31-14-31-31 0-17 14-31 31-31h624z m313 312h-937c-17 0-31-14-31-31 0-17 14-31 31-31h937c17 0 31 14 31 31 0 17-14 31-31 31z m0 500h-937c-17 0-31-14-31-31 0-18 14-32 31-32h937c17 0 31 14 31 32 0 17-14 31-31 31z m-937-312h624c17 0 31 14 31 31 0 17-14 31-31 31h-624c-17 0-31-14-31-31 0-17 14-31 31-31z" horiz-adv-x="1000" />

<glyph glyph-name="align-middle" unicode="&#xe8d1;" d="M814-59c17 0 31 14 31 31 0 18-14 32-31 32h-623c-17 0-31-14-31-32 0-17 14-31 31-31h623z m187 281c0 17-14 31-31 31h-935c-17 0-31-14-31-31 0-17 14-31 31-31h935c17 0 31 14 31 31z m-997 498c0-17 14-31 31-31h935c17 0 31 14 31 31 0 17-14 31-31 31h-935c-17 0-31-14-31-31z m810-280c17 0 31 14 31 31 0 17-14 31-31 31h-623c-17 0-31-14-31-31 0-17 14-31 31-31h623z" horiz-adv-x="1000" />

<glyph glyph-name="align-right" unicode="&#xe8d2;" d="M967 8h-620c-17 0-31-14-31-31 0-17 14-31 31-31h620c17 0 31 14 31 31 0 17-14 31-31 31z m31 217c0 17-14 31-31 31h-931c-17 0-31-14-31-31 0-17 14-31 31-31h931c17 0 31 14 31 31z m-31 527h-931c-17 0-31-13-31-31 0-17 14-31 31-31h931c17 0 31 14 31 31 0 18-14 31-31 31z m0-248h-620c-17 0-31-14-31-31s14-31 31-31h620c17 0 31 14 31 31s-14 31-31 31z" horiz-adv-x="1000" />

<glyph glyph-name="arrow" unicode="&#xe8d3;" d="M254-141c7-6 15-9 23-9 8 0 16 3 22 9l469 469c12 12 12 32 0 44l-469 469c-13 12-32 12-45 0-12-12-12-32 0-44l447-447-447-447c-12-12-12-32 0-44z" horiz-adv-x="1000" />

<glyph glyph-name="icon---2" unicode="&#xe8d4;" d="M63 69h343v31h-343v-31z m0 62h156v32h-156v-32z m343 32h-156v-32h156v32z m-343 31h156v31h-156v-31z m343 31h-156v-31h156v31z m-343 31h156v32h-156v-32z m343 32h-156v-32h156v32z m-187 62h-156v-31h156v31z m187 0h-156v-31h156v31z m0 63h-343v-32h343v32z m-343 31h156v31h-156v-31z m343 31h-156v-31h156v31z m-343 31h156v32h-156v-32z m343 32h-156v-32h156v32z m391 0v-32h172v-406h-469v-31h469v-188h-31v157h-875v-157h-32v844h407v-656h31v437h172v32h-172v218h-31v63h-63v31h-31v-31h-219v31h-31v-31h-63v-63h-31v-906h1000v688h-203z m-734 250h343v-32h-343v32z m218-907h-187v31h187v-31z m407 0h-375v31h375v-31z m218 0h-187v31h187v-31z m0 63h-187v31h-31v-31h-375v31h-32v-31h-187v62h812v-62z m-718 750v-125h31v47h31v-47h31v125h-31v-47h-31v47h-31z m-63-47v-31h31v31h-31z m188 0v-31h31v31h-31z m359-141h94v63h62v94h-62v62h-94v-62h-63v-94h63v-63z m-31 94v31h62v63h31v-63h63v-31h-63v-62h-31v62h-62z m-16-125h-125v-94h125v94z m-31-62h-63v31h63v-31z m187 62h-125v-94h125v94z m-31-62h-62v31h62v-31z m188 62h-125v-94h125v94z m-32-62h-62v31h62v-31z m-281-63h-125v-94h125v94z m-31-62h-63v31h63v-31z m187 62h-125v-94h125v94z m-31-62h-62v31h62v-31z m63-32h125v94h-125v-94z m31 63h62v-31h-62v31z m-344-188h125v94h-125v-94z m31 63h63v-31h-63v31z m125-63h125v94h-125v-94z m32 63h62v-31h-62v31z m125-63h125v94h-125v-94z m31 63h62v-31h-62v31z" horiz-adv-x="1000" />

<glyph glyph-name="icon---3" unicode="&#xe8d5;" d="M671 707h31v-703h-502v703h31v32h-125v-891h690v891h-125v-32z m62 0h32v-828h-628v828h32v-734h564v734z m-94 63h-95c-8 44-46 78-93 78-47 0-85-34-93-78h-95v-125h376v125z m-31-94h-314v63h94v15c0 35 28 63 63 63 35 0 63-28 63-63v-15h94v-63z m-173 63h32v31h-32v-31z m-141-250h32v31h31v31h-31v31h-32v-31h-31v-31h31v-31z m0-32h-31v-31h31v31z m345 0h-313v-31h313v31z m-345-62h-31v-31h31v31z m345 0h-313v-31h313v31z m-345-63h-31v-31h31v31z m345 0h-313v-31h313v31z m-345-62h-31v-31h31v31z m345 0h-313v-31h313v31z m-345-63h-31v-31h31v31z m345 0h-313v-31h313v31z m0-125v32h-31v-32h31z m-63 0v32h-125v-32h125z m63 500h-251v-93h251v93z m-31-62h-188v31h188v-31z m292 219h-10v31h-31v-31h-10l-22-43v-848h94v848l-21 43z m-10-860h-31v31h31v-31z m0 63h-31v515h31v-515z m0 547h-31v31h31v-31z m0 62h-31v31h31v-31z m0 63h-31v74l9 19h12l10-19v-74z" horiz-adv-x="1000" />

<glyph glyph-name="icon---1" unicode="&#xe8d6;" d="M516 32v146h-32v-131c-32 16-78 43-78 84 0 30 25 47 55 65l-16 27c-26-16-70-42-70-92 0-66 71-100 109-118 0-1 0-1 0-1v-129c-26 7-46 32-46 61 0 13 4 26 12 37l-25 19c-12-16-19-36-19-56 0-52 42-94 94-94 52 0 94 42 94 94 0 49-47 72-78 88z m0-149v114c27-15 47-30 47-53 0-29-20-54-47-61z m125 483c0 71-55 109-94 109v-31c22 0 62-23 62-78 0-47-57-82-93-100v429c35 8 62 39 62 77 0 43-35 78-78 78-43 0-78-35-78-78 0-38 27-69 62-77v-429c-36 18-93 53-93 100 0 55 40 78 62 78v31c-39 0-94-38-94-109 0-74 89-117 127-136l14-7 0 0 1 0c32-16 93-45 93-92 0-30-13-51-38-64l14-28c36 18 55 50 55 92 0 55-52 90-90 110 42 22 106 62 106 125z m-141 359c-26 0-47 21-47 47 0 26 21 47 47 47s47-21 47-47c0-26-21-47-47-47z m-47-219v32h-62c-11 0-21 0-32 0v46h-31v-44c-11 1-21 2-31 3v57h-31v-53c-11 2-22 4-32 7v62h-31v-54c-11 3-21 7-31 11v58h-31v-45c-52 26-85 59-102 92 124 4 174 34 211 56 22 13 38 22 63 22 21 0 46-20 46-47v-46c0-35 28-63 63-63h31v31h-31c-17 0-31 14-31 32v46c0 42-37 79-78 79-34 0-55-13-79-27-38-23-86-52-218-52-5 0-10-2-13-6-3-4-4-9-2-14 29-88 147-183 390-183h62z m544 197c-3 4-8 6-13 6-132 0-180 29-218 52-24 14-45 27-78 27-42 0-79-37-79-79v-46c0-18-14-32-31-32h-31v-31h31c35 0 63 28 63 63v46c0 27 25 47 47 47 24 0 40-9 62-22 37-22 87-52 211-56-17-33-50-66-102-92v45h-31v-58c-10-4-20-8-31-11v54h-31v-62c-10-3-21-5-32-7v53h-31v-57c-10-1-20-2-31-3v44h-31v-46c-10 0-21 0-32 0h-62v-32h62c243 0 361 95 390 183 2 5 1 10-2 14z" horiz-adv-x="1000" />

<glyph glyph-name="new-phone" unicode="&#xe8db;" d="M971 723a27 27 0 0 1-2 2l-119 104a82 82 0 0 1-64 21 94 94 0 0 1-58-27 47 47 0 0 1-3-3l-117-148a84 84 0 0 1 2-117 42 42 0 0 1 7-6l60-40c-5-21-36-81-146-190s-169-141-190-146l-40 60a44 44 0 0 1-6 7 84 84 0 0 1-116 2l-148-117a45 45 0 0 1-4-4 88 88 0 0 1-5-121l104-120 2-2a117 117 0 0 1 85-28 507 507 0 0 1 168 39 1042 1042 0 0 1 347 232 1051 1051 0 0 1 233 348c22 57 68 196 10 254z m-306-539c-205-205-435-261-475-242l-100 115a1 1 0 0 1 0 1l145 115 39-59c0-1 1-2 2-3a74 74 0 0 1 55-27c21-1 87-5 263 172 44 44 177 177 172 264a74 74 0 0 1-27 55c-1 1-2 1-3 2l-59 39 115 145 0 0 116-101c19-39-37-270-243-476z" horiz-adv-x="1000" />

<glyph glyph-name="tripadvisor" unicode="&#xe8dc;" d="M613 637c28-4 55-11 82-19 47-15 92-35 134-61 2-2 6-3 10-3 49 0 98 0 147 0 4 0 8-1 12-1 0-1 0-1 0-1-2-4-5-7-7-11-17-26-31-52-39-82-1-3-1-6 1-9 44-63 57-132 39-206-16-65-53-116-110-152-41-26-85-38-133-38-20 0-40 2-60 7-48 13-89 37-123 73-4 5-9 10-13 15-18-27-36-53-54-80-18 27-35 53-53 79-1-1-1-1-1-1-1 0-1-1-1-1-41-48-93-78-156-88-34-6-69-4-103 6-48 13-89 38-122 76-32 36-52 79-60 127-8 45 2 88 5 99 7 31 21 59 39 85 1 1 2 5 1 7-7 27-20 52-35 75-4 6-8 12-13 18 0 0 0 1 0 2 1 0 2 0 3 0 50 0 100 0 151 0 2 0 4 1 6 2 35 22 73 40 113 54 28 10 57 18 87 24 29 6 58 9 87 11 71 6 128-2 166-7z m-63-332c0-110 89-201 199-200 111 0 200 88 200 199 0 116-93 202-204 200-109-3-194-90-195-199z m-300 200c-107 0-201-89-199-203 2-107 90-197 202-196 109 1 197 90 197 198 0 111-89 201-200 201z m10 52c61-4 114-25 159-66 45-41 72-92 81-152 10 59 36 110 80 150 44 41 96 62 156 66-71 32-145 45-222 47-88 2-173-11-254-45z m489-126c68 0 124-55 124-123 0-69-55-122-119-124-72-3-129 54-129 123 0 70 58 125 124 124z m81-124c0 45-36 81-81 81-44 0-81-36-81-80 0-44 36-81 81-81 44-1 81 36 81 80z m-582 124c68 0 123-55 123-123 0-69-54-121-117-124-72-3-130 54-130 124 0 70 58 124 124 123z m80-123c0 45-36 80-81 80-44 0-81-37-80-81 0-44 36-80 81-80 44-1 80 36 80 81z m421 40c23 0 41-18 41-41 0-22-18-40-41-40-23 0-41 18-41 40 0 23 18 41 41 41z m-501 1c23 0 41-19 41-41 0-23-18-42-41-42-24 0-42 18-42 42 0 23 18 41 42 41z" horiz-adv-x="1000" />

<glyph glyph-name="icon---6" unicode="&#xe9ae;" d="M675 521c0 26-10 50-29 69-18 18-43 29-69 29-1 0-2 0-3-1-1 0-51-12-119-12-69 0-129 13-130 14-1 0-2 0-3 0-26 0-51-10-70-29-18-18-28-42-29-68-2-13-17-126 43-194 0-1-1-3 0-4 4-108 48-308 107-309h0c32 0 35 49 40 116 4 47 9 125 31 125h0c24 0 32-87 36-135 5-66 9-106 36-106h0c26 0 58 32 105 268 1 8-4 15-11 16-2 1-4 1-5 0 91 79 73 206 70 221z m-101-210c-6-4-7-13-3-19 3-4 7-6 11-6 3 0 6 1 8 3 2 1 3 2 5 3-1-1-1-1-1-2-40-203-68-239-76-246-5 13-9 52-11 81-7 78-14 159-63 160h0c-47 0-53-77-58-151-2-31-6-81-14-90-6 2-25 20-46 90-16 53-28 115-32 170 9-6 19-11 30-16 7-3 15 1 17 8 3 7 0 15-7 18-112 43-84 204-84 205 1 1 1 2 1 3 0 19 7 36 21 50 13 13 30 20 49 21 10-3 67-14 134-14h2c64 0 112 10 121 13 19-1 36-8 49-21 14-14 21-32 21-51 0-1 0-2 0-3 0-1 24-136-74-206z m419 0c-7 4-15 1-19-5l-57-110v152c0 253-206 459-458 459-253 0-459-206-459-459 0-253 206-459 459-459 134 0 262 59 349 162 5 6 4 14-2 19-5 5-14 4-19-2-82-96-202-152-328-152-238 0-432 194-432 432 0 238 194 432 432 432 237 0 431-194 431-432v-152l-57 110c-4 6-12 9-19 5-6-3-9-11-5-18l82-159c3-4 7-7 13-7 5 0 9 3 12 7l82 159c4 7 1 15-5 18z" horiz-adv-x="1000" />

<glyph glyph-name="icon---7" unicode="&#xe9af;" d="M987 743h-973c-8 0-14-6-14-14v-758c0-8 6-14 14-14h973c7 0 13 6 13 14v758c0 8-6 14-13 14z m-14-759h-946v732h946v-732z m-276 99c7 11 8 25 2 39-5 14 1 33 15 40 13 7 22 19 23 32 1 13-5 26-17 35-13 10-16 29-8 42 8 13 10 27 4 39-5 12-17 20-33 22-15 2-28 17-27 33 0 12-4 23-11 31-11 11-28 14-45 7-3-1-7-2-11-2-12 0-24 7-29 17-8 14-21 23-35 23-12 0-23-7-32-18-6-7-16-12-26-12-6 0-12 2-16 5-8 4-16 7-24 7-19 0-34-15-37-36-2-15-17-28-32-28l-3 0c-14 0-27-6-34-16-7-11-8-25-2-39 5-14-1-33-15-40-13-7-22-19-23-32-1-13 5-26 17-35 13-10 16-29 8-42-8-13-10-27-4-39 5-12 17-20 33-22 15-2 28-17 27-33 0-12 4-23 11-31 11-11 28-14 44-7 4 1 8 2 12 2 12 0 24-7 29-17 8-14 20-23 35-23 12 0 23 6 32 18 6 7 16 12 26 12 6 0 12-2 16-5 8-4 16-7 24-7 19 0 34 15 37 36 2 15 17 28 32 28l3 0c14 0 27 6 34 16z m-23 29c3-6 3-11 1-14-2-3-7-4-12-4l-3 0c-29 0-55-23-59-51 0-5-2-13-10-13-3 0-6 1-10 3-9 6-19 9-30 9-19 0-36-8-47-22-4-5-8-7-11-7-4 0-8 3-11 8-11 19-31 31-53 31-8 0-15-1-22-4-6-2-11-2-14 1-3 2-4 6-4 12 1 29-22 56-51 60-6 1-10 3-12 6-1 4 0 9 3 14 15 25 9 59-14 77-5 4-7 8-7 12 0 4 3 7 9 10 26 14 38 47 27 74-3 6-3 11-1 14 2 3 7 4 12 4l3 0c29 0 54 23 59 51 0 5 2 13 10 13 3 0 6-1 10-3 9-6 19-9 30-9 19 0 36 8 47 22 4 5 8 8 11 8 4 0 8-4 11-9 10-19 31-31 53-31 8 0 15 1 22 4 6 2 11 2 14-1 3-2 4-6 4-12-1-29 22-56 51-60 6-1 10-3 12-6 1-4 0-9-3-14-15-25-9-59 14-77 5-4 7-8 7-12 0-4-3-7-9-10-26-14-38-47-27-74z m-165 268c-92 0-167-75-167-167 0-92 75-167 167-167 92 0 167 75 167 167 0 92-75 167-167 167z m0-307c-77 0-140 63-140 140s63 140 140 140c77 0 140-63 140-140s-63-140-140-140z m49 189v49c0 7-6 13-13 13h-72c-7 0-13-6-13-13v-49h-48c-8 0-14-6-14-13v-72c0-7 6-13 14-13h48v-49c0-7 6-13 13-13h72c7 0 13 6 13 13v49h48c8 0 14 6 14 13v72c0 7-6 13-14 13h-48z m35-71h-48c-8 0-14-6-14-14v-48h-44v48c0 8-6 14-14 14h-48v44h48c8 0 14 6 14 14v48h44v-48c0-8 6-14 14-14h48v-44z m149 358c8 0 14 6 14 14 0 7-6 13-14 13h-484c-8 0-14-6-14-13 0-8 6-14 14-14h484z m-626-61c0-7 7-14 14-14h740c8 0 14 7 14 14 0 8-6 14-14 14h-740c-7 0-14-6-14-14z m-45-403c33 0 60-25 64-58 1-7 7-12 14-12h197c7 0 13 6 13 14 0 7-6 13-13 13h-186c-9 36-39 63-76 69v469c40 6 72 38 78 78h676c6-40 38-72 78-78v-469c-37-6-67-33-76-69h-161c-7 0-13-6-13-13 0-8 6-14 13-14h173c6 0 12 5 13 12 4 33 31 58 64 58 8 0 14 6 14 13v495c0 7-6 13-14 13-36 0-65 29-65 65 0 8-6 14-13 14h-702c-7 0-13-6-13-14 0-36-29-65-65-65-7 0-13-6-13-13v-495c0-7 6-13 13-13z" horiz-adv-x="1000" />

<glyph glyph-name="icon---4" unicode="&#xe9b0;" d="M904 305c1 4 2 8 2 12 0 31-26 57-57 57-20 0-38-11-48-28-15 8-32 12-49 12-61 0-110-49-110-110 0-44 26-83 65-100-45-195-75-212-81-213-10 9-16 71-19 113-10 101-19 206-79 206-58 0-64-99-71-195-3-36-5-69-10-94-6-29-12-31-12-31-37 0-100 148-110 324 19 12 32 32 32 55 0 5 0 9-1 13 27 20 42 51 42 85 0 46-30 87-74 100-5 32-28 57-59 63 1 54 44 98 98 98 12-2 89-17 177-17 76 0 125 11 144 16-1-5-1-10-1-15 0-62 50-111 111-111 4 0 8 0 12 0 2-22 5-80-20-146-3-6 1-14 7-16 2-1 3-1 5-1 5 0 10 3 12 8 28 74 24 138 21 161 43 15 75 56 75 105 0 6-1 12-2 19 12 13 19 31 19 49 0 42-34 75-75 75-25 0-48-12-62-32-43-3-80-31-95-69-3 0-5 0-7-1-1 0-53-16-144-16-91 0-172 17-173 17-1 0-2 0-2 0-69 0-124-55-126-122-27-4-50-21-61-46-49-3-88-44-88-95 0-2 0-6 0-9 0 0-1-1-1-1-1 0-3 0-5 0-46 0-84-38-84-84 0-47 38-84 84-84 12 0 24 2 35 7 18-14 40-23 63-25-23-8-39-29-39-54 0-31 25-56 56-56 31 0 57 25 57 56 0 26-18 48-42 54 17 3 33 9 48 19 9-6 20-8 31-8 2 0 5 0 7 0 5-77 21-158 44-224 19-53 50-117 91-117 37 0 41 62 47 148 5 72 12 172 46 172 37 0 47-111 53-184 8-82 12-136 44-136 23 0 56 24 101 209 17-21 44-35 72-35 22 0 43 8 59 22 12-5 24-7 36-7 57 0 103 47 103 104 0 53-40 97-92 103z m-110 437c4 0 9 2 11 6 8 16 25 26 43 26 27 0 49-22 49-50 0-13-5-26-16-36-3-3-5-8-3-12 1-7 2-14 2-20 0-47-39-86-86-86-47 0-86 39-86 86 0 47 39 85 86 86z m-564-557c0-17-14-31-31-31-17 0-30 14-30 31 0 17 13 31 30 31 17 0 31-14 31-31z m78 93c0 0 0 0 0 0-5-2-10-3-15-3-9 0-17 3-24 8-4 4-11 4-15 1-18-14-38-20-59-20-25 0-48 9-66 25-2 2-5 3-8 3-3 0-5 0-7-2-9-5-19-8-30-8-32 0-58 26-58 59 0 32 26 58 58 58 3 0 6 0 10-1 6-1 11 2 14 7 2 4 4 8 6 11 2 3 3 6 2 9-1 4-1 7-1 10 0 39 31 70 69 70l1 0c0-1 1-1 1-1 1 0 1 0 1 0 6 0 11 4 12 10 6 21 27 37 49 37 28 0 51-22 51-50 1-6 5-11 11-12 36-8 63-41 63-78 0-28-15-54-39-69-5-3-7-9-5-15 2-4 2-9 2-14 0-15-9-29-23-35z m585-154c-12 0-23 2-33 7-5 2-11 1-14-2-13-13-30-20-48-20-30 0-57 21-65 50-1 4-4 8-8 9-34 12-57 44-57 80 0 46 38 84 84 84 17 0 34-5 48-14 3-3 8-3 11-2 4 2 7 5 8 9 4 14 16 23 30 23 17 0 31-14 31-31 0-6-2-12-6-18-3-4-3-9 0-13 2-5 7-7 12-7 2 0 5 1 7 1 43 0 78-35 78-78 0-43-35-78-78-78z m68 198c21 0 39 17 39 39 0 22-18 40-39 40-22 0-40-18-40-40 0-22 18-39 40-39z m0 53c7 0 13-6 13-14 0-8-6-14-13-14-8 0-14 6-14 14 0 8 6 14 14 14z m-628 168c0-29 24-53 53-53 29 0 53 24 53 53 0 29-24 53-53 53-29 0-53-24-53-53z m80 0c0-15-12-27-27-27-15 0-28 12-28 27 0 15 13 27 28 27 15 0 27-12 27-27z" horiz-adv-x="1000" />

<glyph glyph-name="icon---5" unicode="&#xe9b1;" d="M748 287c-6-5-8-14-3-21 3-4 7-6 12-6 3 0 5 1 8 3 116 83 131 217 129 289 0 8-7 15-15 14-8 0-14-6-14-14 1-67-12-190-117-265z m-370 136l-67-12 67-13 12-67 13 67 67 13-67 12-13 67-12-67z m-221 330l-17 95h-1l-18-95-97-18 97-18 18-97 18 97 97 18-97 18z m807-121l-70 13c0 0 0 0 0 1-19 58-74 97-119 103l-16 88c-1 5-5 9-10 11h-9c-5-2-9-6-10-11l-18-96c-35-3-125-11-149-11-104 0-196 19-197 19-1 1-2 1-3 1-79 0-142-64-143-142-3-17-27-188 66-290-1-2-1-4-1-6 7-181 78-460 157-460 43 0 48 71 55 168 5 83 13 196 52 196 41 0 52-126 60-209 8-93 14-155 50-155 34 0 82 45 150 401 1 8-4 15-12 17-8 1-15-4-17-12-67-348-112-375-120-377-11 11-18 82-22 129-10 115-21 235-89 235-66 0-74-113-81-223-3-40-6-78-11-106-7-33-14-35-15-35-11 0-42 29-77 141-26 83-44 182-50 269 16-12 34-22 54-30 2 0 4-1 5-1 6 0 12 4 14 10 3 7-1 16-8 18-173 67-132 314-131 317 0 0 0 1 0 2 0 62 50 113 112 114 13-3 101-20 202-20 21 0 86 5 144 10l-9-47-173-32c-7-1-12-7-12-14 0-7 5-13 12-15l173-32 32-173c1-7 7-12 14-12 7 0 13 5 15 12l32 173 173 32c7 2 12 8 12 15 0 7-5 13-12 14z m-104 19l-69 13-10 54c33-8 64-37 79-67z m-84-53c-6-1-11-6-12-12l-20-106-19 106c-1 6-6 11-12 12l-106 20 106 19c6 1 11 6 12 12l19 106 5-23c0 0 0 0 0 0l15-83c1-6 6-11 12-12l106-19-106-20z" horiz-adv-x="1000" />

<glyph glyph-name="instagram" unicode="&#xf16d;" d="M571 350q0 59-41 101t-101 42-101-42-42-101 42-101 101-42 101 42 41 101z m77 0q0-91-64-156t-155-64-156 64-64 156 64 156 156 64 155-64 64-156z m61 229q0-21-15-36t-37-15-36 15-15 36 15 36 36 15 37-15 15-36z m-280 123q-4 0-43 0t-59 0-54-2-57-5-40-11q-28-11-49-32t-33-49q-6-16-10-40t-6-58-1-53 0-59 0-43 0-43 0-59 1-53 6-58 10-40q12-28 33-49t49-32q16-6 40-11t57-5 54-2 59 0 43 0 42 0 59 0 54 2 58 5 39 11q28 11 50 32t32 49q6 16 10 40t6 58 1 53 0 59 0 43 0 43 0 59-1 53-6 58-10 40q-11 28-32 49t-50 32q-16 6-39 11t-58 5-54 2-59 0-42 0z m428-352q0-128-3-177-5-116-69-180t-179-69q-50-3-177-3t-177 3q-116 6-180 69t-69 180q-3 49-3 177t3 177q5 116 69 180t180 69q49 3 177 3t177-3q116-6 179-69t69-180q3-49 3-177z" horiz-adv-x="857.1" />

<glyph glyph-name="snapchat" unicode="&#xf2ab;" d="M714 209q0 13-12 15-38 9-66 33t-45 61q-4 10-4 14 0 8 11 14t24 10 24 11 11 20q0 11-10 18t-22 7q-7 0-18-4t-17-5q-2 0-7 1 3 53 3 64 0 44-9 63-21 44-58 68t-85 24q-111 0-153-92-10-19-10-63 0-11 3-64-2-1-8-1-6 0-18 4t-16 4q-12 0-22-6t-10-18q0-12 11-20t24-11 24-10 11-14q0-4-4-14-35-77-110-94-13-2-13-15 0-25 77-38 1-2 3-14t7-17 13-5q6 0 21 2t22 3q19 0 37-9t30-18 32-18 43-8q24 0 44 8t32 18 30 18 37 9q8 0 23-3t21-2q9 0 13 6t6 17 3 13q77 13 77 38z m143 141q0-117-57-215t-156-156-215-58-216 58-155 156-58 215 58 215 155 156 216 58 215-58 156-156 57-215z" horiz-adv-x="857.1" />

<glyph glyph-name="snapchat-ghost" unicode="&#xf2ac;" d="M473 779q75 0 134-39t92-107q15-32 15-100 0-26-5-106 8-4 15-4 10 0 29 7t28 8q16 0 32-10t15-26q0-18-18-30t-38-18-39-16-18-26q0-9 7-24 21-46 57-84t81-57q16-6 45-12 15-4 15-20 0-39-122-57-4-6-6-22t-8-26-18-10q-11 0-35 3t-36 4q-20 0-34-3-18-3-35-13t-33-21-32-22-43-19-55-8q-29 0-54 8t-41 19-33 22-32 21-35 13q-14 3-35 3-13 0-36-4t-33-5q-14 0-19 11t-8 26-6 23q-123 18-123 57 0 16 16 20 29 6 45 12 43 18 80 57t58 84q6 15 6 24 0 15-17 26t-39 17-39 17-18 29q0 15 15 26t31 10q8 0 26-7t30-7q10 0 18 4-5 79-5 106 0 68 15 100 36 76 96 110t147 36z" horiz-adv-x="928.6" />

<glyph glyph-name="snapchat-square" unicode="&#xf2ad;" d="M714 209q0 13-12 15-37 8-66 33t-44 61q-4 7-4 14 0 8 11 14t23 10 24 11 11 20q0 11-10 18t-22 7q-6 0-17-4t-18-5q-2 0-7 1 3 35 3 64 0 44-9 64-21 43-58 68t-85 24q-110 0-153-92-10-21-10-64 0-21 3-64-6-1-8-1-6 0-18 5t-17 4q-11 0-21-7t-10-18q0-12 11-20t24-11 24-10 11-14q0-7-4-14-36-77-111-94-12-2-12-15 0-26 77-38 1-3 3-15t6-17 13-5q7 0 22 3t21 3q20 0 38-9t30-18 32-18 43-8q24 0 44 8t32 18 30 18 38 9q7 0 22-3t22-2q8 0 12 5t7 17 2 14q77 12 77 38z m143 409v-536q0-66-47-113t-114-48h-535q-67 0-114 48t-47 113v536q0 66 47 113t114 48h535q67 0 114-48t47-113z" horiz-adv-x="857.1" />
</font>
</defs>
</svg>
