<?xml version="1.0" standalone="no"?>
<!DOCTYPE svg PUBLIC "-//W3C//DTD SVG 1.1//EN" "http://www.w3.org/Graphics/SVG/1.1/DTD/svg11.dtd" >
<svg xmlns="http://www.w3.org/2000/svg" xmlns:xlink="http://www.w3.org/1999/xlink" version="1.1">
<metadata></metadata>
<defs>
<font id="langdonregular" horiz-adv-x="452" >
<font-face units-per-em="2048" ascent="1536" descent="-512" />
<missing-glyph horiz-adv-x="378" />
<glyph horiz-adv-x="0" />
<glyph horiz-adv-x="682" />
<glyph unicode=" "  horiz-adv-x="378" />
<glyph unicode="&#x09;" horiz-adv-x="378" />
<glyph unicode="&#xa0;" horiz-adv-x="378" />
<glyph unicode="!" d="M98 0v256h256v-256h-256zM98 416v1018h256v-1018h-256z" />
<glyph unicode="#" horiz-adv-x="1484" d="M98 412l4 39h412l37 344h-412l4 36h412l43 414h39l-43 -414h342l45 414h37l-43 -414h411l-4 -36h-411l-37 -344h414l-7 -39h-409l-45 -412h-39l45 412h-344l-43 -412h-39l45 412h-414zM553 451h344l37 344h-344z" />
<glyph unicode="$" horiz-adv-x="931" d="M88 1133q0 138 96.5 225.5t251.5 93.5v94h39v-94q159 -3 259 -91.5t100 -227.5v-101h-256v60q0 68 -29 109t-74 46v-350l203 -231q47 -55 69.5 -84.5t49 -75.5t36.5 -94.5t11 -110.5q0 -145 -105.5 -230.5t-263.5 -88.5v-95h-39v95q-151 6 -248.5 90.5t-97.5 228.5v150 h256v-134q0 -55 25 -88t65 -43v383l-155 162q-14 16 -42 48.5t-37.5 44.5t-30 38t-27 38.5t-19.5 36t-17.5 41t-10.5 43t-7.5 52.5t-1.5 60zM346 1135q0 -48 16.5 -86.5t59.5 -90.5l14 -18v307q-39 -9 -64.5 -40t-25.5 -72zM475 186q46 5 74.5 39.5t28.5 91.5q0 98 -84 195 l-19 18v-344z" />
<glyph unicode="%" horiz-adv-x="1527" d="M88 1094v129q0 41 15 80t46 73t86 55t127 21q127 0 197 -71t70 -160v-127q0 -89 -70 -159.5t-197 -70.5q-72 0 -127 20.5t-86 55t-46 73.5t-15 81zM240 0l1003 1434h47l-1001 -1434h-49zM270 1098q0 -31 24.5 -59.5t67.5 -28.5q36 0 59 30t23 58v123q0 29 -23 57.5 t-59 28.5q-43 0 -67.5 -27.5t-24.5 -54.5v-127zM899 211v129q0 90 68.5 159.5t206.5 69.5q127 0 196.5 -71t69.5 -160v-127q0 -89 -69.5 -159t-196.5 -70q-72 0 -127 20.5t-86 54.5t-46.5 73t-15.5 81zM1081 215q0 -31 25 -59.5t68 -28.5q36 0 58.5 30t22.5 58v123 q0 29 -22.5 57.5t-58.5 28.5q-43 0 -68 -27.5t-25 -54.5v-127z" />
<glyph unicode="&#x26;" horiz-adv-x="1132" d="M88 430q0 263 238 365q-75 29 -132 115.5t-57 189.5q0 168 95.5 260t263.5 92l6 -2q1 0 3.5 1t4.5 1q168 0 263 -92t95 -260q0 -66 -27 -125.5t-77 -107.5t-95.5 -81t-107.5 -69l213 -289q-20 65 -20 121q0 97 59 156l6 6h250v-39h-231q-45 -48 -45 -125q0 -124 110 -295 l176 -240l2 -12h-585q-180 0 -294 126t-114 304zM352 430q0 -95 36 -159t108 -64h393q-5 5 -21 29l-340 462q-88 -45 -132 -108.5t-44 -159.5zM381 1081q0 -107 96 -231q64 22 106 94.5t42 136.5q0 79 -30 122.5t-89 43.5q-58 0 -91.5 -44.5t-33.5 -121.5z" />
<glyph unicode="(" horiz-adv-x="518" d="M98 688q0 398 152 762h170q-152 -364 -152 -762t152 -762h-170q-152 364 -152 762z" />
<glyph unicode=")" horiz-adv-x="514" d="M98 -74q150 366 150 762t-150 762h168q150 -366 150 -762t-150 -762h-168z" />
<glyph unicode="*" horiz-adv-x="630" d="M88 1102l18 33l191 -109v219h39v-219l188 109l19 -33l-199 -117l133 -188l-31 -23l-131 184l-129 -184l-32 23l135 188z" />
<glyph unicode="+" horiz-adv-x="1077" d="M98 418v39h420v420h39v-420h422v-39h-422v-418h-39v418h-420z" />
<glyph unicode="," d="M98 0v256h256v-262l-135 -107h-59l139 113h-201z" />
<glyph unicode="-" horiz-adv-x="694" d="M98 418v39h498v-39h-498z" />
<glyph unicode="." d="M98 0v256h256v-256h-256z" />
<glyph unicode="0" horiz-adv-x="940" d="M88 301v829q0 56 24.5 111.5t70 103.5t120.5 77.5t168 29.5t168 -29.5t120 -77.5t69 -103.5t24 -111.5v-829q0 -56 -24 -111t-69 -102.5t-120 -76.5t-168 -29t-168 29t-120.5 76t-70 102.5t-24.5 111.5zM346 303q0 -37 36.5 -77t88.5 -40q51 0 87 40t36 77v825 q0 37 -36 78t-87 41q-52 0 -88.5 -40.5t-36.5 -78.5v-825z" />
<glyph unicode="1" horiz-adv-x="520" d="M51 1229v147l115 58h256v-1434h-256v1229h-115z" />
<glyph unicode="2" horiz-adv-x="919" d="M61 180q0 131 55.5 260.5t139.5 225.5l256 292q43 52 59.5 90.5t16.5 86.5q0 49 -34.5 80.5t-82.5 31.5t-81.5 -41.5t-33.5 -113.5v-60h-256v101q0 142 104 230.5t267 88.5q166 0 271.5 -87t105.5 -232q0 -33 -2 -60t-7.5 -52.5t-10.5 -43.5t-17.5 -40.5l-20 -36 t-27 -38.5t-31 -38t-38 -44t-41.5 -49q-59 -59 -178 -184q-129 -133 -129 -305l2 -37h469v-205h-729q-3 3 -7.5 12t-12 54.5t-7.5 113.5z" />
<glyph unicode="3" horiz-adv-x="929" d="M61 303v113h258v-113q0 -38 32 -77.5t83 -39.5q73 0 109.5 64.5t36.5 159.5q0 126 -47 194t-164 68h-50v205h11q116 0 168.5 56t52.5 140q0 79 -32.5 126.5t-84.5 47.5q-51 0 -83 -40.5t-32 -78.5v-96h-258v98q0 57 22.5 112t66.5 103t118 77.5t166 29.5q168 0 264.5 -96 t96.5 -264q0 -104 -58 -195.5t-131 -122.5q236 -103 236 -364q0 -178 -113.5 -303t-294.5 -125q-92 0 -166 29.5t-118 77t-66.5 102.5t-22.5 112z" />
<glyph unicode="4" horiz-adv-x="974" d="M51 535l436 899h256v-912h181v-190h-181v-332h-256v332h-434zM242 522h245v500z" />
<glyph unicode="5" horiz-adv-x="958" d="M88 303v113h260v-113q0 -38 32 -77.5t83 -39.5q73 0 109 64.5t36 159.5q0 49 -1 134.5t-1 94.5q0 76 -44 126t-97 50q-36 0 -64 -21.5t-41 -52.5h-251v693h673v-205h-417v-258q17 21 61 35t76 14q65 0 130 -25.5t118.5 -71t86.5 -115.5t33 -151v-247q0 -116 -49 -213 t-143.5 -156t-214.5 -59q-92 0 -166.5 29.5t-118.5 77t-67 103t-23 111.5z" />
<glyph unicode="6" horiz-adv-x="956" d="M88 303v719q0 178 107.5 304t277.5 126q89 0 160 -29.5t112.5 -77.5t63.5 -103t22 -112v-98h-247v96q0 49 -30 84t-81 35q-46 0 -76 -33.5t-40.5 -81t-10.5 -110.5v-225q58 80 174 80q166 0 257 -92t91 -226q0 -10 -1 -101t-1 -100q0 -173 -104.5 -274.5t-298.5 -101.5 q-92 0 -166.5 29.5t-118.5 77t-67 103t-23 111.5zM346 303q0 -38 32.5 -77.5t84.5 -39.5q73 0 107 42t34 130q0 8 1 99t1 102q0 52 -37.5 82.5t-91.5 30.5q-58 0 -94.5 -22.5t-36.5 -51.5v-295z" />
<glyph unicode="7" horiz-adv-x="829" d="M31 1231v203h747v-199l-405 -1235h-283l412 1231h-471z" />
<glyph unicode="8" horiz-adv-x="1003" d="M88 410q0 261 236 364q-73 31 -131 122.5t-58 195.5q0 168 95.5 264t263.5 96q176 0 274 -94t98 -266q0 -105 -57 -196t-131 -122q237 -103 237 -364q0 -178 -113.5 -303t-293.5 -125q-188 0 -304 121.5t-116 306.5zM348 410q0 -224 174 -224q64 0 97.5 68t33.5 156 q0 108 -34 174t-117 82q-84 -16 -119 -82t-35 -174zM377 1073q0 -140 125 -182q123 42 123 182q0 79 -31 126.5t-88 47.5q-58 0 -93.5 -49t-35.5 -125z" />
<glyph unicode="9" horiz-adv-x="958" d="M88 874q0 10 1 101t1 100q0 173 105.5 275t300.5 102q92 0 166.5 -29.5t118 -77.5t66.5 -103t23 -112v-720q0 -116 -47.5 -213t-137 -156t-204.5 -59q-87 0 -157.5 29.5t-112.5 77t-64 103t-22 111.5v113h246v-113q0 -47 30 -82t80 -35q68 0 99.5 63.5t31.5 160.5v227 q-65 -80 -174 -80q-169 0 -259.5 90.5t-90.5 226.5zM350 874q0 -52 37.5 -83t89.5 -31q59 0 97 23.5t38 52.5v292q0 38 -32.5 78.5t-83.5 40.5q-76 0 -110 -41.5t-34 -130.5q0 -8 -1 -100t-1 -101z" />
<glyph unicode=":" d="M98 0v256h256v-256h-256zM98 539v256h256v-256h-256z" />
<glyph unicode=";" d="M98 0v256h256v-262l-135 -107h-59l139 113h-201zM98 539v256h256v-256h-256z" />
<glyph unicode="=" horiz-adv-x="1077" d="M98 274v39h881v-39h-881zM98 561v39h881v-39h-881z" />
<glyph unicode="?" horiz-adv-x="921" d="M88 1038v97q0 145 103.5 234t267.5 89q166 0 270.5 -88.5t104.5 -234.5q0 -74 -25.5 -134t-61.5 -101.5t-72 -81.5t-61.5 -93.5t-25.5 -118.5v-190h-256v141q0 80 18 149.5t45 116t58.5 91.5t58.5 77.5t45 72t18 77.5q0 49 -33 80.5t-83 31.5q-48 0 -81.5 -42.5 t-33.5 -114.5v-58h-256zM332 0v256h256v-256h-256z" />
<glyph unicode="@" horiz-adv-x="1548" d="M88 717q0 152 56.5 288t153 233.5t231 154.5t284.5 57q123 0 240.5 -40.5t207 -109.5t144.5 -168.5t55 -209.5q0 -76 -28 -152q-45 -119 -157.5 -184.5t-266.5 -67.5l53 -264h-166l-43 264h-141l-43 -264h-160l192 936h168l131 -635q187 2 305.5 101.5t118.5 265.5 q0 136 -88.5 251t-228.5 178.5t-293 63.5q-190 0 -347.5 -92.5t-248 -252.5t-90.5 -353q0 -144 53.5 -273.5t145 -223t218.5 -148t269 -54.5q154 0 289 62.5t233 175.5h49q-101 -129 -251 -200.5t-320 -71.5q-150 0 -284.5 57t-231 154.5t-153 233.5t-56.5 288zM717 553h127 l-60 389h-4z" />
<glyph unicode="A" horiz-adv-x="948" d="M51 0l295 1434h256l295 -1434h-256l-51 334h-248l-49 -334h-242zM385 541h164l-78 514h-6z" />
<glyph unicode="B" horiz-adv-x="911" d="M98 0v1434h332q178 0 275.5 -95t97.5 -266q0 -97 -43 -182.5t-119 -116.5q219 -94 219 -364q0 -179 -101 -294.5t-280 -115.5h-381zM354 205h86q76 0 126 59t50 146q0 126 -47 194t-163 68h-52v-467zM354 889h13q92 0 137 16.5t60.5 51.5t15.5 108q0 164 -129 164h-97 v-340z" />
<glyph unicode="C" horiz-adv-x="923" d="M88 301v829q0 57 22 112t66 103t122 77.5t179 29.5q92 0 166.5 -29.5t118.5 -77.5t67 -103.5t23 -111.5v-112h-258v112q0 38 -33 77.5t-84 39.5q-61 0 -95 -38.5t-34 -78.5v-827q0 -40 34 -78.5t95 -38.5q51 0 84 39.5t33 77.5v113h258v-113q0 -56 -23 -111.5t-67 -103 t-118.5 -77t-166.5 -29.5q-101 0 -179 29t-122 77t-66 102t-22 111z" />
<glyph unicode="D" horiz-adv-x="968" d="M98 0v1434h463q108 0 191 -67t108 -171q21 -96 21 -172v-614q0 -84 -19.5 -156.5t-57.5 -130t-100.5 -90.5t-142.5 -33h-463zM354 205h154q129 0 129 205v614q0 205 -129 205h-154v-1024z" />
<glyph unicode="E" horiz-adv-x="796" d="M98 0v1434h619v-205h-363v-352h260v-205h-260v-467h391v-205h-647z" />
<glyph unicode="F" horiz-adv-x="765" d="M98 0v1434h617v-205h-361v-352h258v-205h-258v-672h-256z" />
<glyph unicode="G" horiz-adv-x="937" d="M88 301v829q0 58 21 112t64.5 102.5t121.5 78t180 29.5q92 0 166.5 -29.5t118.5 -77.5t67 -103.5t23 -111.5v-112h-258v112q0 38 -33 77.5t-84 39.5q-61 0 -95 -38.5t-34 -78.5v-827q0 -40 34 -78.5t95 -38.5q71 0 108.5 48t37.5 137v219h-144v205h373v-443 q0 -75 -23 -140.5t-67.5 -117.5t-117.5 -82t-167 -30q-82 0 -149 19.5t-110.5 51.5t-73 74t-42 85.5t-12.5 88.5z" />
<glyph unicode="H" horiz-adv-x="978" d="M98 0v1434h256v-557h271v557h256v-1434h-256v674h-271v-674h-256z" />
<glyph unicode="I" d="M98 0v1434h256v-1434h-256z" />
<glyph unicode="J" horiz-adv-x="737" d="M10 72l129 151q47 -37 111 -37q61 0 96 39t35 78v1131h258v-1133q0 -58 -21.5 -112t-65.5 -101.5t-122 -76.5t-180 -29q-80 0 -142.5 24.5t-97.5 65.5z" />
<glyph unicode="K" horiz-adv-x="954" d="M98 0v1434h256v-512h4l252 512h242l-346 -641l424 -793h-295l-262 551h-13l-6 -14v-537h-256z" />
<glyph unicode="L" horiz-adv-x="741" d="M98 0v1434h256v-1229h336v-205h-592z" />
<glyph unicode="M" horiz-adv-x="1220" d="M98 0v1434h346l164 -859h4l166 859h344v-1434h-256v883l-168 -883h-176l-164 883h-4v-883h-256z" />
<glyph unicode="N" horiz-adv-x="964" d="M98 0v1434h271l237 -795h4v795h256v-1434h-256l-252 821h-4v-821h-256z" />
<glyph unicode="O" horiz-adv-x="929" d="M88 305v828q0 46 12.5 90t41.5 86t71.5 73.5t109 50.5t148.5 19q92 0 165.5 -29t117 -76t66 -102t22.5 -112v-828q0 -57 -22.5 -112.5t-66 -103.5t-117 -77.5t-165.5 -29.5q-82 0 -148.5 19.5t-109 51.5t-71.5 75t-41.5 87t-12.5 90zM344 309q0 -43 33 -83t94 -40 q50 0 82.5 42t32.5 81v821q0 39 -32.5 80t-82.5 41q-60 0 -93.5 -39t-33.5 -77v-826z" />
<glyph unicode="P" horiz-adv-x="909" d="M98 0v1434h400q118 0 201 -55.5t121 -146.5t38 -208q0 -212 -107.5 -330.5t-261.5 -118.5q-8 0 -68.5 1.5t-68.5 1.5v-578h-254zM352 795h51q69 0 104.5 6t63 30t36.5 68.5t9 124.5q0 205 -129 205h-135v-434z" />
<glyph unicode="Q" horiz-adv-x="931" d="M88 301v829q0 57 21.5 112t65 103t120.5 77.5t178 29.5q92 0 165.5 -29.5t117 -77.5t66 -103t22.5 -112v-827q0 -72 -33 -137l111 -166h-207l-25 37q-86 -55 -217 -55q-81 0 -147.5 19.5t-110 51.5t-73 74t-42 85.5t-12.5 88.5zM344 307q0 -42 34.5 -81.5t94.5 -39.5 t98 62l-82 139h99v743q0 38 -32 77.5t-83 39.5q-60 0 -94.5 -38t-34.5 -76v-826z" />
<glyph unicode="R" horiz-adv-x="968" d="M98 0v1434h428q177 0 270 -114.5t93 -295.5q0 -153 -59 -258.5t-156 -153.5l270 -612h-266l-244 578h-82v-578h-254zM352 795h82q69 0 104 6t62.5 30t36 68.5t8.5 124.5q0 205 -127 205h-166v-434z" />
<glyph unicode="S" horiz-adv-x="897" d="M72 1133q0 145 104 232t270 87q163 0 267 -88.5t104 -230.5v-101h-256v60q0 72 -33.5 113.5t-81.5 41.5q-50 0 -82 -31.5t-32 -80.5q0 -50 14.5 -89.5t56.5 -87.5l256 -292q47 -54 70.5 -84.5t49.5 -76t36 -94t10 -110.5q0 -100 -52.5 -174t-137.5 -110.5t-189 -36.5 q-161 0 -266.5 86t-105.5 235v150h258v-134q0 -64 31.5 -97.5t82.5 -33.5q49 0 82 35t33 96q0 98 -84 195l-213 219q-13 15 -41.5 48.5t-37.5 44.5t-30 37.5t-27 38.5t-19.5 36t-17.5 41.5t-10 43t-7.5 52.5t-1.5 60z" />
<glyph unicode="T" horiz-adv-x="884" d="M51 1231v203h783v-203h-265v-1231h-256v1231h-262z" />
<glyph unicode="U" horiz-adv-x="952" d="M98 301v1133h256v-1131q0 -40 34 -78.5t95 -38.5q51 0 83 39.5t32 77.5v1131h256v-1133q0 -56 -22.5 -111t-66 -102.5t-117 -76.5t-165.5 -29q-101 0 -178 29t-120.5 76.5t-65 102t-21.5 111.5z" />
<glyph unicode="V" horiz-adv-x="1021" d="M51 1434h275l182 -1061h4l186 1061h273l-330 -1434h-272z" />
<glyph unicode="W" horiz-adv-x="1521" d="M51 1434h252l166 -1063h6l168 1063h250l166 -1063h6l168 1063h237l-288 -1434h-250l-170 846l-170 -846h-250z" />
<glyph unicode="X" horiz-adv-x="997" d="M51 0l316 717l-316 717h248l207 -476l194 476h246l-313 -717l313 -717h-246l-208 473l-193 -473h-248z" />
<glyph unicode="Y" horiz-adv-x="948" d="M51 1434h250l174 -693h4l166 693h252l-299 -877v-557h-248v557z" />
<glyph unicode="Z" horiz-adv-x="956" d="M72 0v256l522 973h-475v205h766l-2 -220l-549 -1009h520v-205h-782z" />
<glyph unicode="[" horiz-adv-x="524" d="M98 0v1434h328v-39h-168v-1356h168v-39h-328z" />
<glyph unicode="]" horiz-adv-x="526" d="M98 0v39h168v1356h-168v39h330v-1434h-330z" />
<glyph unicode="_" horiz-adv-x="860" d="M-10 -117h880v-39h-880v39z" />
<glyph unicode="a" horiz-adv-x="1009" d="M35 -96l293 1433l47 45l-293 -1421h250l-58 -57h-239zM129 0l295 1434h256l295 -1434h-256l-51 334h-248l-49 -334h-242zM444 236l9 57h184l47 -332h252l-57 -57h-256l-50 332h-129zM463 539h164l-78 514h-6zM508 588l37 231l37 -246h-72z" />
<glyph unicode="b" horiz-adv-x="974" d="M82 -98v1433l57 58v-1434h295h123q74 0 150 27q-100 -84 -244 -84h-381zM178 0v1434h332q178 0 275.5 -95.5t97.5 -269.5q0 -94 -44.5 -179t-117.5 -116q219 -95 219 -364q0 -178 -101.5 -294t-281.5 -116h-379zM434 207h86q76 0 126 58t50 145q0 127 -47.5 194.5 t-163.5 67.5h-51v-465zM434 889h12q92 0 136 15.5t59.5 49.5t15.5 105q0 168 -129 168h-94v-338zM471 561v72h14q92 0 132 -52.5t40 -172.5q0 -97 -61 -142q4 28 4 47q0 207 -129 248zM471 1126v62h57q52 0 72.5 -31t20.5 -94q0 -31 -1.5 -48t-7 -35.5t-18 -28.5t-33.5 -15 v29q0 141 -90 161z" />
<glyph unicode="c" horiz-adv-x="960" d="M72 207v825q0 116 75 199q-18 -49 -18 -103v-827q0 -69 26 -132t76 -114.5t134 -82.5t190 -31q89 0 162 26q-101 -84 -258 -84q-102 0 -180 29.5t-121.5 78t-64.5 103.5t-21 113zM168 303v827q0 46 12.5 90t42 86.5t73 74.5t110.5 51.5t149 19.5q93 0 167 -29.5t118 -77 t67 -103t23 -112.5v-110h-258v108q0 38 -33 78.5t-84 40.5q-61 0 -94 -39.5t-33 -79.5v-823q0 -40 33 -79.5t94 -39.5q51 0 84 40.5t33 78.5v109h258v-111q0 -57 -23 -112.5t-67 -103t-118 -76.5t-167 -29q-102 0 -180 29t-121.5 77t-64.5 102.5t-21 112.5zM469 1149 q23 57 86 57q34 0 56 -28t22 -52v-147h258l-57 -57h-259v108q0 38 -29 76.5t-77 42.5zM575 225v92l58 58v-72q0 -18 -16 -43.5t-42 -34.5z" />
<glyph unicode="d" horiz-adv-x="1028" d="M82 -98v1433h57v-1374h295h205q49 0 102 16q-85 -75 -198 -75h-461zM178 0v1434h461q108 0 191 -67.5t108 -172.5q18 -80 18 -170v-614q0 -114 -32 -204t-105.5 -148t-179.5 -58h-461zM434 207h152q73 0 101 53.5t28 149.5v614q0 96 -28 149.5t-101 53.5h-152v-1020z M471 1130v60h115q43 0 66.5 -34t23.5 -134v-614q0 -143 -62 -164q4 46 4 69v613q0 98 -27.5 151t-98.5 53h-21z" />
<glyph unicode="e" horiz-adv-x="825" d="M82 -98v1433h57v-1374h590v-59h-647zM178 0v1434h619v-207h-363v-350h258v-205h-258v-465h391v-207h-647zM471 575v58h127v-58h-127zM471 1130v60h229v-60h-229z" />
<glyph unicode="f" horiz-adv-x="792" d="M82 -98v1433h57v-1374h197v-59h-254zM176 0v1434h256h361v-207h-361v-350h258v-205h-258v-672h-256zM469 575v58h125v-58h-125zM469 1130v60h229v-60h-229z" />
<glyph unicode="g" horiz-adv-x="999" d="M72 207v825q0 119 71 201q-14 -61 -14 -105v-827q0 -69 26 -131.5t76 -114t134 -82t190 -30.5q86 0 154 22q-99 -82 -250 -82q-102 0 -180 29.5t-121.5 78t-64.5 103.5t-21 113zM166 303v827q0 58 21.5 112.5t65.5 103t122 77.5t180 29q92 0 165.5 -29.5t117.5 -77 t67 -103t23 -112.5v-110h-258v108q0 38 -32 78.5t-83 40.5q-61 0 -96 -39.5t-35 -79.5v-823q0 -40 35 -79.5t96 -39.5q70 0 106.5 49t36.5 138v217h-143v205h373v-443q0 -74 -23 -139.5t-67 -117.5t-117 -82.5t-166 -30.5q-102 0 -180 29t-122 77t-65.5 102.5t-21.5 112.5z M463 492v204h55v-147h144v-178q0 -113 -62 -140q4 24 4 43v218h-141zM467 1149q7 23 29.5 41t58.5 18q34 0 56 -29t22 -53v-147h201v-57h-259v108q0 37 -30.5 76t-77.5 43z" />
<glyph unicode="h" horiz-adv-x="1040" d="M82 -98v1433h57v-1376h199v-57h-256zM176 0v1434h256v-557h270v557h256v-1434h-256v672h-270v-672h-256zM471 575v58h193v-674h198v-57h-256v673h-135zM606 913v422h58v-422h-58z" />
<glyph unicode="i" horiz-adv-x="514" d="M82 -98v1433h57v-1374h199v-59h-256zM176 0v1434h256v-1434h-256z" />
<glyph unicode="j" horiz-adv-x="798" d="M-6 -25l63 76l2 -4q43 -49 114.5 -76.5t156.5 -27.5q103 0 182 28q-105 -88 -279 -88q-78 0 -140.5 25.5t-98.5 66.5zM90 74l127 151q49 -39 113 -39q60 0 94.5 40t34.5 79v1129h258v-1131q0 -58 -21.5 -112.5t-65 -102.5t-121.5 -77t-179 -29q-80 0 -143 25.5t-97 66.5z M362 229v1106h58v-1032q0 -17 -15 -41t-43 -33z" />
<glyph unicode="k" horiz-adv-x="1017" d="M82 -98v1433h57v-1376h199v-57h-256zM176 0v1434h256v-512h6l250 512h244l-344 -639l422 -795h-295l-262 549h-13l-8 -10v-539h-256zM471 213v209l219 -463h193l30 -57h-292z" />
<glyph unicode="l" horiz-adv-x="802" d="M82 -98v1433h57v-1376h533v-57h-590zM176 0v1434h256v-1229h336v-205h-592z" />
<glyph unicode="m" horiz-adv-x="1282" d="M82 -98v1433h59v-1376h197v-57h-256zM178 0v1434h346l164 -859h4l164 859h344v-1434h-256v885l-166 -885h-178l-162 885h-4v-885h-256zM471 80v407l98 -528h125l-10 -57h-180zM670 864l90 471h39l-109 -573zM850 -98v270l57 315v-528h199v-57h-256z" />
<glyph unicode="n" horiz-adv-x="1026" d="M82 -98v1433h57v-1376h199v-57h-256zM176 0v1434h270l238 -797h4v797h256v-1434h-256l-252 819h-4v-819h-256zM471 301v277l188 -619h191v-57h-256zM594 1069v266h57v-461z" />
<glyph unicode="o" horiz-adv-x="993" d="M72 205v827q0 121 71 203q-14 -61 -14 -107v-827q0 -69 25.5 -132t75 -114.5t132.5 -82.5t189 -31q78 0 162 24q-99 -82 -256 -82q-102 0 -179.5 29.5t-120.5 78t-64 102.5t-21 112zM168 301v829q0 58 21 112t63.5 102.5t120 78t178.5 29.5q92 0 165.5 -29.5t117 -77.5 t66 -103t22.5 -112v-827q0 -56 -22.5 -111.5t-66 -103t-117 -77t-165.5 -29.5q-82 0 -148.5 19.5t-109 51.5t-71.5 74t-41.5 85.5t-12.5 88.5zM424 307q0 -43 33 -82t94 -39q50 0 82.5 41t32.5 80v823q0 38 -32 77.5t-83 39.5q-61 0 -94 -38t-33 -76v-826zM465 1151 q7 22 29.5 39.5t56.5 17.5t56 -28t22 -52v-823q0 -18 -16.5 -45t-41.5 -35v807q0 37 -29.5 75t-76.5 44z" />
<glyph unicode="p" horiz-adv-x="980" d="M82 -98v1433h57v-1374h199v-59h-256zM178 0v1434h400q177 0 269.5 -114.5t92.5 -295.5q0 -108 -31 -195t-83 -141.5t-117.5 -83.5t-137.5 -29q-113 0 -137 3v-578h-256zM434 795h51q55 0 85.5 4t58.5 16t40.5 37.5t19.5 66.5t7 105q0 95 -28.5 149t-98.5 54h-135v-432z M471 479v58h45h38h27t25.5 1t19.5 2.5t22 4t21 5t27 7.5q-97 -78 -225 -78zM471 1190h98q41 0 64.5 -34.5t23.5 -133.5q0 -95 -12.5 -133.5t-48.5 -48.5q4 23 4 86q0 96 -28 150t-99 54z" />
<glyph unicode="q" horiz-adv-x="993" d="M72 207v825q0 117 75 203q-18 -55 -18 -107v-827q0 -69 25.5 -131.5t75.5 -114t133 -82t188 -30.5q116 0 203 43l14 -27h98l39 -57h-211l-20 39q-91 -58 -217 -58q-101 0 -178 29.5t-120.5 78t-65 103.5t-21.5 113zM168 303v827q0 46 12.5 90t41.5 86.5t72 74.5 t109.5 51.5t147.5 19.5q92 0 165.5 -29.5t117 -77t66 -103t22.5 -112.5v-827q0 -73 -33 -135l110 -168h-208l-23 39q-90 -57 -217 -57q-101 0 -178 29t-120 77t-64 102.5t-21 112.5zM424 309q0 -43 33 -83t94 -40q60 0 98 62l-80 139h97v743q0 38 -32 78.5t-83 40.5 q-61 0 -94 -38.5t-33 -77.5v-824zM465 1149q24 59 86 59q34 0 55 -29t21 -53v-702h-58v606q0 38 -28.5 76.5t-75.5 42.5zM473 291h96v14l33 -57q-22 -27 -51 -27q-26 0 -45 15z" />
<glyph unicode="r" horiz-adv-x="1032" d="M82 -98v1433h57v-1374h199v-59h-256zM178 0v1434h428q177 0 270 -114.5t93 -295.5q0 -153 -59 -258.5t-156 -153.5l270 -612h-266l-244 575q-22 0 -50 1.5t-30 1.5v-578h-256zM434 795h80q55 0 85.5 4t58.5 16t40.5 37.5t19.5 66.5t7 105q0 95 -28.5 149t-98.5 54h-164 v-432zM471 352v185h18l244 -578h170l25 -57h-264zM471 1130v60h127q41 0 64.5 -34.5t23.5 -133.5q0 -95 -12.5 -133.5t-48.5 -48.5q4 23 4 86q0 96 -28 150t-99 54h-31z" />
<glyph unicode="s" horiz-adv-x="993" d="M72 1032q0 119 71 203q-14 -58 -14 -107q0 -101 22 -172t60.5 -122.5t120.5 -133.5l211 -213q75 -78 75 -172q0 -36 -15.5 -60t-41.5 -30q-3 96 -82 191l-16 14v59h-57l-144 144q-62 62 -93 98t-56 82.5t-33 95.5t-8 123zM74 207v147h59v-53q0 -161 112.5 -260.5 t295.5 -99.5q94 0 176 28q-109 -86 -271 -86q-161 0 -266.5 86t-105.5 238zM168 1130q0 145 104.5 233.5t268.5 88.5t267 -89t103 -233v-98h-256v58q0 74 -33 116.5t-81 42.5t-82.5 -32.5t-34.5 -79.5q0 -51 16.5 -90t59.5 -89l256 -294q91 -102 128.5 -174t37.5 -187 q0 -149 -110 -235t-271 -86q-160 0 -265.5 85.5t-105.5 235.5v150h254v-136q0 -62 33.5 -96.5t83.5 -34.5q49 0 81.5 35.5t32.5 95.5q0 115 -82 197l-215 215q-62 62 -93 98.5t-56 83t-33 96t-8 123.5zM465 1149q6 26 27 42.5t49 16.5q35 0 56 -33t21 -88v-94h199v-57h-250 l-6 6v51q0 65 -27 106.5t-69 49.5z" />
<glyph unicode="t" horiz-adv-x="913" d="M35 1133v204h57v-147h264v-1229h197v-57h-256v1229h-262zM131 1229v205h782v-205h-264v-1229h-256v1229h-262zM688 1133v57h129v-57h-129z" />
<glyph unicode="u" horiz-adv-x="1013" d="M82 205v1130h57v-1034q0 -69 25.5 -132t75 -114.5t132.5 -82.5t189 -31q86 0 162 26q-101 -84 -256 -84q-102 0 -179.5 29t-120.5 77.5t-64 103t-21 112.5zM178 301v1133h256v-1131q0 -39 33 -78t94 -39q50 0 82.5 40t32.5 77v1131h256v-1133q0 -56 -22.5 -110.5 t-66 -102t-117 -77t-165.5 -29.5q-82 0 -148.5 19.5t-109 51.5t-71.5 74t-41.5 85.5t-12.5 88.5zM582 225v1110h57v-1034q0 -18 -16 -43t-41 -33z" />
<glyph unicode="v" horiz-adv-x="1085" d="M35 1337h78l305 -1376h221l-14 -57h-273zM131 1434h275l182 -1061h4l186 1061h273l-330 -1434h-272zM569 694l113 643h41l-131 -762z" />
<glyph unicode="w" horiz-adv-x="1587" d="M35 1335h78l276 -1376h199l-10 -57h-254zM131 1434h252l166 -1061h4l170 1061h252l166 -1061h6l168 1061h237l-288 -1434h-252l-170 846l-170 -846h-252zM530 731l99 604h41l-119 -739zM805 463l37 188l137 -692h201l-13 -57h-249zM1122 731l97 604h43l-119 -739z" />
<glyph unicode="x" horiz-adv-x="1058" d="M35 -98l313 716l-313 717h96l272 -620l-329 -756h231l-24 -57h-246zM131 0l313 717l-313 717h246l209 -476l192 476h246l-315 -717l315 -717h-246l-209 473l-192 -473h-246zM526 262l45 113l183 -416h149l27 -57h-248z" />
<glyph unicode="y" horiz-adv-x="1009" d="M35 1335h88l266 -786v-590h191v-57h-248v557zM129 1434h252l174 -691l168 691h252l-301 -877v-557h-246v557zM537 961l90 374h35l-107 -442z" />
<glyph unicode="z" horiz-adv-x="974" d="M35 -98v258l57 106v-307h725v-57h-782zM82 1133v202h57v-145h451l-31 -57h-477zM131 0v258l520 971h-473v205h762v-217l-549 -1012h520v-205h-780z" />
<glyph unicode="&#xa3;" horiz-adv-x="978" d="M88 0v205q33 0 40.5 84t5.5 308q-1 114 -1 179h-45v39h45v318q0 145 105 233t270 88q163 0 267 -89.5t104 -231.5v-101h-256v60q0 72 -33 113.5t-82 41.5q-48 0 -81.5 -31.5t-33.5 -80.5v-320h223v-39h-223v-360q0 -57 -12 -134t-31 -77h541v-205h-803z" />
<glyph unicode="&#xa5;" horiz-adv-x="915" d="M35 1434h252l172 -691h4l166 691h252l-299 -875h243v-39h-243v-166h243v-39h-243v-315h-246v315h-246v39h246v166h-246v39h246z" />
<glyph unicode="&#xad;" horiz-adv-x="694" d="M98 418v39h498v-39h-498z" />
<glyph unicode="&#x2000;" horiz-adv-x="774" />
<glyph unicode="&#x2001;" horiz-adv-x="1548" />
<glyph unicode="&#x2002;" horiz-adv-x="774" />
<glyph unicode="&#x2003;" horiz-adv-x="1548" />
<glyph unicode="&#x2004;" horiz-adv-x="516" />
<glyph unicode="&#x2005;" horiz-adv-x="387" />
<glyph unicode="&#x2006;" horiz-adv-x="258" />
<glyph unicode="&#x2007;" horiz-adv-x="258" />
<glyph unicode="&#x2008;" horiz-adv-x="193" />
<glyph unicode="&#x2009;" horiz-adv-x="309" />
<glyph unicode="&#x200a;" horiz-adv-x="86" />
<glyph unicode="&#x2010;" horiz-adv-x="694" d="M98 418v39h498v-39h-498z" />
<glyph unicode="&#x2011;" horiz-adv-x="694" d="M98 418v39h498v-39h-498z" />
<glyph unicode="&#x2012;" horiz-adv-x="694" d="M98 418v39h498v-39h-498z" />
<glyph unicode="&#x2013;" horiz-adv-x="694" d="M98 418v39h498v-39h-498z" />
<glyph unicode="&#x2014;" horiz-adv-x="1077" d="M98 418v39h881v-39h-881z" />
<glyph unicode="&#x2018;" d="M98 1178v262l135 108h60l-141 -114h202v-256h-256z" />
<glyph unicode="&#x2019;" d="M98 1178v256h256v-263l-135 -108h-59l141 115h-203z" />
<glyph unicode="&#x201c;" horiz-adv-x="804" d="M98 1178v262l133 108h62l-141 -114h202v-256h-256zM451 1178v262l133 108h61l-141 -114h203v-256h-256z" />
<glyph unicode="&#x201d;" horiz-adv-x="804" d="M98 1178v256h256v-263l-133 -108h-61l141 115h-203zM451 1178v256h256v-263l-134 -108h-61l141 115h-202z" />
<glyph unicode="&#x202f;" horiz-adv-x="309" />
<glyph unicode="&#x205f;" horiz-adv-x="387" />
<glyph unicode="&#x20ac;" horiz-adv-x="980" d="M88 594v39h43v168h-43v39h43v290q0 58 21 112t64.5 102.5t121.5 78t180 29.5q92 0 166.5 -29.5t118.5 -77.5t67 -103.5t23 -111.5v-112h-258v112q0 38 -32.5 77.5t-84.5 39.5q-61 0 -94 -38.5t-33 -78.5v-290h240v-39h-240v-168h240v-39h-240v-291q0 -40 33 -78.5 t94 -38.5q52 0 84.5 39.5t32.5 77.5v113h258v-113q0 -56 -23 -111.5t-67 -103t-118.5 -77t-166.5 -29.5q-82 0 -149 19.5t-110.5 51.5t-73 74.5t-42 86.5t-12.5 89v291h-43z" />
<glyph unicode="&#x25fc;" horiz-adv-x="1433" d="M0 0v1434h1434v-1434h-1434z" />
</font>
</defs>
</svg>
