<?xml version="1.0" standalone="no"?>
<!DOCTYPE svg PUBLIC "-//W3C//DTD SVG 1.1//EN" "http://www.w3.org/Graphics/SVG/1.1/DTD/svg11.dtd" >
<svg xmlns="http://www.w3.org/2000/svg" xmlns:xlink="http://www.w3.org/1999/xlink" version="1.1">
<metadata></metadata>
<defs>
<font id="brandon_grotesquebold" horiz-adv-x="1357" >
<font-face units-per-em="2048" ascent="1434" descent="-614" />
<missing-glyph horiz-adv-x="452" />
<glyph unicode="&#xfb01;" horiz-adv-x="1140" d="M63 643v137q0 39 39 39h70v223q0 184 114.5 298t288.5 114q156 0 314 -88q33 -18 12 -53l-70 -129q-18 -37 -55 -19q-115 57 -198 58q-61 0 -105.5 -47.5t-44.5 -135.5v-221h551q16 0 27.5 -11t11.5 -28v-741q0 -14 -11.5 -26.5t-27.5 -12.5h-170q-16 0 -27.5 11.5 t-11.5 27.5v565h-342v-565q0 -39 -78 -39h-139q-14 0 -26.5 12.5t-12.5 26.5v565h-70q-16 0 -27.5 11.5t-11.5 27.5z" />
<glyph unicode="&#xfb02;" horiz-adv-x="1167" d="M59 643v135q0 16 11.5 28.5t27.5 12.5h74v223q0 193 115.5 302.5t287.5 109.5q80 0 153 -28.5t108 -57.5l32 -29l23 58q16 37 49 37h66q14 0 26 -12.5t12 -26.5v-1356q0 -14 -12 -26.5t-26 -12.5h-172q-14 0 -26.5 12.5t-12.5 26.5v1081q-10 14 -31 34t-69 43.5t-97 23.5 q-72 0 -122 -45.5t-50 -135.5v-221h172q16 0 27.5 -11t11.5 -28v-135q0 -14 -11.5 -26.5t-27.5 -12.5h-172v-567q0 -14 -12.5 -26.5t-26.5 -12.5h-178q-14 0 -25.5 11.5t-11.5 27.5v567h-74q-16 0 -27.5 10.5t-11.5 26.5z" />
<glyph horiz-adv-x="0" />
<glyph unicode="&#xd;" horiz-adv-x="681" />
<glyph unicode=" "  horiz-adv-x="452" />
<glyph unicode="&#x09;" horiz-adv-x="452" />
<glyph unicode="&#xa0;" horiz-adv-x="452" />
<glyph unicode="!" horiz-adv-x="634" d="M150 147.5q0 69.5 49 119.5t116 50q70 0 120 -50t50 -119.5t-50 -118.5t-120 -49q-68 0 -116.5 49t-48.5 118.5zM166 1161v234q0 14 11 26.5t28 12.5h225q16 0 27.5 -12.5t11.5 -26.5v-230l-80 -575q-2 -12 -13 -22.5t-26 -10.5h-65q-14 0 -25.5 10.5t-13.5 22.5z" />
<glyph unicode="&#x22;" horiz-adv-x="702" d="M74 1065v330q0 14 12 26.5t27 12.5h163q20 0 31.5 -15.5t5.5 -36.5l-84 -325q-8 -31 -36 -31h-80q-14 0 -26.5 11.5t-12.5 27.5zM424 1065v330q0 14 11 26.5t28 12.5h164q20 0 31.5 -15.5t5.5 -36.5l-84 -325q-8 -31 -37 -31h-80q-16 0 -27.5 11.5t-11.5 27.5z" />
<glyph unicode="#" horiz-adv-x="1101" d="M76 424v29q0 39 39 39h159l48 335h-148q-14 0 -26.5 12.5t-12.5 26.5v29q0 14 12.5 26.5t26.5 12.5h162l65 467q2 12 12.5 22.5t24.5 10.5h29q16 0 27.5 -13.5t9.5 -31.5l-62 -455h324l68 467q2 12 13 22.5t25 10.5h25q18 0 29.5 -13.5t9.5 -31.5l-66 -455h131 q16 0 27.5 -11.5t11.5 -27.5v-29q0 -16 -11 -27.5t-28 -11.5h-145l-47 -335h133q16 0 27.5 -11.5t11.5 -27.5v-29q0 -14 -11.5 -26.5t-27.5 -12.5h-149l-45 -352q-4 -33 -39 -33h-27q-18 0 -29.5 13.5t-9.5 31.5l45 340h-326l-47 -352q-4 -33 -39 -33h-24q-20 0 -31.5 13.5 t-7.5 31.5l47 340h-145q-16 0 -27.5 11.5t-11.5 27.5zM379 492h326l45 335h-324z" />
<glyph unicode="$" horiz-adv-x="1075" d="M78 1063q0 156 104.5 264.5t304.5 124.5v66q0 16 11.5 27t27.5 11h27q16 0 27.5 -11t11.5 -27v-68q193 -14 356 -133q16 -10 19.5 -30.5t-6.5 -37.5q-6 -8 -18.5 -28.5t-21 -31.5t-21.5 -30.5t-21.5 -28t-22.5 -19.5t-22.5 -8t-20.5 5q-2 0 -38 22.5t-87 48t-96 40.5 v-369q82 -35 143.5 -68.5t132 -89t108.5 -134.5t38 -173q0 -172 -111.5 -281.5t-314.5 -121.5v-213q0 -37 -41 -37q-63 0 -64 37v213q-242 18 -389 157q-31 31 -10 62q6 10 17.5 29.5t19.5 34t18.5 31.5t20.5 28.5t21.5 19.5t23.5 7t24 -9q127 -96 254 -127q0 68 1 197 t1 196q-86 35 -146 67t-126 85t-100.5 130t-34.5 173zM328 1092q-1 -115 153 -197v330q-74 -8 -113.5 -46t-39.5 -87zM592 203q68 10 110.5 52t42.5 101q0 115 -153 205v-358z" />
<glyph unicode="%" horiz-adv-x="1355" d="M45 1177.5q0 114.5 81 195.5t195.5 81t195.5 -81t81 -195.5t-81 -195.5t-195.5 -81t-195.5 81t-81 195.5zM213 55l702 1358q10 20 35 21h103q23 0 34 -17.5t0 -38.5l-706 -1358q-10 -20 -35 -20h-98q-23 0 -34 17.5t-1 37.5zM221 1178q0 -41 30 -71t70.5 -30t69.5 30 t29 71q0 39 -30 68.5t-68 29.5q-41 0 -71 -28.5t-30 -69.5zM719 256q0 115 81 195.5t195.5 80.5t196.5 -80.5t82 -195.5t-82 -195.5t-196.5 -80.5t-195.5 80.5t-81 195.5zM895 256q0 -41 29.5 -70.5t70.5 -29.5t71 29.5t30 70.5q0 39 -30 68.5t-71 29.5t-70.5 -28.5 t-29.5 -69.5z" />
<glyph unicode="&#x26;" horiz-adv-x="1411" d="M152 365q0 43 8 83.5t23.5 74.5t32.5 62.5t42 54.5t43 44t44 35.5t39 27t32 19.5l18 10v4l-43 47q-141 150 -139 295q0 129 103.5 230.5t283.5 101.5q170 0 278.5 -96t108.5 -238q0 -59 -20.5 -114.5t-56.5 -98.5t-65.5 -71.5t-66.5 -57t-41 -30.5l236 -238 q51 100 73 227q6 35 20.5 48.5t47.5 2.5l113 -32q49 -12 34 -80q-39 -162 -126 -326l182 -172q16 -16 22 -25.5t1 -28t-27 -40.5l-84 -86q-43 -41 -90 6l-148 150q-29 -33 -73 -67t-148 -70.5t-225 -36.5q-190 0 -311 112.5t-121 272.5zM395 391q0 -84 61.5 -138t153.5 -54 q158 0 264 120l-305 324l-16 -8q-16 -10 -25.5 -16.5t-28 -20.5t-30.5 -27.5t-27.5 -33t-24.5 -41t-15.5 -49t-6.5 -56.5zM479 1122q0 -33 16.5 -67.5t33 -53t57.5 -63.5l45 -45l16 8q14 10 23.5 15.5t28 18.5t30.5 24.5t27.5 29t26 34.5t16.5 39.5t6 45.5q0 61 -48 107.5 t-126 46.5q-70 0 -111 -40t-41 -100z" />
<glyph unicode="'" horiz-adv-x="352" d="M74 1065v330q0 14 12 26.5t27 12.5h163q20 0 31.5 -15.5t5.5 -36.5l-84 -325q-8 -31 -36 -31h-80q-14 0 -26.5 11.5t-12.5 27.5z" />
<glyph unicode="(" horiz-adv-x="700" d="M88 645q0 229 45 393t123 249t160 122t180 43q16 2 27.5 -7t11.5 -24l6 -135q2 -12 -6 -23.5t-19 -13.5q-145 -39 -210.5 -189.5t-65.5 -414.5t64.5 -413.5t211.5 -188.5q29 -6 25 -39l-6 -133q-4 -33 -39 -33q-98 6 -180 44t-160 122t-123 248t-45 393z" />
<glyph unicode=")" horiz-adv-x="702" d="M59 4q-4 33 25 39q147 39 211.5 188.5t64.5 413.5t-65.5 414.5t-210.5 189.5q-10 2 -18.5 13.5t-6.5 23.5l7 135q0 14 11 23.5t27 7.5q98 -6 180.5 -43t160 -122t122.5 -249t45 -393t-45 -393t-122.5 -248t-159.5 -122t-181 -44q-35 0 -38 33z" />
<glyph unicode="*" horiz-adv-x="716" d="M53 1253q6 10 18.5 27.5t20.5 28t23.5 13.5t27.5 -5l148 -103l-4 181q0 14 12 26.5t27 12.5h65q14 0 26.5 -12.5t12.5 -26.5l-4 -181l147 105q33 20 54 -10l35 -56q23 -35 -11 -55l-170 -102l170 -105q33 -20 13 -53l-39 -55q-18 -33 -52 -13l-147 103l4 -176 q0 -14 -12 -26.5t-27 -12.5h-65q-14 0 -26.5 12t-12.5 27l4 178l-148 -103q-12 -8 -28.5 -5t-24.5 16l-35 55q-23 33 11 55l170 103l-170 102q-31 20 -13 55z" />
<glyph unicode="+" horiz-adv-x="1146" d="M131 651v115q0 16 12.5 27.5t26.5 11.5h307v309q0 14 11.5 25.5t27.5 11.5h115q16 0 27.5 -11.5t11.5 -25.5v-309h309q14 0 25.5 -11.5t11.5 -27.5v-115q0 -16 -11.5 -27.5t-25.5 -11.5h-309v-305q0 -14 -11.5 -25.5t-27.5 -11.5h-115q-16 0 -27.5 11.5t-11.5 25.5v305 h-307q-14 0 -26.5 11.5t-12.5 27.5z" />
<glyph unicode="," horiz-adv-x="530" d="M74 145q0 70 51 120t129 50q80 0 143.5 -65.5t63.5 -202.5q0 -166 -75 -278.5t-159 -163.5q-29 -18 -51 4l-31 33q-25 29 9 55l10 8q12 10 20.5 18.5l21.5 21.5t24.5 28.5t25.5 34t24.5 39t18.5 44t13 50t5 55.5l-4 -2q-4 -2 -11 -4t-16.5 -4t-21.5 -4t-24 -2 q-68 0 -117 48.5t-49 116.5z" />
<glyph unicode="-" horiz-adv-x="755" d="M111 430v137q0 39 39 39h456q39 0 39 -39v-137q0 -16 -11 -26.5t-28 -10.5h-456q-16 0 -27.5 10.5t-11.5 26.5z" />
<glyph unicode="." horiz-adv-x="481" d="M72 147.5q0 69.5 49 119.5t118.5 50t120 -50t50.5 -119.5t-50.5 -118.5t-120 -49t-118.5 49t-49 118.5z" />
<glyph unicode="/" horiz-adv-x="722" d="M59 51l402 1356q8 27 37 27h147q23 0 33 -15.5t4 -36.5l-399 -1355q-8 -27 -37 -27h-150q-20 0 -31.5 15.5t-5.5 35.5z" />
<glyph unicode="0" horiz-adv-x="1282" d="M125 696q0 338 135 527.5t381 189.5t381 -189.5t135 -527.5t-135 -527t-381 -189t-381 189t-135 527zM393 696q0 -229 64.5 -352t183.5 -123t183.5 123t64.5 352q0 227 -64.5 351t-183.5 124t-183.5 -123.5t-64.5 -351.5z" />
<glyph unicode="1" horiz-adv-x="731" d="M55 1108q-2 25 11 37l294 248h144q14 0 25.5 -11.5t11.5 -27.5v-1315q0 -16 -11.5 -27.5t-25.5 -11.5h-176q-16 0 -27.5 11.5t-11.5 27.5v981l-180 -39q-14 -4 -26.5 4t-14.5 23z" />
<glyph unicode="2" horiz-adv-x="1060" d="M63 39v47q195 236 531 682q104 129 104 227q0 76 -56 131.5t-161 55.5q-119 0 -229 -121q-27 -29 -55 0l-99 98q-27 27 -2 53q6 8 18.5 21.5t53.5 48.5t85 61.5t111.5 48t135.5 21.5q211 0 333.5 -116.5t122.5 -290.5q0 -63 -20.5 -123t-44 -99t-72.5 -110 q-61 -86 -352 -455h442q16 0 27.5 -11t11.5 -28v-141q0 -14 -11 -26.5t-28 -12.5h-807q-16 0 -27.5 11.5t-11.5 27.5z" />
<glyph unicode="3" horiz-adv-x="1069" d="M74 162q-20 25 2 51l104 100q29 25 53 0q6 -8 39 -32.5t95.5 -51t117.5 -26.5q86 0 151.5 55t65.5 137q0 84 -74.5 143.5t-207.5 59.5h-115q-39 0 -39 41v129q0 41 39 41h115q121 0 187.5 53t66.5 135t-59.5 135.5t-139.5 53.5q-123 0 -207 -99q-25 -29 -55 -2l-100 95 q-29 25 0 53q6 8 18 19.5t51 43t81 55t106.5 43t128.5 19.5q184 0 310 -103.5t126 -271.5q0 -109 -65.5 -195.5t-145.5 -123.5v-6q94 -39 171 -125t77 -209q0 -174 -130 -286.5t-341 -112.5q-272 0 -426 182z" />
<glyph unicode="4" horiz-adv-x="1222" d="M33 336v170l737 897q12 12 31 12h110q16 0 27.5 -11t11.5 -28v-872h164q16 0 27.5 -10.5t11.5 -26.5v-127q0 -16 -11.5 -27.5t-27.5 -11.5h-164l2 -262q0 -14 -11 -26.5t-28 -12.5h-170q-14 0 -26 12.5t-12 26.5v258h-633q-16 0 -27.5 11t-11.5 28zM303 510h410v491z" />
<glyph unicode="5" horiz-adv-x="1081" d="M113 219l102 100q27 23 49 3q12 -12 41 -34t95.5 -51.5t127.5 -29.5q102 0 170 71.5t68 170.5q0 100 -65.5 164.5t-182.5 64.5h-315q-29 0 -46.5 22.5t-17.5 49.5v604q0 16 11.5 27.5t27.5 11.5h647q16 0 27.5 -11.5t11.5 -27.5v-140q0 -16 -11 -27t-28 -11h-454v-273 h176q215 0 342 -126t127 -328q0 -195 -143.5 -332t-352.5 -137q-145 0 -247.5 53.5t-155.5 116.5q-35 39 -4 69z" />
<glyph unicode="6" horiz-adv-x="1103" d="M88 545q0 170 55.5 316.5t133 239.5t179 169t174 110.5t140.5 57.5q45 12 57 -29l47 -121q18 -43 -36 -59q-45 -14 -104.5 -44t-132.5 -78t-132 -121t-82 -150q98 57 234 57q166 0 291.5 -119t125.5 -325q0 -193 -137 -331t-326 -138q-231 0 -359 161.5t-128 403.5z M334 514q0 -117 62 -209t177 -92q96 0 165 70.5t69 169t-68.5 169t-167.5 70.5q-92 0 -154.5 -55t-82.5 -123z" />
<glyph unicode="7" horiz-adv-x="991" d="M61 1210v144q0 14 12.5 26.5t26.5 12.5h852q14 0 26.5 -12.5t12.5 -26.5v-15l-610 -1284q-25 -55 -70 -55h-151q-51 0 -51 39v22l532 1110h-541q-14 0 -26.5 12.5t-12.5 26.5z" />
<glyph unicode="8" horiz-adv-x="1161" d="M96 373q0 115 87 210t161 132v6q-80 43 -145.5 126t-65.5 191q0 168 127 271.5t318 103.5q195 0 323.5 -103.5t128.5 -271.5q0 -104 -64.5 -186t-146.5 -129v-8q92 -47 170 -136.5t78 -205.5q0 -170 -134 -281.5t-355 -111.5q-217 0 -349.5 111.5t-132.5 281.5zM369 377 q0 -82 63.5 -135.5t149.5 -53.5q88 0 150.5 53.5t62.5 135.5q0 72 -57.5 133t-155.5 84q-98 -23 -155.5 -84t-57.5 -133zM395 1028q1 -149 187 -194q92 20 139 72t47 122q0 74 -55.5 124t-134.5 50q-74 0 -128.5 -50t-54.5 -124z" />
<glyph unicode="9" horiz-adv-x="1103" d="M66 956q0 193 137 331t325 138q231 0 359.5 -161.5t128.5 -403.5q0 -170 -55.5 -316.5t-133 -239.5t-179 -169t-174.5 -110.5t-140 -57.5q-45 -12 -58 29l-47 121q-18 43 37 59q45 14 104.5 44t132 78t132 121t82.5 150q-98 -57 -234 -57q-166 0 -291.5 119t-125.5 325z M297 952.5q0 -98.5 68.5 -169t166.5 -70.5q92 0 155 55t83 123q0 117 -62.5 209t-177.5 92q-96 0 -164.5 -70.5t-68.5 -169z" />
<glyph unicode=":" horiz-adv-x="548" d="M127 127q0 61 43 104t104.5 43t104.5 -43t43 -104t-43 -104t-104.5 -43t-104.5 43t-43 104zM127 692.5q0 61.5 43 104.5t104.5 43t104.5 -43t43 -104.5t-43 -104.5t-104.5 -43t-104.5 43t-43 104.5z" />
<glyph unicode=";" horiz-adv-x="505" d="M96 692.5q0 61.5 43 104.5t104.5 43t104.5 -43t43 -104.5t-43 -104.5t-104.5 -43t-104.5 43t-43 104.5zM104 117q0 55 42 96t104 41q66 0 118 -53.5t52 -167.5q0 -207 -184 -371q-27 -18 -48 2l-28 31q-23 23 4 45q20 14 47 39.5t59.5 86t32.5 124.5l-8 -2 q-10 -4 -24.5 -6t-28.5 -2q-57 0 -97.5 40t-40.5 97z" />
<glyph unicode="&#x3c;" horiz-adv-x="892" d="M39 465v10q0 23 20 35l711 434q20 12 38.5 2t18.5 -35v-143q0 -18 -18 -33l-440 -262l440 -254q18 -14 18 -33v-143q0 -25 -18 -35t-39 2l-711 420q-20 12 -20 35z" />
<glyph unicode="=" horiz-adv-x="999" d="M127 299v117q0 16 11.5 27.5t27.5 11.5h668q16 0 27 -11.5t11 -27.5v-117q0 -16 -11 -27.5t-27 -11.5h-668q-16 0 -27.5 11.5t-11.5 27.5zM127 731v115q0 16 11.5 27.5t27.5 11.5h668q16 0 27 -11.5t11 -27.5v-115q0 -16 -11 -27.5t-27 -11.5h-668q-16 0 -27.5 11.5 t-11.5 27.5z" />
<glyph unicode="&#x3e;" horiz-adv-x="892" d="M66 43v143q0 23 18 33l438 254l-438 262q-18 10 -18 33v143q0 25 18 35t39 -2l711 -434q20 -12 20 -35v-10q0 -23 -20 -35l-711 -420q-20 -12 -38.5 -2t-18.5 35z" />
<glyph unicode="?" horiz-adv-x="919" d="M57 1221q-29 25 0 53q6 8 16.5 19.5t49.5 43t82 55t111.5 43t142.5 19.5q164 0 280.5 -98.5t116.5 -245.5q0 -84 -49 -155.5t-106.5 -112.5t-106.5 -88t-49 -86v-68q0 -43 -41 -43h-166q-16 0 -27.5 11.5t-11.5 27.5v86q0 66 44 126t98.5 99t98.5 89.5t44 97.5 q0 57 -45 97t-119 40q-55 0 -97 -18.5t-82 -52.5t-42 -36q-25 -16 -45 2zM252 147.5q0 69.5 49 119.5t118.5 50t120 -50t50.5 -119.5t-50.5 -118.5t-120 -49t-118.5 49t-49 118.5z" />
<glyph unicode="@" horiz-adv-x="2019" d="M66 457q0 438 270 717.5t704 279.5q416 0 654.5 -241.5t238.5 -622.5q0 -109 -25.5 -211.5t-76.5 -194.5t-145.5 -148t-217.5 -56q-182 0 -243 159h-17q-35 -70 -104.5 -114.5t-161.5 -44.5q-160 0 -265.5 125.5t-105.5 306.5q0 184 106.5 306t270.5 122q133 0 248 -121 q4 10 10 29.5t9.5 26.5t9.5 18.5t14 15.5t21.5 7t31.5 3h35q16 0 27.5 -11t11.5 -28v-374q0 -127 34 -172.5t93 -45.5q96 0 153.5 115t57.5 277q0 295 -174 479t-498 184q-340 0 -541.5 -212t-201.5 -574q0 -244 135 -436.5t358 -284.5q35 -16 23 -49l-49 -129 q-14 -35 -45 -23q-285 104 -465 355.5t-180 566.5zM784 426q-6 -96 48.5 -161.5t130.5 -65.5q166 0 174 223v76q-10 45 -59.5 90t-116.5 45q-74 0 -123.5 -57.5t-53.5 -149.5z" />
<glyph unicode="A" d="M0 53l637 1379q10 23 35 22h20q25 0 35 -22l631 -1379q10 -20 -1 -36.5t-34 -16.5h-178q-39 0 -60 41l-100 221h-612l-101 -221q-16 -41 -59 -41h-178q-23 0 -34 16.5t-1 36.5zM473 489h412l-205 451h-6z" />
<glyph unicode="B" horiz-adv-x="1263" d="M186 39v1356q0 16 11.5 27.5t27.5 11.5h469q182 0 307 -108.5t125 -270.5q0 -109 -70.5 -198t-154.5 -128q100 -33 183 -120t83 -214q0 -170 -129 -282.5t-317 -112.5h-496q-16 0 -27.5 11.5t-11.5 27.5zM451 242h247q78 0 131.5 53t53.5 133q0 76 -63.5 127t-145.5 51 h-223v-364zM451 831h219q78 0 127 53.5t49 131.5t-49 126t-127 48h-219v-359z" />
<glyph unicode="C" horiz-adv-x="1400" d="M82 715q0 307 216 523t523 216q283 0 496 -190q16 -15 16 -30q0 -14 -14 -28l-125 -129q-25 -27 -51 0q-137 121 -316 121q-195 0 -325.5 -140t-130.5 -337q0 -195 132 -334t326 -139q170 0 314 117q27 25 51 0l127 -132q12 -12 11 -27.5t-13 -27.5q-204 -198 -495 -198 h-3q-307 0 -523 214t-216 521z" />
<glyph unicode="D" horiz-adv-x="1511" d="M186 39v1356q0 16 11.5 27.5t25.5 11.5h486q297 0 507.5 -210t210.5 -505q0 -297 -210.5 -508t-507.5 -211h-486q-14 0 -25.5 11.5t-11.5 27.5zM451 250h233q199 0 330 134t131 335t-131 334t-330 133h-233v-936z" />
<glyph unicode="E" horiz-adv-x="1204" d="M186 39v1356q0 16 11.5 27.5t27.5 11.5h834q16 0 27.5 -11.5t11.5 -27.5v-168q0 -16 -11.5 -27.5t-27.5 -11.5h-606v-336h505q16 0 27.5 -12.5t11.5 -26.5v-170q0 -16 -11 -27.5t-28 -11.5h-505v-358h606q16 0 27.5 -11.5t11.5 -27.5v-168q0 -16 -11.5 -27.5t-27.5 -11.5 h-834q-16 0 -27.5 11.5t-11.5 27.5z" />
<glyph unicode="F" horiz-adv-x="1155" d="M186 39v1356q0 16 11.5 27.5t27.5 11.5h834q16 0 27.5 -11.5t11.5 -27.5v-168q0 -16 -11.5 -27.5t-27.5 -11.5h-606v-385h505q16 0 27.5 -12.5t11.5 -26.5v-168q0 -14 -11 -26.5t-28 -12.5h-505v-518q0 -14 -11.5 -26.5t-27.5 -12.5h-189q-16 0 -27.5 11.5t-11.5 27.5z " />
<glyph unicode="G" horiz-adv-x="1458" d="M84 715q0 307 215 523t520 216q276 0 500 -190q15 -16 15 -31q0 -14 -13 -27l-127 -133q-25 -25 -53 0q-135 119 -310 119q-190 0 -324 -140.5t-134 -334.5q0 -193 134 -331t327 -138q117 0 243 51v174h-164q-16 0 -27.5 10.5t-11.5 26.5v162q0 39 39 39h394 q14 0 25 -11.5t11 -27.5v-525q0 -20 -16 -32q-25 -14 -67.5 -37t-176 -59.5t-264.5 -36.5q-307 0 -521 213t-214 520z" />
<glyph unicode="H" horiz-adv-x="1574" d="M186 39v1356q0 14 11.5 26.5t27.5 12.5h191q16 0 27.5 -11.5t11.5 -27.5v-543h667v543q0 16 11.5 27.5t27.5 11.5h189q14 0 26.5 -12.5t12.5 -26.5v-1356q0 -14 -12.5 -26.5t-26.5 -12.5h-189q-16 0 -27.5 11.5t-11.5 27.5v565h-667v-565q0 -16 -11.5 -27.5t-27.5 -11.5 h-191q-16 0 -27.5 12.5t-11.5 26.5z" />
<glyph unicode="I" horiz-adv-x="641" d="M186 39v1356q0 14 11.5 26.5t27.5 12.5h191q14 0 26.5 -12.5t12.5 -26.5v-1356q0 -14 -12.5 -26.5t-26.5 -12.5h-191q-16 0 -27.5 12.5t-11.5 26.5z" />
<glyph unicode="J" horiz-adv-x="856" d="M-33 129q-16 27 4 51l107 109q15 14 30 14q16 0 31 -16q61 -66 135 -66q66 0 115 54.5t49 152.5v967q0 16 11.5 27.5t27.5 11.5h193q16 0 27.5 -11.5t11.5 -27.5v-967q0 -207 -122 -327.5t-308 -120.5h-3q-189 0 -309 149z" />
<glyph unicode="K" horiz-adv-x="1341" d="M186 49v1335q0 20 14.5 35t35.5 15h180q20 0 34.5 -14.5t14.5 -35.5v-553l516 582q16 20 39 21h205q29 0 41 -26t-9 -48l-534 -602l573 -686q16 -20 4 -46t-40 -26h-224q-27 0 -37 14l-534 660v-625q0 -20 -14.5 -34.5t-34.5 -14.5h-180q-20 0 -35 14.5t-15 34.5z" />
<glyph unicode="L" horiz-adv-x="1034" d="M186 39v1356q0 16 11.5 27.5t27.5 11.5h189q16 0 27.5 -12.5t11.5 -26.5v-1149h522q16 0 27.5 -11.5t11.5 -27.5v-168q0 -16 -11.5 -27.5t-27.5 -11.5h-750q-16 0 -27.5 11.5t-11.5 27.5z" />
<glyph unicode="M" horiz-adv-x="1787" d="M92 47l244 1376q4 31 37 31h33q25 0 34 -20l451 -967h6l451 967q10 20 34 20h33q33 0 37 -31l242 -1376q4 -20 -6.5 -33.5t-30.5 -13.5h-187q-31 0 -38 31l-121 776h-6l-359 -805q-8 -23 -35 -22h-37q-23 0 -34 22l-363 805h-6l-119 -776q-2 -12 -13 -21.5t-24 -9.5h-184 q-40 0 -40 37q0 4 1 10z" />
<glyph unicode="N" horiz-adv-x="1583" d="M186 39v1378q0 14 11.5 25.5t27.5 11.5h51l852 -905h2v846q0 16 11.5 27.5t27.5 11.5h189q14 0 26.5 -12.5t12.5 -26.5v-1379q0 -14 -11.5 -25t-27.5 -11h-49l-856 940h-2v-881q0 -16 -11.5 -27.5t-27.5 -11.5h-187q-16 0 -27.5 12.5t-11.5 26.5z" />
<glyph unicode="O" horiz-adv-x="1638" d="M84 715q0 307 214 523t521 216t522 -216t215 -523t-215 -521t-522 -214t-521 214t-214 521zM350 714.5q0 -194.5 138.5 -331.5t330.5 -137q195 0 333 138t138 331q0 195 -139 334t-331.5 139t-331 -139.5t-138.5 -334z" />
<glyph unicode="P" horiz-adv-x="1212" d="M186 39v1356q0 16 11.5 27.5t27.5 11.5h482q188 0 323 -133.5t135 -319.5q0 -190 -134 -325.5t-322 -135.5h-256v-481q0 -14 -11.5 -26.5t-27.5 -12.5h-189q-16 0 -27.5 11.5t-11.5 27.5zM453 770h237q86 0 148.5 61.5t62.5 151.5q0 84 -62.5 141.5t-148.5 57.5h-237 v-412z" />
<glyph unicode="Q" horiz-adv-x="1640" d="M84 715q0 307 214 523t521 216t522 -216t215 -523q0 -205 -108.5 -380t-290.5 -276l256 -403q14 -20 3 -41t-36 -21h-217q-23 0 -33 21l-219 371q-49 -6 -92 -6q-307 0 -521 214t-214 521zM350 714.5q0 -194.5 138.5 -331.5t330.5 -137q195 0 333 138t138 331 q0 195 -139 334t-331.5 139t-331 -139.5t-138.5 -334z" />
<glyph unicode="R" horiz-adv-x="1363" d="M186 39v1356q0 16 11.5 27.5t27.5 11.5h586q184 0 315 -129t131 -312q0 -139 -82.5 -248.5t-220.5 -164.5l281 -521q12 -20 1 -39.5t-36 -19.5h-215q-23 0 -33 18l-272 543h-227v-522q0 -14 -11.5 -26.5t-27.5 -12.5h-189q-16 0 -27.5 11.5t-11.5 27.5zM455 780h333 q82 0 142.5 61.5t60.5 147.5q0 82 -60.5 140.5t-142.5 58.5h-333v-408z" />
<glyph unicode="S" horiz-adv-x="1110" d="M96 1061q0 156 118 274.5t343 118.5q227 0 410 -137q14 -8 18 -30.5t-6 -37.5l-78 -116q-22 -33 -47 -33q-12 0 -25 8q-180 113 -284 113q-82 0 -131 -45.5t-49 -98.5q0 -72 57 -125t184 -104q88 -35 152.5 -71t133.5 -90t105.5 -131t36.5 -171q0 -166 -131 -285.5 t-340 -119.5q-117 0 -222 34.5t-150 64t-78 60.5q-18 18 -18 37q0 12 7 25l74 127q12 20 34.5 23t35.5 -9l10 -6q10 -8 23.5 -16.5t34 -20.5t41 -23.5t47 -22.5t51 -19.5t51 -13.5t51.5 -5q80 0 133 46t53 112q0 76 -63.5 134t-196.5 111q-172 70 -278.5 174.5t-106.5 268.5 z" />
<glyph unicode="T" horiz-adv-x="1026" d="M27 1227v168q0 16 11 27.5t28 11.5h895q16 0 27 -11.5t11 -27.5v-168q0 -16 -11 -27.5t-27 -11.5h-314v-1149q0 -14 -12 -26.5t-27 -12.5h-190q-16 0 -27.5 12.5t-11.5 26.5v1149h-313q-16 0 -27.5 11t-11.5 28z" />
<glyph unicode="U" horiz-adv-x="1472" d="M166 543v852q0 14 11 26.5t28 12.5h194q16 0 27.5 -11.5t11.5 -27.5v-838q0 -133 83 -222t214 -89t215 89t84 220v840q0 16 11.5 27.5t27.5 11.5h195q14 0 26.5 -12.5t12.5 -26.5v-852q0 -236 -165 -399.5t-407 -163.5q-240 0 -404.5 163.5t-164.5 399.5z" />
<glyph unicode="V" d="M0 1380q-10 20 1 37t34 17h209q27 0 35 -23l393 -881h14l393 881q8 23 35 23h209q23 0 34 -16.5t1 -37.5l-635 -1378q-10 -23 -35 -22h-20q-25 -1 -35 22z" />
<glyph unicode="W" horiz-adv-x="1841" d="M59 1384q-6 20 4.5 35t32.5 15h189q29 0 37 -29l213 -817h8l325 844q8 23 35 22h37q27 0 35 -22l328 -844h8l209 817q8 29 36 29h189q23 0 33 -14.5t4 -35.5l-387 -1376q-6 -29 -37 -28h-33q-27 0 -35 22l-366 928h-11l-362 -928q-10 -23 -35 -22h-33q-29 -1 -37 28z" />
<glyph unicode="X" horiz-adv-x="1294" d="M60 18.5q-11 18.5 1 38.5l426 678l-409 641q-12 20 -2 39t37 19h237q18 0 33 -19l262 -434h2l266 434q8 18 33 19h238q27 0 37 -18.5t-2 -39.5l-412 -641l426 -678q12 -20 2 -38.5t-37 -18.5h-221q-27 0 -35 18l-293 469h-6l-289 -469q-14 -18 -35 -18h-221 q-27 0 -38 18.5z" />
<glyph unicode="Y" horiz-adv-x="1193" d="M-8 1414q10 20 35 20h209q18 0 32 -19l328 -471l328 471q14 18 32 19h211q25 0 35 -19.5t-2 -40.5l-473 -682v-653q0 -14 -11 -26.5t-28 -12.5h-188q-16 0 -27.5 11.5t-11.5 27.5v651l-467 684q-12 20 -2 40z" />
<glyph unicode="Z" horiz-adv-x="1101" d="M51 39v37l611 1102v8h-512q-14 0 -26.5 11t-12.5 28v170q0 14 12 26.5t27 12.5h856q14 0 26 -12.5t12 -26.5v-27l-602 -1116v-4h523q16 0 27.5 -11.5t11.5 -27.5v-170q0 -16 -11.5 -27.5t-27.5 -11.5h-875q-16 0 -27.5 12.5t-11.5 26.5z" />
<glyph unicode="[" horiz-adv-x="714" d="M135 -575v1970q0 14 12.5 26.5t26.5 12.5h463q14 0 26.5 -12.5t12.5 -26.5v-127q0 -16 -11.5 -27.5t-27.5 -11.5h-266v-1639h266q16 0 27.5 -11t11.5 -25v-129q0 -14 -12.5 -26.5t-26.5 -12.5h-463q-14 0 -26.5 12t-12.5 27z" />
<glyph unicode="\" horiz-adv-x="731" d="M41 1382q-6 20 4 36t33 16h155q29 0 37 -27l402 -1356q6 -20 -5.5 -35.5t-31.5 -15.5h-158q-29 0 -37 27z" />
<glyph unicode="]" horiz-adv-x="714" d="M39 -446q0 14 11.5 25t27.5 11h266v1639h-266q-16 0 -27.5 11t-11.5 28v127q0 14 11 26.5t28 12.5h463q16 0 27.5 -12.5t11.5 -26.5v-1970q0 -14 -11.5 -26.5t-27.5 -12.5h-463q-16 0 -27.5 12t-11.5 27v129z" />
<glyph unicode="^" horiz-adv-x="1073" d="M73.5 806.5q-10.5 18.5 2.5 39.5l426 596q12 20 35 20h10q23 0 35 -20l415 -596q12 -20 2 -39t-34 -19h-142q-18 0 -32 19l-252 346l-256 -346q-14 -18 -33 -19h-141q-25 0 -35.5 18.5z" />
<glyph unicode="_" horiz-adv-x="849" d="M39 -59q0 39 39 39h694q39 0 39 -39v-80q0 -16 -11.5 -26.5t-27.5 -10.5h-694q-16 0 -27.5 10t-11.5 27v80z" />
<glyph unicode="`" horiz-adv-x="618" d="M109 1294l57 105q16 31 53 6l336 -199q25 -12 12 -39l-37 -73q-12 -29 -51 -13l-358 158q-33 16 -12 55z" />
<glyph unicode="a" horiz-adv-x="874" d="M63 260q0 113 88.5 185.5t239.5 72.5q37 0 74 -5t55 -11l21 -6v11q1 69 -23 99q-26 32 -84 31q-129 0 -229 -31q-8 -2 -14 -2q-26 0 -33 39l-19 107q-1 7 -1 13q0 28 30 38q12 4 49 12t103.5 17.5t125.5 9.5q182 0 249 -87t67 -270v-444q0 -14 -12.5 -26.5t-26.5 -12.5 h-74q-23 0 -35 29l-24 55q-115 -104 -250 -104q-125 0 -201 75.5t-76 204.5zM289 260q0 -47 29.5 -76.5t76.5 -29.5q45 0 87 28.5t55 50.5v113q-55 25 -115 25t-96.5 -31t-36.5 -80z" />
<glyph unicode="b" horiz-adv-x="1024" d="M123 39v1356q0 14 12 26.5t27 12.5h174q16 0 27.5 -12.5t11.5 -26.5v-592q94 37 182 37q180 0 293 -124t113 -306q0 -178 -114 -304t-280 -126q-76 0 -143.5 30.5t-95.5 61.5l-29 30l-20 -63q-10 -39 -39 -39h-80q-14 0 -26.5 12.5t-12.5 26.5zM367 334q14 -49 57 -91 t115 -42q80 0 133 60.5t53 148.5t-56.5 148t-142.5 60q-45 0 -85 -12t-56 -24l-18 -11v-237z" />
<glyph unicode="c" horiz-adv-x="872" d="M59 410q0 178 131.5 304t305.5 126q182 0 303 -146q10 -14 10 -26q0 -17 -21 -31l-94 -90q-23 -18 -51 6q-56 65 -138 65h-3q-82 0 -141.5 -61t-59.5 -147q0 -88 57.5 -148.5t141.5 -60.5q41 0 75.5 14t47 24.5t41.5 39.5q25 25 51 6l88 -76q22 -18 22 -36q0 -11 -8 -21 q-111 -172 -323 -172q-176 0 -305.5 124t-129.5 306z" />
<glyph unicode="d" horiz-adv-x="1024" d="M61 410q0 182 113 306t293 124q88 0 182 -37v592q0 14 11.5 26.5t27.5 12.5h174q14 0 26.5 -12.5t12.5 -26.5v-1356q0 -14 -12 -26.5t-27 -12.5h-80q-29 0 -39 39l-20 63q-10 -14 -31.5 -34.5t-91.5 -54t-145 -33.5q-166 0 -280 126t-114 304zM299 410q0 -88 53.5 -148.5 t132.5 -60.5q72 0 115 42t57 91v237q-57 47 -159 47q-86 0 -142.5 -60t-56.5 -148z" />
<glyph unicode="e" horiz-adv-x="911" d="M61 410q0 176 119 303t299 127q160 0 271.5 -108.5t111.5 -272.5q0 -27 -4 -56q-4 -35 -39 -34h-524q4 -70 58.5 -124.5t138.5 -54.5q88 0 159 52q35 20 54 0l83 -97q29 -29 -2 -53q-120 -112 -302 -112h-3q-182 0 -301 125t-119 305zM313 512h310q-4 57 -48.5 98 t-101.5 41q-61 0 -106.5 -40t-53.5 -99z" />
<glyph unicode="f" horiz-adv-x="704" d="M63 643v137q0 39 39 39h70v221q0 197 106.5 305.5t276.5 108.5q74 0 141.5 -25.5t100.5 -54.5q25 -20 8 -47l-70 -131q-14 -29 -49 -10q-66 41 -121 41q-66 0 -101.5 -48.5t-35.5 -138.5v-221h205q39 0 39 -39v-137q0 -16 -11.5 -27.5t-27.5 -11.5h-205v-565 q0 -14 -11 -26.5t-28 -12.5h-178q-14 0 -26.5 12.5t-12.5 26.5v565h-70q-16 0 -27.5 11.5t-11.5 27.5z" />
<glyph unicode="g" horiz-adv-x="946" d="M37 61q0 45 15.5 85t39 66t46 44t38.5 27l14 8q-61 70 -61 192q0 145 103.5 251t252.5 106h373q39 0 39 -39v-68q0 -29 -23 -35l-114 -36q8 -6 22.5 -21.5t37 -69t22.5 -118.5q0 -127 -97.5 -224.5t-252.5 -97.5q-45 0 -99.5 8t-64.5 8q-25 0 -50.5 -21.5t-25.5 -55.5 q0 -31 23.5 -50.5t58.5 -19.5h262q145 0 241.5 -78t96.5 -209q0 -150 -118 -249t-331 -99q-209 0 -313 84t-104 197q0 121 122 194v6q-27 8 -56.5 26.5t-63 69.5t-33.5 119zM303 -309q0 -53 49 -87t131 -34q86 0 138.5 36t52.5 93q0 37 -35 68.5t-115 31.5q-76 0 -133 -8 q-88 -28 -88 -100zM348 473.5q0 -63.5 41 -105.5t103 -42q63 0 102 41t39 106.5t-39 106.5t-102 41q-61 0 -102.5 -42t-41.5 -105.5z" />
<glyph unicode="h" horiz-adv-x="1064" d="M123 39v1356q0 14 12 26.5t27 12.5h174q16 0 27.5 -12.5t11.5 -26.5v-623q90 68 217 68q182 0 274 -118t92 -290v-393q0 -14 -12 -26.5t-26 -12.5h-166q-16 0 -27.5 11.5t-11.5 27.5v395q0 84 -44 134t-118 50q-68 0 -115 -39.5t-63 -105.5v-434q0 -39 -43 -39h-170 q-14 0 -26.5 12.5t-12.5 26.5z" />
<glyph unicode="i" horiz-adv-x="493" d="M104 1251.5q0 59.5 41 100.5t99 41q59 0 101 -41t42 -100.5t-42 -100.5t-101 -41q-57 0 -98.5 41t-41.5 100.5zM123 39v741q0 16 11 27.5t28 11.5h170q16 0 27.5 -11t11.5 -28v-741q0 -14 -11.5 -26.5t-27.5 -12.5h-170q-14 0 -26.5 12.5t-12.5 26.5z" />
<glyph unicode="j" horiz-adv-x="495" d="M-258 -508l68 131q14 29 49 10q66 -41 121 -41q70 0 106.5 48.5t36.5 138.5v1001q0 16 11 27.5t28 11.5h172q16 0 27.5 -11t11.5 -28v-1001q0 -197 -106.5 -305.5t-274.5 -108.5q-74 0 -142.5 25.5t-99.5 54.5q-25 18 -8 47zM106 1251.5q0 59.5 41 100.5t99 41 q59 0 101 -41t42 -100.5t-42 -100.5t-101 -41q-57 0 -98.5 41t-41.5 100.5z" />
<glyph unicode="k" horiz-adv-x="1001" d="M123 39v1356q0 14 12 26.5t27 12.5h174q16 0 27.5 -12.5t11.5 -26.5v-887l282 287q29 25 52 24h186q25 0 34 -21.5t-7 -37.5l-306 -311l365 -392q16 -16 7 -36.5t-34 -20.5h-221q-23 0 -35 16l-323 369v-346q0 -14 -11.5 -26.5t-27.5 -12.5h-174q-14 0 -26.5 12.5 t-12.5 26.5z" />
<glyph unicode="l" horiz-adv-x="495" d="M123 39v1356q0 14 12 26.5t27 12.5h172q14 0 26.5 -12.5t12.5 -26.5v-1356q0 -14 -12.5 -26.5t-26.5 -12.5h-172q-14 0 -26.5 12.5t-12.5 26.5z" />
<glyph unicode="m" horiz-adv-x="1595" d="M123 39v741q0 16 11 27.5t28 11.5h76q27 0 34 -22l29 -78q109 121 274 121q162 0 267 -127q121 127 288 127q184 0 271.5 -116t87.5 -294v-391q0 -16 -11.5 -27.5t-27.5 -11.5h-166q-16 0 -27.5 11.5t-11.5 27.5v405q0 82 -39 128t-114 46q-53 0 -96.5 -21.5t-59.5 -43.5 l-16 -21q2 -41 2 -77v-416q0 -14 -12.5 -26.5t-26.5 -12.5h-154q-16 0 -27.5 11.5t-11.5 27.5v405q0 174 -151 174q-125 0 -172 -129v-450q0 -14 -11.5 -26.5t-27.5 -12.5h-166q-14 0 -26.5 12.5t-12.5 26.5z" />
<glyph unicode="n" horiz-adv-x="1062" d="M123 39v741q0 16 11 27.5t28 11.5h78q25 0 34 -24l29 -76q113 121 289 121q184 0 274 -117t90 -291v-393q0 -14 -11 -26.5t-27 -12.5h-168q-16 0 -27.5 11.5t-11.5 27.5v405q0 80 -40 127t-114 47t-124 -39.5t-68 -89.5v-450q0 -39 -52 -39h-151q-14 0 -26.5 12.5 t-12.5 26.5z" />
<glyph unicode="o" horiz-adv-x="958" d="M59 412q0 174 124 301t296 127t296 -127t124 -301q0 -176 -123 -304t-297 -128t-297 128t-123 304zM283 412q0 -88 57 -149.5t139 -61.5t139.5 61.5t57.5 149.5q0 86 -57.5 146t-139.5 60t-139 -60t-57 -146z" />
<glyph unicode="p" horiz-adv-x="1024" d="M123 -575v1355q0 16 11 27.5t28 11.5h80q25 0 34 -24l27 -68q29 39 101.5 76t162.5 37q168 0 282 -126t114 -304q0 -180 -119 -305t-287 -125q-102 0 -182 45v-600q0 -39 -49 -39h-164q-14 0 -26.5 12t-12.5 27zM365 248q57 -47 159 -47q86 0 142.5 60.5t56.5 148.5 t-53.5 148t-137.5 60q-70 0 -112.5 -40.5t-54.5 -83.5v-246z" />
<glyph unicode="q" horiz-adv-x="1024" d="M61 410q0 178 114 304t282 126q90 0 162.5 -37t101.5 -76l27 68q10 25 34 24h80q16 0 27.5 -11t11.5 -28v-1355q0 -14 -12 -26.5t-27 -12.5h-164q-49 0 -49 39v600q-80 -45 -182 -45q-168 0 -287 125t-119 305zM301 406q0 -86 56.5 -145.5t142.5 -59.5q45 0 85 12t58 25 l16 10v246q-12 43 -55 83.5t-112 40.5q-82 0 -136.5 -62t-54.5 -150z" />
<glyph unicode="r" horiz-adv-x="698" d="M123 39v741q0 16 11 27.5t28 11.5h78q27 0 36 -26l29 -80q88 127 232 127q78 0 127 -22q35 -16 35 -40q0 -9 -5 -20l-76 -133q-18 -33 -47 -19q-37 12 -59 12q-55 0 -93 -27.5t-52 -55.5v-496q0 -39 -48 -39h-157q-14 0 -26.5 12.5t-12.5 26.5z" />
<glyph unicode="s" horiz-adv-x="745" d="M68 598q0 102 76.5 172t224.5 70q156 0 252 -64q24 -15 24 -35q0 -9 -6 -20l-51 -105q-14 -27 -49 -14q-92 43 -170 43q-70 0 -70 -47q0 -25 19.5 -37t78.5 -37l15 -6q137 -53 206.5 -115.5t69.5 -173.5q0 -106 -88 -177.5t-238 -71.5h-4q-169 0 -268 75q-25 20 -12 43 l55 111q12 33 47 14q92 -49 187 -49q69 0 69 50q0 30 -28.5 50.5t-108.5 53.5q-231 90 -231 270z" />
<glyph unicode="t" horiz-adv-x="706" d="M59 643v137q0 16 10.5 27.5t26.5 11.5h70v228q0 14 11 26t28 12l168 2q14 0 25.5 -11t11.5 -27v-230h180q39 0 39 -39v-137q0 -16 -11.5 -27.5t-27.5 -11.5h-180v-328q0 -65 61 -65h2q39 0 100 22q35 12 45 -22l41 -129q14 -35 -22 -49q-8 -4 -44 -16.5t-95.5 -24.5 t-104.5 -12q-227 0 -227 264v360h-70q-14 0 -25.5 11.5t-11.5 27.5z" />
<glyph unicode="u" horiz-adv-x="1030" d="M109 383v397q0 16 11 27.5t27 11.5h168q16 0 27.5 -11t11.5 -28v-403q0 -82 40 -129t110 -47q61 0 107 47t57 106v426q0 23 10 31t35 8h155q16 0 27.5 -11t11.5 -28v-741q0 -14 -11 -26.5t-28 -12.5h-75q-27 0 -39 31l-25 67q-2 -2 -15.5 -14t-20.5 -18.5t-24.5 -18.5 t-30.5 -20.5t-34.5 -18.5t-43 -15t-49.5 -9t-56 -4q-178 0 -262 114.5t-84 288.5z" />
<glyph unicode="v" horiz-adv-x="856" d="M12 804.5q8 14.5 31 14.5h178q25 0 37 -22l166 -381h4l176 381q10 23 49 22h160q23 0 31 -14t-2 -35l-375 -770q-12 -20 -35 -20h-10q-23 0 -35 20l-373 770q-10 20 -2 34.5z" />
<glyph unicode="w" horiz-adv-x="1261" d="M37 772q-8 20 2 33.5t33 13.5h147q31 0 37 -24l123 -367h2l209 393q8 18 33 19h16q23 0 33 -19l207 -393h2l123 367q8 25 47 24h133q23 0 34 -13t3 -34l-256 -770q-8 -23 -37 -22h-8q-23 0 -33 18l-258 477h-2l-256 -477q-10 -18 -33 -18h-10q-27 -1 -35 22z" />
<glyph unicode="x" horiz-adv-x="923" d="M42 19.5q-7 19.5 7 39.5l266 359l-258 342q-16 20 -6 39.5t37 19.5h170q47 0 68 -28l133 -193h2l135 193q19 28 58 28h3h185q25 0 33 -19.5t-9 -39.5l-258 -340l260 -361q14 -20 7 -39.5t-31 -19.5h-180q-35 0 -58 33l-145 205h-2l-156 -222q-12 -16 -33 -16h-196 q-25 0 -32 19.5z" />
<glyph unicode="y" horiz-adv-x="948" d="M16 766q-10 20 1.5 36.5t33.5 16.5h185q23 0 34 -22l207 -463h2l205 463q12 23 49 22h164q25 0 35 -16.5t0 -36.5l-627 -1356q-12 -25 -35 -24h-176q-23 0 -34 17t-1 38l291 616z" />
<glyph unicode="z" horiz-adv-x="749" d="M61 39v20l291 537v4h-233q-14 0 -25.5 11.5t-11.5 27.5v141q0 16 10 27.5t27 11.5h540q23 0 35.5 -17.5t-0.5 -37.5l-297 -541v-6h221q39 0 39 -39v-139q0 -16 -11 -27.5t-28 -11.5h-518q-14 0 -26.5 12.5t-12.5 26.5z" />
<glyph unicode="{" horiz-adv-x="806" d="M39 354v101q0 27 29 34q16 4 45.5 18.5t63.5 49.5t34 74v260q0 160 48 275.5t129 174t161 84t170 29.5q37 4 41 -35l8 -129q2 -33 -29 -37q-125 -27 -199.5 -119t-74.5 -243v-215q0 -61 -22.5 -113.5t-56.5 -84.5t-55.5 -47t-35.5 -21v-9q170 -70 170 -256v-219 q0 -152 74.5 -242t199.5 -116q31 -8 29 -39l-8 -129q-2 -16 -14.5 -26.5t-26.5 -8.5q-90 4 -170 29.5t-161 84t-129 173t-48 274.5v252q0 61 -46 96t-95 43q-31 4 -31 37z" />
<glyph unicode="|" horiz-adv-x="368" d="M133 -578v2096q0 16 11.5 27t27.5 11h27q16 0 26.5 -11t10.5 -27v-2096q0 -14 -11.5 -25t-27.5 -11h-25q-16 0 -27.5 11t-11.5 25z" />
<glyph unicode="}" horiz-adv-x="806" d="M39 -471q-2 31 29 39q125 27 199.5 116.5t74.5 241.5v219q0 186 170 256v9q-14 6 -35.5 21t-55.5 47t-56.5 84t-22.5 114v215q0 152 -74.5 244t-199.5 118q-31 4 -29 37l8 129q4 39 41 35q90 -4 170 -29.5t161 -84t129 -174t48 -275.5v-260q0 -55 54.5 -94t88.5 -48 q29 -8 29 -34v-101q0 -33 -31 -37q-49 -8 -95 -42.5t-46 -96.5v-252q0 -160 -48 -274.5t-129 -173t-161 -84t-170 -29.5q-14 -2 -26.5 8.5t-14.5 26.5z" />
<glyph unicode="~" horiz-adv-x="1091" d="M63 537q6 8 17.5 21t45.5 49t67.5 62.5t83 48t94.5 21.5q84 0 207 -84q100 -66 149 -65q82 0 152 106q27 33 59 4l86 -90q27 -23 4 -49q-6 -8 -16.5 -21.5t-44 -48t-67.5 -61.5t-81 -48.5t-92 -21.5q-16 0 -30.5 1t-30 5.5t-26.5 7.5t-26.5 10t-23.5 10t-24.5 13.5 t-20.5 13.5t-22.5 14t-20.5 14q-84 57 -133 57q-84 0 -152 -105q-10 -16 -27.5 -17t-29.5 13l-92 90q-23 27 -5 50z" />
<glyph unicode="&#xa1;" horiz-adv-x="544" d="M104 671.5q0 69.5 50.5 119t119.5 49.5q68 0 117 -49.5t49 -119t-49 -119.5t-117 -50q-70 0 -120 50t-50 119.5zM121 -346l80 575q2 12 13 22.5t26 10.5h65q14 0 25.5 -10t13.5 -23l80 -571v-233q0 -14 -11.5 -26.5t-27.5 -12.5h-225q-16 0 -27.5 12t-11.5 27v229z" />
<glyph unicode="&#xa2;" horiz-adv-x="843" d="M39 410q0 178 131 304t305 126q23 0 64 -4l22 84q10 37 47 26l25 -6q37 -8 26 -47l-24 -86q78 -35 143 -113q25 -33 -10 -57l-94 -90q-23 -18 -51 6q-16 18 -45 37l-105 -387q43 0 79 13t50 24.5t41 38.5q25 25 51 6l88 -76q35 -29 15 -57q-111 -172 -324 -172 q-23 0 -59 4l-54 -197q-2 -14 -16 -22.5t-31 -4.5l-22 7q-37 8 -29 45l53 196q-123 47 -199.5 155.5t-76.5 246.5zM281 410q0 -118 94 -179l104 385q-82 -2 -140 -62t-58 -144z" />
<glyph unicode="&#xa3;" horiz-adv-x="993" d="M86 635v27q0 16 11.5 27t25.5 11h63q-4 18 -18 69.5t-21.5 83.5t-14.5 79t-7 88q0 199 124 316.5t310 117.5q86 0 166 -30.5t110.5 -53t73.5 -61.5q31 -23 4 -54l-100 -120q-23 -31 -55 -7q-106 94 -197 95q-74 0 -127 -53.5t-53 -139.5q0 -59 36 -180t42 -150h237 q16 0 27.5 -11t11.5 -27v-29q0 -16 -11 -26.5t-28 -10.5h-217q25 -197 -28 -369h401q16 0 26.5 -11t10.5 -28v-149q0 -16 -11.5 -27.5t-25.5 -11.5h-678q-14 0 -26.5 12.5t-12.5 26.5v37q127 240 76 520h-88q-14 0 -25.5 11t-11.5 28z" />
<glyph unicode="&#xa4;" horiz-adv-x="933" d="M109 920.5q0 17.5 10 27.5l82 80q10 10 27.5 10t27.5 -10l96 -96q115 55 230 0l96 96q27 27 55 0l80 -82q27 -29 2 -53l-96 -96q53 -119 2 -234l96 -96q27 -27 0 -55l-82 -80q-10 -10 -26.5 -11.5t-26.5 9.5l-98 98q-117 -55 -234 0l-98 -98q-26 -27 -55 0l-80 82 q-27 27 0 55l98 98q-53 117 2 230l-98 98q-10 10 -10 27.5zM360 680q0 -45 30 -75t75 -30t75.5 30t30.5 75t-29.5 75.5t-76.5 30.5q-45 0 -75 -30.5t-30 -75.5z" />
<glyph unicode="&#xa5;" horiz-adv-x="1296" d="M43 1414q10 20 35 20h211q18 0 33 -19l327 -471l328 471q14 18 33 19h209q25 0 35 -19.5t-3 -40.5l-473 -682v-96h223q16 0 27.5 -11.5t11.5 -27.5v-29q0 -16 -11 -26t-28 -10h-223v-142h223q16 0 27.5 -11t11.5 -28v-28q0 -16 -11 -26.5t-28 -10.5h-223v-207 q0 -14 -12 -26.5t-27 -12.5h-188q-16 0 -27.5 11.5t-11.5 27.5v207h-227q-14 0 -25.5 11t-11.5 28v26q0 16 11 27.5t26 11.5h227v142h-227q-14 0 -25.5 11t-11.5 27v27q0 16 11 27.5t26 11.5h227v94l-467 684q-12 20 -2 40z" />
<glyph unicode="&#xa6;" horiz-adv-x="645" d="M270 100q0 16 11.5 27.5t27.5 11.5h27q16 0 26.5 -11t10.5 -28v-678q0 -14 -11.5 -25t-27.5 -11h-25q-16 0 -27.5 11t-11.5 25v678zM270 840v678q0 16 11.5 27t27.5 11h27q16 0 26.5 -11t10.5 -27v-678q0 -14 -11.5 -25.5t-27.5 -11.5h-25q-16 0 -27.5 11t-11.5 26z" />
<glyph unicode="&#xa7;" horiz-adv-x="1048" d="M72 514q0 156 147 279q-147 135 -147 290q0 150 111.5 260.5t328.5 110.5q209 0 391 -131q14 -8 19.5 -27.5t-4.5 -35.5l-84 -121q-25 -39 -68 -11q-147 102 -264 103q-82 0 -129 -40t-47 -91q0 -66 55 -116t176 -99q88 -35 149.5 -68t128 -84t101.5 -121.5t35 -156.5 q0 -152 -150 -285q150 -137 150 -299q0 -156 -125 -268.5t-326 -112.5q-266 0 -428 152q-35 35 -10 69l63 109q29 47 72 16l33 -20q33 -20 70.5 -41t92 -39.5t99.5 -18.5q70 0 122 36t52 104q0 135 -246 239q-369 152 -368 418zM317 532q0 -53 35 -94t86 -69.5t137 -67.5 q29 -12 43 -18q8 6 22.5 17t37 54t22.5 92q0 143 -309 240q-74 -74 -74 -154z" />
<glyph unicode="&#xa8;" horiz-adv-x="847" d="M100 1259.5q0 53.5 38 91.5t91.5 38t92 -38t38.5 -91.5t-38.5 -92.5t-92 -39t-91.5 39t-38 92.5zM512 1259.5q0 53.5 38 91.5t91 38t92 -38t39 -91.5t-39 -92.5t-92 -39t-91 39t-38 92.5z" />
<glyph unicode="&#xa9;" horiz-adv-x="1646" d="M86 717q0 305 216 521t519 216q305 0 521.5 -217t216.5 -520t-216.5 -519t-521.5 -216t-520 216t-215 519zM246 717q0 -238 169 -407t406 -169q240 0 408 169t168 407q0 240 -168 407.5t-408 167.5q-238 0 -406.5 -167.5t-168.5 -407.5zM457 713q0 160 111.5 272.5 t271.5 112.5q131 0 229 -78q33 -29 4 -59l-69 -78q-18 -25 -52 -4q-47 33 -110 32q-80 0 -134.5 -56t-54.5 -136q0 -82 53.5 -137.5t135.5 -55.5q57 0 108 33q29 23 51 -4l74 -82q27 -29 -2 -57q-100 -86 -233 -86q-158 0 -270.5 112.5t-112.5 270.5z" />
<glyph unicode="&#xaa;" horiz-adv-x="636" d="M43 1024q0 84 64.5 138.5t177.5 54.5q29 0 56.5 -4.5t39.5 -8.5l14 -4q0 59 -17.5 85t-68.5 26q-55 0 -159 -25q-29 -6 -35 31l-13 67q-6 29 19 39q14 8 78.5 19.5t128.5 11.5q131 0 182 -63.5t51 -200.5v-330q0 -12 -9 -20.5t-20 -8.5h-55q-18 0 -28 21q-2 8 -8.5 22.5 t-8.5 20.5q-84 -80 -184 -80q-90 0 -147.5 57.5t-57.5 151.5zM211 1026q0 -35 21.5 -57.5t56.5 -22.5t64.5 22.5t39.5 49.5v67q-27 23 -92 23q-39 0 -64.5 -23.5t-25.5 -58.5z" />
<glyph unicode="&#xab;" horiz-adv-x="964" d="M53 397q-16 23 0 49l223 304q14 25 37 24h117q27 0 35 -19.5t-4 -43.5l-139 -285l133 -301q12 -25 3 -43.5t-34 -18.5h-127q-19 1 -31 17zM463 397q-16 23 0 49l223 304q14 25 37 24h117q27 0 35 -19.5t-5 -43.5l-139 -285l133 -301q12 -25 3 -43.5t-33 -18.5h-127 q-18 0 -31 17z" />
<glyph unicode="&#xac;" horiz-adv-x="1032" d="M47 653v115q0 14 11.5 26.5t27.5 12.5h805q16 0 27.5 -12.5t11.5 -26.5v-463q0 -14 -11.5 -25.5t-27.5 -11.5h-115q-16 0 -27.5 11.5t-11.5 25.5v309h-651q-16 0 -27.5 12.5t-11.5 26.5z" />
<glyph unicode="&#xad;" horiz-adv-x="710" d="M88 430v137q0 39 39 39h457q39 0 39 -39v-137q0 -16 -11.5 -26.5t-27.5 -10.5h-457q-16 0 -27.5 10.5t-11.5 26.5z" />
<glyph unicode="&#xae;" horiz-adv-x="1646" d="M86 717q0 305 216 521t519 216q305 0 521.5 -217t216.5 -520t-216.5 -519t-521.5 -216t-520 216t-215 519zM246 717q0 -238 169 -407t406 -169q240 0 408 169t168 407q0 240 -168 407.5t-408 167.5q-238 0 -406.5 -167.5t-168.5 -407.5zM547 383v672q0 16 11 27.5 t28 11.5h317q100 0 176 -70t76 -184q0 -158 -145 -228l94 -213q8 -20 -2 -37.5t-33 -17.5h-111q-25 0 -36 29l-91 229h-106v-219q0 -16 -11.5 -27.5t-27.5 -11.5h-100q-16 0 -27.5 11.5t-11.5 27.5zM719 754h162q37 0 60.5 24.5t23.5 59.5q0 37 -23.5 60.5t-60.5 23.5h-162 v-168z" />
<glyph unicode="&#xaf;" horiz-adv-x="847" d="M123 1204v70q0 39 39 39h524q39 0 39 -39v-70q0 -16 -11.5 -26.5t-27.5 -10.5h-524q-16 0 -27.5 10.5t-11.5 26.5z" />
<glyph unicode="&#xb0;" horiz-adv-x="634" d="M41 1177.5q0 114.5 81 195.5t195.5 81t195.5 -81t81 -195.5t-81 -195.5t-195.5 -81t-195.5 81t-81 195.5zM213 1178q0 -41 31.5 -73t72.5 -32q39 0 70 32t31 73q0 39 -31 69.5t-70 30.5q-41 0 -72.5 -30.5t-31.5 -69.5z" />
<glyph unicode="&#xb1;" horiz-adv-x="1146" d="M131 135v115q0 16 12.5 27.5t26.5 11.5h807q14 0 25.5 -11.5t11.5 -27.5v-115q0 -16 -11.5 -27.5t-25.5 -11.5h-807q-14 0 -26.5 11.5t-12.5 27.5zM131 782v115q0 16 12.5 27.5t26.5 11.5h307v303q0 14 11.5 25.5t27.5 11.5h115q16 0 27.5 -11.5t11.5 -25.5v-303h307 q14 0 25.5 -11.5t11.5 -27.5v-115q0 -16 -11.5 -27.5t-25.5 -11.5h-307v-211q0 -14 -11.5 -25t-27.5 -11h-115q-16 0 -27.5 11t-11.5 25v211h-307q-14 0 -26.5 11.5t-12.5 27.5z" />
<glyph unicode="&#xb2;" horiz-adv-x="567" d="M55 1051v34l226 258q51 57 51 103q0 31 -22.5 51.5t-59.5 20.5q-53 0 -90 -41q-18 -12 -33 6l-45 63q-18 25 6 43q84 70 193 70q96 0 156.5 -52.5t60.5 -136.5t-76 -176l-111 -131h164q18 0 19 -18v-94q0 -18 -19 -19h-399q-20 0 -21 19z" />
<glyph unicode="&#xb3;" horiz-adv-x="542" d="M53 1116l45 60q12 18 35 4l6 -4q4 -2 13.5 -7.5t20.5 -10.5t26.5 -8t29.5 -3q86 0 86 63q0 68 -96 68h-59q-31 0 -31 29v63q0 29 31 29h59q39 0 61.5 17.5t22.5 45.5q0 27 -21.5 44.5t-56.5 17.5q-43 0 -80 -33q-18 -10 -30 6l-49 59q-23 23 2 37q68 66 182 66 q98 0 159.5 -46t61.5 -124q0 -51 -31.5 -88t-72.5 -55v-3q123 -47 122 -155q0 -82 -68.5 -129t-170.5 -47q-119 0 -195 67q-16 16 -2 37z" />
<glyph unicode="&#xb4;" horiz-adv-x="618" d="M94 1167q-12 23 12 39l334 199q37 25 54 -6l59 -105q18 -41 -12 -55l-359 -158q-39 -14 -53 13z" />
<glyph unicode="&#xb5;" horiz-adv-x="1073" d="M125 -575v1355q0 16 11 27.5t28 11.5h168q16 0 27.5 -11t11.5 -28v-407q4 -76 43 -118t106 -42q61 0 107.5 47t56.5 107v413q0 23 10.5 31t34.5 8h156q16 0 27.5 -11t11.5 -28v-741q0 -14 -11.5 -26.5t-27.5 -12.5h-76q-27 0 -39 31l-25 67q-2 -2 -15 -14t-20.5 -18.5 t-24.5 -18.5t-30.5 -20.5t-35 -18.5t-43 -15t-49 -9t-56.5 -4q-53 0 -100 12v-567q0 -14 -11.5 -26.5t-27.5 -12.5h-168q-16 0 -27.5 12t-11.5 27z" />
<glyph unicode="&#xb6;" horiz-adv-x="1435" d="M39 1006q0 176 115.5 302t281.5 126l934 -2q14 0 26.5 -11.5t12.5 -27.5v-95q0 -16 -11.5 -27t-27.5 -11h-160v-1835q0 -16 -11 -27.5t-28 -11.5h-110q-16 0 -27.5 12t-11.5 27v1835h-279v-1835q0 -14 -11 -26.5t-27 -12.5h-111q-16 0 -27.5 12t-11.5 27v1150h-90 q-174 0 -300 125t-126 306z" />
<glyph unicode="&#xb7;" horiz-adv-x="528" d="M80 524q0 78 54 133.5t128 55.5q78 0 133.5 -55.5t55.5 -133.5q0 -74 -55.5 -128t-133.5 -54q-74 0 -128 54.5t-54 127.5z" />
<glyph unicode="&#xb8;" horiz-adv-x="505" d="M72 -461q-27 29 6 58l41 34q23 23 43 -2q23 -25 61 -24q31 0 51.5 22.5t20.5 53.5q0 88 -150 100q-35 4 -34 37v182h135v-106q94 -12 146 -68.5t52 -142.5q0 -90 -63.5 -152.5t-153.5 -62.5q-94 0 -155 71z" />
<glyph unicode="&#xb9;" horiz-adv-x="401" d="M27 1520q0 10 14 22l152 96h104q18 0 18 -18v-569q0 -18 -18 -19h-127q-20 0 -20 19v395l-101 -8q-18 0 -18 18z" />
<glyph unicode="&#xba;" horiz-adv-x="618" d="M51 1130q0 154 66.5 239t193.5 85q125 0 190.5 -85t65.5 -238.5t-65.5 -238.5t-190.5 -85t-192.5 86t-67.5 237zM221 1130.5q0 -180.5 90 -180.5t90 180.5t-90 180.5t-90 -180.5z" />
<glyph unicode="&#xbb;" horiz-adv-x="964" d="M88 755q8 19 35 19h117q23 0 36 -24l224 -304q16 -27 0 -49l-213 -317q-12 -16 -31 -17h-127q-25 0 -34 18.5t3 43.5l133 301l-139 285q-12 25 -4 44zM498 755q8 19 34 19h117q23 0 37 -24l223 -304q16 -27 0 -49l-213 -317q-12 -16 -30 -17h-127q-25 0 -34 18.5t3 43.5 l133 301l-139 285q-12 25 -4 44z" />
<glyph unicode="&#xbc;" horiz-adv-x="1359" d="M43 1315q0 10 14 22l152 97h104q18 0 19 -19v-569q0 -18 -19 -19h-127q-20 0 -20 19v395l-100 -8q-18 0 -19 18zM182 55l703 1358q10 20 35 21h102q23 0 34 -17.5t1 -38.5l-707 -1358q-10 -20 -35 -20h-98q-23 0 -34 17.5t-1 37.5zM719 133v105l334 362q6 6 16 6h84 q18 0 18 -18v-348h82q18 0 19 -17v-88q0 -18 -19 -18h-82v-99q0 -18 -18 -18h-115q-20 0 -20 18v99h-281q-18 0 -18 16zM868 238h152v170z" />
<glyph unicode="&#xbd;" horiz-adv-x="1353" d="M43 1315q0 10 14 22l152 97h104q18 0 19 -19v-569q0 -18 -19 -19h-127q-20 0 -20 19v395l-100 -8q-18 0 -19 18zM182 55l703 1358q10 20 35 21h102q23 0 34 -17.5t1 -38.5l-707 -1358q-10 -20 -35 -20h-98q-23 0 -34 17.5t-1 37.5zM801 18v35l225 258q51 57 51 103 q0 31 -22.5 51t-59.5 20q-53 0 -90 -41q-18 -12 -33 7l-45 63q-18 25 7 43q84 70 192 70q96 0 156.5 -52.5t60.5 -136.5t-76 -176l-110 -131h164q18 0 18 -18v-95q0 -18 -18 -18h-400q-20 0 -20 18z" />
<glyph unicode="&#xbe;" horiz-adv-x="1435" d="M66 911l45 60q12 18 34 4l7 -4q4 -2 13 -7.5t20.5 -10.5t26.5 -8t30 -3q86 0 86 64q0 68 -97 67h-59q-31 0 -31 29v63q0 29 31 29h59q39 0 61.5 17.5t22.5 45.5q0 27 -21.5 44.5t-55.5 17.5q-43 0 -80 -33q-18 -10 -31 6l-49 60q-23 23 2 37q68 66 182 65q98 0 159.5 -46 t61.5 -124q0 -51 -31.5 -88t-72.5 -55v-2q123 -47 123 -156q0 -82 -69 -129t-171 -47q-119 0 -194 67q-16 16 -2 37zM258 55l703 1358q10 20 34 21h103q23 0 34 -17.5t1 -38.5l-707 -1358q-10 -20 -35 -20h-98q-23 0 -34 17.5t-1 37.5zM795 133v105l333 362q6 6 17 6h84 q18 0 18 -18v-348h82q18 0 19 -17v-88q0 -18 -19 -18h-82v-99q0 -18 -18 -18h-115q-20 0 -20 18v99h-281q-18 0 -18 16zM944 238h152v170z" />
<glyph unicode="&#xbf;" horiz-adv-x="888" d="M39 -291q0 70 31.5 129.5t78 99t92.5 74.5t77.5 71t31.5 69v67q0 43 41 43h166q16 0 27.5 -11t11.5 -28v-86q0 -66 -44 -126t-98.5 -99t-98.5 -89t-44 -97q0 -57 45 -97.5t119 -40.5q55 0 97 18.5t82 52.5t42 36q25 16 45 -2l97 -94q29 -25 0 -54q-6 -8 -16.5 -19 t-49.5 -43t-82 -55.5t-111.5 -43t-142.5 -19.5q-164 0 -280.5 98.5t-116.5 245.5zM305 671.5q0 69.5 50.5 119t120 49.5t118.5 -49.5t49 -119t-49 -119.5t-118.5 -50t-120 50t-50.5 119.5z" />
<glyph unicode="&#xc0;" d="M0 53l637 1379q10 23 35 22h20q25 0 35 -22l631 -1379q10 -20 -1 -36.5t-34 -16.5h-178q-39 0 -60 41l-100 221h-612l-101 -221q-16 -41 -59 -41h-178q-23 0 -34 16.5t-1 36.5zM453 1786l57 106q16 29 53 6l336 -200q25 -14 12 -39l-37 -72q-14 -30 -51 -14l-358 158 q-35 16 -12 55zM473 489h412l-205 451h-6z" />
<glyph unicode="&#xc1;" d="M0 53l637 1379q10 23 35 22h20q25 0 35 -22l631 -1379q10 -20 -1 -36.5t-34 -16.5h-178q-39 0 -60 41l-100 221h-612l-101 -221q-16 -41 -59 -41h-178q-23 0 -34 16.5t-1 36.5zM446 1659q-12 25 13 39l336 200q37 23 53 -6l57 -106q23 -39 -12 -55l-358 -158 q-37 -16 -52 14zM473 489h412l-205 451h-6z" />
<glyph unicode="&#xc2;" d="M0 53l637 1379q10 23 35 22h20q25 0 35 -22l631 -1379q10 -20 -1 -36.5t-34 -16.5h-178q-39 0 -60 41l-100 221h-612l-101 -221q-16 -41 -59 -41h-178q-23 0 -34 16.5t-1 36.5zM379 1651q-14 20 12 39l266 206q20 16 43 0l267 -206q27 -18 12 -39l-53 -76q-18 -23 -47 -6 l-199 125l-201 -125q-29 -16 -47 6zM473 489h412l-205 451h-6z" />
<glyph unicode="&#xc3;" d="M0 53l637 1379q10 23 35 22h20q25 0 35 -22l631 -1379q10 -20 -1 -36.5t-34 -16.5h-178q-39 0 -60 41l-100 221h-612l-101 -221q-16 -41 -59 -41h-178q-23 0 -34 16.5t-1 36.5zM360 1706q16 31 25.5 45t39.5 52t67.5 56.5t80.5 18.5q57 0 121 -56.5t99 -56.5 q25 0 43 19.5t27 39t26.5 31t36.5 -5.5l57 -41q27 -20 2 -63q-61 -106 -123 -137q-35 -18 -76 -19q-57 0 -125.5 57.5t-97.5 57.5q-31 0 -51 -31t-36.5 -52t-43.5 -5l-59 43q-25 18 -13 47zM473 489h412l-205 451h-6z" />
<glyph unicode="&#xc4;" d="M0 53l637 1379q10 23 35 22h20q25 0 35 -22l631 -1379q10 -20 -1 -36.5t-34 -16.5h-178q-39 0 -60 41l-100 221h-612l-101 -221q-16 -41 -59 -41h-178q-23 0 -34 16.5t-1 36.5zM295 1718.5q0 53.5 38 91t91 37.5t92 -37.5t39 -91t-39 -92.5t-92 -39t-91 39t-38 92.5z M473 489h412l-205 451h-6zM801 1718.5q0 53.5 38 91t91 37.5t92 -37.5t39 -91t-39 -92.5t-92 -39t-91 39t-38 92.5z" />
<glyph unicode="&#xc5;" d="M0 53l637 1379q10 23 35 22h20q25 0 35 -22l631 -1379q10 -20 -1 -36.5t-34 -16.5h-178q-39 0 -60 41l-100 221h-612l-101 -221q-16 -41 -59 -41h-178q-23 0 -34 16.5t-1 36.5zM446 1775.5q0 96.5 68 164t164 67.5t163.5 -67.5t67.5 -164t-67.5 -164t-163.5 -67.5 t-164 67.5t-68 164zM473 489h412l-205 451h-6zM575 1776q0 -39 32 -71t71 -32t68.5 31t29.5 72q0 39 -29.5 68.5t-68.5 29.5q-41 0 -72 -29.5t-31 -68.5z" />
<glyph unicode="&#xc6;" horiz-adv-x="1843" d="M-28 16.5q-7 16.5 5 36.5l822 1317q31 49 51 57q14 6 39 7h809q16 0 27.5 -11.5t11.5 -27.5v-168q0 -16 -11.5 -27.5t-27.5 -11.5h-613v-336h512q16 0 27.5 -12.5t11.5 -26.5v-170q0 -16 -11 -27.5t-28 -11.5h-512v-358h613q16 0 27.5 -11.5t11.5 -27.5v-168 q0 -16 -11.5 -27.5t-27.5 -11.5h-836q-16 0 -27.5 11.5t-11.5 27.5v223h-430l-145 -231q-20 -31 -51 -31h-195q-23 0 -30 16.5zM537 489h286v463z" />
<glyph unicode="&#xc7;" horiz-adv-x="1404" d="M84 715q0 307 216 523t523 216q283 0 496 -190q31 -29 2 -58l-125 -129q-25 -27 -51 0q-137 121 -316 121q-195 0 -325.5 -140t-130.5 -337q0 -195 132 -334t326 -139q170 0 314 117q27 25 51 0l127 -132q12 -12 11 -27.5t-13 -27.5q-201 -195 -494 -198v-86 q94 -12 146.5 -68.5t52.5 -142.5q0 -90 -63.5 -152.5t-153.5 -62.5q-94 0 -156 71q-27 29 6 58l41 34q23 23 43 -2q23 -25 62 -24q31 0 51.5 22.5t20.5 53.5q0 88 -150 100q-35 4 -35 37v174q-262 45 -435 248.5t-173 474.5z" />
<glyph unicode="&#xc8;" horiz-adv-x="1204" d="M186 39v1356q0 16 11.5 27.5t27.5 11.5h834q16 0 27.5 -11.5t11.5 -27.5v-168q0 -16 -11.5 -27.5t-27.5 -11.5h-606v-336h505q16 0 27.5 -12.5t11.5 -26.5v-170q0 -16 -11 -27.5t-28 -11.5h-505v-358h606q16 0 27.5 -11.5t11.5 -27.5v-168q0 -16 -11.5 -27.5t-27.5 -11.5 h-834q-16 0 -27.5 11.5t-11.5 27.5zM428 1786l57 106q16 29 54 6l335 -200q25 -14 13 -39l-37 -72q-14 -30 -51 -14l-359 158q-35 16 -12 55z" />
<glyph unicode="&#xc9;" horiz-adv-x="1204" d="M186 39v1356q0 16 11.5 27.5t27.5 11.5h834q16 0 27.5 -11.5t11.5 -27.5v-168q0 -16 -11.5 -27.5t-27.5 -11.5h-606v-336h505q16 0 27.5 -12.5t11.5 -26.5v-170q0 -16 -11 -27.5t-28 -11.5h-505v-358h606q16 0 27.5 -11.5t11.5 -27.5v-168q0 -16 -11.5 -27.5t-27.5 -11.5 h-834q-16 0 -27.5 11.5t-11.5 27.5zM424 1659q-12 25 12 39l336 200q37 23 53 -6l58 -106q23 -39 -13 -55l-358 -158q-37 -16 -51 14z" />
<glyph unicode="&#xca;" horiz-adv-x="1204" d="M186 39v1356q0 16 11.5 27.5t27.5 11.5h834q16 0 27.5 -11.5t11.5 -27.5v-168q0 -16 -11.5 -27.5t-27.5 -11.5h-606v-336h505q16 0 27.5 -12.5t11.5 -26.5v-170q0 -16 -11 -27.5t-28 -11.5h-505v-358h606q16 0 27.5 -11.5t11.5 -27.5v-168q0 -16 -11.5 -27.5t-27.5 -11.5 h-834q-16 0 -27.5 11.5t-11.5 27.5zM344 1651q-14 20 12 39l267 206q20 16 43 0l266 -206q27 -18 12 -39l-53 -76q-18 -23 -47 -6l-199 125l-201 -125q-29 -16 -47 6z" />
<glyph unicode="&#xcb;" horiz-adv-x="1204" d="M186 39v1356q0 16 11.5 27.5t27.5 11.5h834q16 0 27.5 -11.5t11.5 -27.5v-168q0 -16 -11.5 -27.5t-27.5 -11.5h-606v-336h505q16 0 27.5 -12.5t11.5 -26.5v-170q0 -16 -11 -27.5t-28 -11.5h-505v-358h606q16 0 27.5 -11.5t11.5 -27.5v-168q0 -16 -11.5 -27.5t-27.5 -11.5 h-834q-16 0 -27.5 11.5t-11.5 27.5zM270 1718.5q0 53.5 38 91t91.5 37.5t92 -37.5t38.5 -91t-38.5 -92.5t-92 -39t-91.5 39t-38 92.5zM776 1718.5q0 53.5 38 91t91 37.5t92 -37.5t39 -91t-39 -92.5t-92 -39t-91 39t-38 92.5z" />
<glyph unicode="&#xcc;" horiz-adv-x="641" d="M92 1786l58 106q16 29 53 6l336 -200q25 -14 12 -39l-37 -72q-14 -30 -51 -14l-359 158q-35 16 -12 55zM186 39v1356q0 14 11.5 26.5t27.5 12.5h191q14 0 26.5 -12.5t12.5 -26.5v-1356q0 -14 -12.5 -26.5t-26.5 -12.5h-191q-16 0 -27.5 12.5t-11.5 26.5z" />
<glyph unicode="&#xcd;" horiz-adv-x="641" d="M88 1659q-12 25 12 39l336 200q37 23 53 -6l58 -106q23 -39 -12 -55l-359 -158q-37 -16 -51 14zM186 39v1356q0 14 11.5 26.5t27.5 12.5h191q14 0 26.5 -12.5t12.5 -26.5v-1356q0 -14 -12.5 -26.5t-26.5 -12.5h-191q-16 0 -27.5 12.5t-11.5 26.5z" />
<glyph unicode="&#xce;" horiz-adv-x="641" d="M16 1651q-14 20 13 39l266 206q20 16 43 0l266 -206q27 -18 12 -39l-53 -76q-18 -23 -47 -6l-199 125l-200 -125q-29 -16 -47 6zM186 39v1356q0 14 11.5 26.5t27.5 12.5h191q14 0 26.5 -12.5t12.5 -26.5v-1356q0 -14 -12.5 -26.5t-26.5 -12.5h-191q-16 0 -27.5 12.5 t-11.5 26.5z" />
<glyph unicode="&#xcf;" horiz-adv-x="641" d="M-63 1718.5q0 53.5 37.5 91t91 37.5t92.5 -37.5t39 -91t-39 -92.5t-92.5 -39t-91 39t-37.5 92.5zM186 39v1356q0 14 11.5 26.5t27.5 12.5h191q14 0 26.5 -12.5t12.5 -26.5v-1356q0 -14 -12.5 -26.5t-26.5 -12.5h-191q-16 0 -27.5 12.5t-11.5 26.5zM442 1718.5 q0 53.5 38 91t91.5 37.5t92 -37.5t38.5 -91t-38.5 -92.5t-92 -39t-91.5 39t-38 92.5z" />
<glyph unicode="&#xd0;" horiz-adv-x="1521" d="M100 696v27q0 16 11.5 27.5t25.5 11.5h60v633q0 16 11 27.5t25 11.5h486q297 0 508 -210t211 -505q0 -297 -211 -508t-508 -211h-486q-14 0 -25 11.5t-11 27.5v618h-60q-14 0 -25.5 11.5t-11.5 27.5zM461 250h233q199 0 330 134t131 335t-131 334t-330 133h-233v-424h338 q16 0 27.5 -11.5t11.5 -27.5v-29q0 -16 -11.5 -26.5t-27.5 -10.5h-338v-407z" />
<glyph unicode="&#xd1;" horiz-adv-x="1583" d="M186 39v1378q0 14 11.5 25.5t27.5 11.5h51l852 -905h2v846q0 16 11.5 27.5t27.5 11.5h189q14 0 26.5 -12.5t12.5 -26.5v-1379q0 -14 -11.5 -25t-27.5 -11h-49l-856 940h-2v-881q0 -16 -11.5 -27.5t-27.5 -11.5h-187q-16 0 -27.5 12.5t-11.5 26.5zM473 1706q16 31 25.5 45 t39 52t67.5 56.5t81 18.5q57 0 120.5 -56.5t98.5 -56.5q25 0 43.5 19.5t27.5 39t26.5 31t35.5 -5.5l58 -41q27 -20 2 -63q-61 -106 -123 -137q-35 -18 -76 -19q-57 0 -125.5 57.5t-97.5 57.5q-31 0 -51.5 -31t-36.5 -52t-43 -5l-60 43q-25 18 -12 47z" />
<glyph unicode="&#xd2;" horiz-adv-x="1638" d="M84 715q0 307 214 523t521 216t522 -216t215 -523t-215 -521t-522 -214t-521 214t-214 521zM350 714.5q0 -194.5 138.5 -331.5t330.5 -137q195 0 333 138t138 331q0 195 -139 334t-331.5 139t-331 -139.5t-138.5 -334zM598 1786l57 106q16 29 54 6l335 -200 q25 -14 13 -39l-37 -72q-14 -30 -51 -14l-359 158q-35 16 -12 55z" />
<glyph unicode="&#xd3;" horiz-adv-x="1638" d="M84 715q0 307 214 523t521 216t522 -216t215 -523t-215 -521t-522 -214t-521 214t-214 521zM350 714.5q0 -194.5 138.5 -331.5t330.5 -137q195 0 333 138t138 331q0 195 -139 334t-331.5 139t-331 -139.5t-138.5 -334zM590 1659q-12 25 12 39l336 200q37 23 53 -6 l58 -106q23 -39 -13 -55l-358 -158q-37 -16 -51 14z" />
<glyph unicode="&#xd4;" horiz-adv-x="1638" d="M84 715q0 307 214 523t521 216t522 -216t215 -523t-215 -521t-522 -214t-521 214t-214 521zM350 714.5q0 -194.5 138.5 -331.5t330.5 -137q195 0 333 138t138 331q0 195 -139 334t-331.5 139t-331 -139.5t-138.5 -334zM518 1651q-14 20 12 39l267 206q20 16 43 0 l266 -206q27 -18 12 -39l-53 -76q-18 -23 -47 -6l-199 125l-201 -125q-29 -16 -47 6z" />
<glyph unicode="&#xd5;" horiz-adv-x="1638" d="M84 715q0 307 214 523t521 216t522 -216t215 -523t-215 -521t-522 -214t-521 214t-214 521zM350 714.5q0 -194.5 138.5 -331.5t330.5 -137q195 0 333 138t138 331q0 195 -139 334t-331.5 139t-331 -139.5t-138.5 -334zM504 1706q16 31 25.5 45t39 52t67.5 56.5t81 18.5 q57 0 120.5 -56.5t98.5 -56.5q25 0 43 19.5t27.5 39t27 31t35.5 -5.5l57 -41q27 -20 2 -63q-61 -106 -122 -137q-35 -18 -76 -19q-57 0 -126 57.5t-97 57.5q-31 0 -51.5 -31t-37 -52t-43.5 -5l-59 43q-25 18 -12 47z" />
<glyph unicode="&#xd6;" horiz-adv-x="1638" d="M84 715q0 307 214 523t521 216t522 -216t215 -523t-215 -521t-522 -214t-521 214t-214 521zM350 714.5q0 -194.5 138.5 -331.5t330.5 -137q195 0 333 138t138 331q0 195 -139 334t-331.5 139t-331 -139.5t-138.5 -334zM436 1718.5q0 53.5 38 91t91 37.5t92 -37.5t39 -91 t-39 -92.5t-92 -39t-91 39t-38 92.5zM942 1718.5q0 53.5 38 91t91 37.5t92 -37.5t39 -91t-39 -92.5t-92 -39t-91 39t-38 92.5z" />
<glyph unicode="&#xd7;" horiz-adv-x="950" d="M113 955.5q0 17.5 10 27.5l80 82q10 10 27.5 10t27.5 -10l217 -217l217 219q25 27 53 -2l82 -82q29 -29 2 -53l-217 -219l217 -217q25 -29 -2 -56l-82 -80q-29 -27 -53 -2l-217 219l-217 -217q-26 -27 -53 0l-82 82q-27 27 0 54l217 217l-217 217q-10 10 -10 27.5z" />
<glyph unicode="&#xd8;" horiz-adv-x="1636" d="M84 715q0 307 214 523t521 216q272 0 484 -180l139 137q27 27 53 0l21 -20q25 -25 0 -54l-140 -139q180 -211 180 -481q0 -307 -215 -522t-522 -215q-283 0 -483 178l-133 -133q-27 -25 -53 2l-21 20q-27 27 -2 53l133 131q-176 205 -176 484zM350 715q1 -162 103 -291 l661 659q-135 104 -295 105q-193 0 -331 -139.5t-138 -333.5zM526 348q129 -102 293 -102q193 0 332 139t139 332q0 166 -104 291z" />
<glyph unicode="&#xd9;" horiz-adv-x="1476" d="M168 543v852q0 14 12.5 26.5t26.5 12.5h194q16 0 27.5 -11.5t11.5 -27.5v-838q0 -133 83 -222t214 -89t215 89t84 220v840q0 16 11.5 27.5t27.5 11.5h195q16 0 27.5 -12.5t11.5 -26.5v-852q0 -236 -165 -399.5t-407 -163.5q-240 0 -404.5 163.5t-164.5 399.5zM510 1786 l57 106q16 29 54 6l335 -200q25 -14 13 -39l-37 -72q-14 -30 -51 -14l-359 158q-35 16 -12 55z" />
<glyph unicode="&#xda;" horiz-adv-x="1476" d="M168 543v852q0 14 12.5 26.5t26.5 12.5h194q16 0 27.5 -11.5t11.5 -27.5v-838q0 -133 83 -222t214 -89t215 89t84 220v840q0 16 11.5 27.5t27.5 11.5h195q16 0 27.5 -12.5t11.5 -26.5v-852q0 -236 -165 -399.5t-407 -163.5q-240 0 -404.5 163.5t-164.5 399.5zM510 1659 q-12 25 12 39l336 200q37 23 53 -6l58 -106q23 -39 -13 -55l-358 -158q-37 -16 -51 14z" />
<glyph unicode="&#xdb;" horiz-adv-x="1476" d="M168 543v852q0 14 12.5 26.5t26.5 12.5h194q16 0 27.5 -11.5t11.5 -27.5v-838q0 -133 83 -222t214 -89t215 89t84 220v840q0 16 11.5 27.5t27.5 11.5h195q16 0 27.5 -12.5t11.5 -26.5v-852q0 -236 -165 -399.5t-407 -163.5q-240 0 -404.5 163.5t-164.5 399.5zM438 1651 q-14 20 13 39l266 206q20 16 43 0l266 -206q27 -18 12 -39l-53 -76q-18 -23 -47 -6l-199 125l-200 -125q-29 -16 -47 6z" />
<glyph unicode="&#xdc;" horiz-adv-x="1476" d="M168 543v852q0 14 12.5 26.5t26.5 12.5h194q16 0 27.5 -11.5t11.5 -27.5v-838q0 -133 83 -222t214 -89t215 89t84 220v840q0 16 11.5 27.5t27.5 11.5h195q16 0 27.5 -12.5t11.5 -26.5v-852q0 -236 -165 -399.5t-407 -163.5q-240 0 -404.5 163.5t-164.5 399.5zM354 1718.5 q0 53.5 38 91t91.5 37.5t92 -37.5t38.5 -91t-38.5 -92.5t-92 -39t-91.5 39t-38 92.5zM860 1718.5q0 53.5 38 91t91 37.5t92 -37.5t39 -91t-39 -92.5t-92 -39t-91 39t-38 92.5z" />
<glyph unicode="&#xdd;" horiz-adv-x="1193" d="M-8 1414q10 20 35 20h209q18 0 32 -19l328 -471l328 471q14 18 32 19h211q25 0 35 -19.5t-2 -40.5l-473 -682v-653q0 -14 -11 -26.5t-28 -12.5h-188q-16 0 -27.5 11.5t-11.5 27.5v651l-467 684q-12 20 -2 40zM365 1659q-12 25 12 39l336 200q37 23 53 -6l57 -106 q23 -39 -12 -55l-358 -158q-37 -16 -52 14z" />
<glyph unicode="&#xde;" horiz-adv-x="1210" d="M186 39v1356q0 16 11.5 27.5t27.5 11.5h189q16 0 27.5 -12.5t11.5 -26.5v-221h254q188 2 323 -132.5t135 -320.5q0 -190 -134 -325.5t-322 -135.5h-256v-221q0 -14 -11.5 -26.5t-27.5 -12.5h-189q-16 0 -27.5 11.5t-11.5 27.5zM453 510h237q86 0 148.5 61.5t62.5 151.5 q0 84 -62.5 141.5t-148.5 57.5h-237v-412z" />
<glyph unicode="&#xdf;" horiz-adv-x="1058" d="M123 39v805q0 299 130 454.5t355 155.5q139 0 241.5 -83t102.5 -238q0 -80 -40 -161t-80.5 -147.5t-40.5 -107.5q0 -29 32.5 -73t71.5 -88t71.5 -115.5t32.5 -145.5q0 -158 -99 -236.5t-236 -78.5q-84 0 -91 40l-18 138q-2 14 8 27.5t27 11.5q61 -4 107 23.5t46 80.5 t-53 115.5t-106.5 130t-53.5 133.5q0 70 83 220.5t83 221.5q0 49 -31.5 80t-80.5 31q-86 0 -147.5 -93t-61.5 -300v-801q0 -14 -11.5 -26.5t-27.5 -12.5h-174q-14 0 -26.5 12.5t-12.5 26.5z" />
<glyph unicode="&#xe0;" horiz-adv-x="872" d="M63 260q0 113 88.5 185.5t239.5 72.5q37 0 74 -5t55 -11l21 -6q2 78 -23.5 109.5t-83.5 31.5q-129 0 -229 -31q-39 -12 -47 37l-19 107q-8 39 29 51q12 4 49 12t103.5 17.5t125.5 9.5q182 0 249 -87t67 -270v-444q0 -14 -12.5 -26.5t-26.5 -12.5h-74q-23 0 -35 29l-24 55 q-115 -104 -250 -104q-125 0 -201 75.5t-76 204.5zM238 1294l57 105q16 31 53 6l336 -199q25 -12 12 -39l-37 -73q-12 -29 -51 -13l-358 158q-33 16 -12 55zM289 260q0 -47 29.5 -76.5t76.5 -29.5q45 0 87 28.5t55 50.5v113q-55 25 -115 25t-96.5 -31t-36.5 -80z" />
<glyph unicode="&#xe1;" horiz-adv-x="872" d="M63 260q0 113 88.5 185.5t239.5 72.5q37 0 74 -5t55 -11l21 -6q2 78 -23.5 109.5t-83.5 31.5q-129 0 -229 -31q-39 -12 -47 37l-19 107q-8 39 29 51q12 4 49 12t103.5 17.5t125.5 9.5q182 0 249 -87t67 -270v-444q0 -14 -12.5 -26.5t-26.5 -12.5h-74q-23 0 -35 29l-24 55 q-115 -104 -250 -104q-125 0 -201 75.5t-76 204.5zM231 1167q-12 23 13 39l334 199q37 25 53 -6l59 -105q18 -41 -12 -55l-359 -158q-39 -14 -53 13zM289 260q0 -47 29.5 -76.5t76.5 -29.5q45 0 87 28.5t55 50.5v113q-55 25 -115 25t-96.5 -31t-36.5 -80z" />
<glyph unicode="&#xe2;" horiz-adv-x="872" d="M63 260q0 113 88.5 185.5t239.5 72.5q37 0 74 -5t55 -11l21 -6q2 78 -23.5 109.5t-83.5 31.5q-129 0 -229 -31q-39 -12 -47 37l-19 107q-8 39 29 51q12 4 49 12t103.5 17.5t125.5 9.5q182 0 249 -87t67 -270v-444q0 -14 -12.5 -26.5t-26.5 -12.5h-74q-23 0 -35 29l-24 55 q-115 -104 -250 -104q-125 0 -201 75.5t-76 204.5zM139 1159q-14 20 13 39l266 207q20 16 43 0l266 -207q27 -18 12 -39l-53 -76q-18 -23 -47 -6l-199 125l-200 -125q-29 -17 -47 6zM289 260q0 -47 29.5 -76.5t76.5 -29.5q45 0 87 28.5t55 50.5v113q-55 25 -115 25 t-96.5 -31t-36.5 -80z" />
<glyph unicode="&#xe3;" horiz-adv-x="872" d="M63 260q0 113 88.5 185.5t239.5 72.5q37 0 74 -5t55 -11l21 -6q2 78 -23.5 109.5t-83.5 31.5q-129 0 -229 -31q-39 -12 -47 37l-19 107q-8 39 29 51q12 4 49 12t103.5 17.5t125.5 9.5q182 0 249 -87t67 -270v-444q0 -14 -12.5 -26.5t-26.5 -12.5h-74q-23 0 -35 29l-24 55 q-115 -104 -250 -104q-125 0 -201 75.5t-76 204.5zM127 1241q16 31 25.5 45t39 52t67.5 56.5t81 18.5q57 0 120.5 -56.5t98.5 -56.5q25 0 43.5 19.5t27.5 39t26.5 31t35.5 -5.5l58 -41q27 -20 2 -63q-61 -106 -123 -137q-35 -18 -76 -19q-57 0 -126 57.5t-97 57.5 q-31 0 -51.5 -30.5t-36.5 -52t-43 -5.5l-60 43q-25 18 -12 47zM289 260q0 -47 29.5 -76.5t76.5 -29.5q45 0 87 28.5t55 50.5v113q-55 25 -115 25t-96.5 -31t-36.5 -80z" />
<glyph unicode="&#xe4;" horiz-adv-x="872" d="M63 260q0 113 88.5 185.5t239.5 72.5q37 0 74 -5t55 -11l21 -6q2 78 -23.5 109.5t-83.5 31.5q-129 0 -229 -31q-39 -12 -47 37l-19 107q-8 39 29 51q12 4 49 12t103.5 17.5t125.5 9.5q182 0 249 -87t67 -270v-444q0 -14 -12.5 -26.5t-26.5 -12.5h-74q-23 0 -35 29l-24 55 q-115 -104 -250 -104q-125 0 -201 75.5t-76 204.5zM113 1259.5q0 53.5 37.5 91.5t91 38t92.5 -38t39 -91.5t-39 -92.5t-92.5 -39t-91 39t-37.5 92.5zM289 260q0 -47 29.5 -76.5t76.5 -29.5q45 0 87 28.5t55 50.5v113q-55 25 -115 25t-96.5 -31t-36.5 -80zM524 1259.5 q0 53.5 38 91.5t91.5 38t92 -38t38.5 -91.5t-38.5 -92.5t-92 -39t-91.5 39t-38 92.5z" />
<glyph unicode="&#xe5;" horiz-adv-x="872" d="M63 260q0 113 88.5 185.5t239.5 72.5q37 0 74 -5t55 -11l21 -6q2 78 -23.5 109.5t-83.5 31.5q-129 0 -229 -31q-39 -12 -47 37l-19 107q-8 39 29 51q12 4 49 12t103.5 17.5t125.5 9.5q182 0 249 -87t67 -270v-444q0 -14 -12.5 -26.5t-26.5 -12.5h-74q-23 0 -35 29l-24 55 q-115 -104 -250 -104q-125 0 -201 75.5t-76 204.5zM219 1222.5q0 96.5 67.5 164t164 67.5t164 -67.5t67.5 -164t-67.5 -164t-164 -67.5t-164 67.5t-67.5 164zM289 260q0 -47 29.5 -76.5t76.5 -29.5q45 0 87 28.5t55 50.5v113q-55 25 -115 25t-96.5 -31t-36.5 -80zM348 1223 q0 -39 31 -71t72 -32q39 0 68.5 31t29.5 72q0 39 -28.5 68.5t-69.5 29.5t-72 -29.5t-31 -68.5z" />
<glyph unicode="&#xe6;" horiz-adv-x="1372" d="M61 260q0 113 86 185.5t234 72.5q37 0 76 -4t59 -8l21 -4q-4 84 -26 116.5t-87 32.5q-98 0 -223 -33q-39 -4 -47 33l-19 111q-4 33 33 41q152 37 278 37q182 0 248 -84q106 84 246 84q160 0 271.5 -107.5t111.5 -273.5q0 -90 -43 -90h-522q8 -70 61 -125.5t133 -55.5 q84 0 162 54q35 23 53 0l82 -97q25 -33 -2 -53q-121 -113 -305 -112q-197 0 -307 133q-37 -47 -114 -90t-177 -43q-127 0 -205 75.5t-78 204.5zM287 266q0 -49 33.5 -79.5t80.5 -30.5q41 0 75 21.5t48 43.5l13 21v106q-55 27 -127 27q-51 0 -87 -31t-36 -78zM776 514h307 q-2 57 -46 97t-103 40q-61 0 -105.5 -39t-52.5 -98z" />
<glyph unicode="&#xe7;" horiz-adv-x="876" d="M61 410q0 178 131.5 304t305.5 126q182 0 303 -146q25 -33 -10 -57l-95 -90q-23 -18 -51 6q-57 66 -141 65q-82 0 -141.5 -61t-59.5 -147q0 -88 57.5 -148.5t141.5 -60.5q41 0 75.5 14t47 24.5t41.5 39.5q25 25 51 6l88 -76q35 -29 14 -57q-111 -170 -315 -172v-84 q94 -12 146 -68.5t52 -142.5q0 -90 -63.5 -152.5t-153.5 -62.5q-94 0 -155 71q-27 29 6 58l41 34q23 23 43 -2q23 -25 61 -24q31 0 51.5 22.5t20.5 53.5q0 88 -150 100q-35 4 -34 37v180q-133 39 -220.5 150.5t-87.5 259.5z" />
<glyph unicode="&#xe8;" horiz-adv-x="911" d="M61 410q0 176 119 303t299 127q160 0 271.5 -108.5t111.5 -272.5q0 -27 -4 -56q-4 -35 -39 -34h-524q4 -70 58.5 -124.5t138.5 -54.5q88 0 159 52q35 20 54 0l83 -97q29 -29 -2 -53q-121 -113 -305 -112q-182 0 -301 125t-119 305zM248 1294l57 105q16 31 53 6l336 -199 q25 -12 13 -39l-37 -73q-13 -29 -52 -13l-358 158q-33 16 -12 55zM313 512h310q-4 57 -48.5 98t-101.5 41q-61 0 -106.5 -40t-53.5 -99z" />
<glyph unicode="&#xe9;" horiz-adv-x="911" d="M61 410q0 176 119 303t299 127q160 0 271.5 -108.5t111.5 -272.5q0 -27 -4 -56q-4 -35 -39 -34h-524q4 -70 58.5 -124.5t138.5 -54.5q88 0 159 52q35 20 54 0l83 -97q29 -29 -2 -53q-121 -113 -305 -112q-182 0 -301 125t-119 305zM240 1167q-12 23 12 39l334 199 q37 25 53 -6l59 -105q18 -41 -12 -55l-358 -158q-39 -14 -54 13zM313 512h310q-4 57 -48.5 98t-101.5 41q-61 0 -106.5 -40t-53.5 -99z" />
<glyph unicode="&#xea;" horiz-adv-x="911" d="M61 410q0 176 119 303t299 127q160 0 271.5 -108.5t111.5 -272.5q0 -27 -4 -56q-4 -35 -39 -34h-524q4 -70 58.5 -124.5t138.5 -54.5q88 0 159 52q35 20 54 0l83 -97q29 -29 -2 -53q-121 -113 -305 -112q-182 0 -301 125t-119 305zM174 1159q-14 20 12 39l267 207 q20 16 43 0l266 -207q27 -18 12 -39l-53 -76q-18 -23 -47 -6l-199 125l-201 -125q-29 -17 -47 6zM313 512h310q-4 57 -48.5 98t-101.5 41q-61 0 -106.5 -40t-53.5 -99z" />
<glyph unicode="&#xeb;" horiz-adv-x="911" d="M61 410q0 176 119 303t299 127q160 0 271.5 -108.5t111.5 -272.5q0 -27 -4 -56q-4 -35 -39 -34h-524q4 -70 58.5 -124.5t138.5 -54.5q88 0 159 52q35 20 54 0l83 -97q29 -29 -2 -53q-121 -113 -305 -112q-182 0 -301 125t-119 305zM139 1259.5q0 53.5 38 91.5t91.5 38 t92 -38t38.5 -91.5t-38.5 -92.5t-92 -39t-91.5 39t-38 92.5zM313 512h310q-4 57 -48.5 98t-101.5 41q-61 0 -106.5 -40t-53.5 -99zM551 1259.5q0 53.5 38 91.5t91 38t92 -38t39 -91.5t-39 -92.5t-92 -39t-91 39t-38 92.5z" />
<glyph unicode="&#xec;" horiz-adv-x="493" d="M16 1294l58 105q16 31 53 6l336 -199q25 -12 12 -39l-37 -73q-12 -29 -51 -13l-358 158q-33 16 -13 55zM123 39v741q0 16 11 27.5t28 11.5h170q16 0 27.5 -11t11.5 -28v-741q0 -14 -11.5 -26.5t-27.5 -12.5h-170q-14 0 -26.5 12.5t-12.5 26.5z" />
<glyph unicode="&#xed;" horiz-adv-x="493" d="M10 1167q-12 23 13 39l333 199q37 25 54 -6l59 -105q18 -41 -12 -55l-359 -158q-39 -14 -53 13zM123 39v741q0 16 11 27.5t28 11.5h170q16 0 27.5 -11t11.5 -28v-741q0 -14 -11.5 -26.5t-27.5 -12.5h-170q-14 0 -26.5 12.5t-12.5 26.5z" />
<glyph unicode="&#xee;" horiz-adv-x="493" d="M-57 1159q-14 20 12 39l266 207q20 16 43 0l266 -207q27 -18 13 -39l-54 -76q-18 -23 -47 -6l-198 125l-201 -125q-29 -17 -47 6zM123 39v741q0 16 11 27.5t28 11.5h170q16 0 27.5 -11t11.5 -28v-741q0 -14 -11.5 -26.5t-27.5 -12.5h-170q-14 0 -26.5 12.5t-12.5 26.5z " />
<glyph unicode="&#xef;" horiz-adv-x="493" d="M-90 1259.5q0 53.5 38 91.5t91 38t92 -38t39 -91.5t-39 -92.5t-92 -39t-91 39t-38 92.5zM123 39v741q0 16 11 27.5t28 11.5h170q16 0 27.5 -11t11.5 -28v-741q0 -14 -11.5 -26.5t-27.5 -12.5h-170q-14 0 -26.5 12.5t-12.5 26.5zM322 1259.5q0 53.5 37.5 91.5t91 38 t92.5 -38t39 -91.5t-39 -92.5t-92.5 -39t-91 39t-37.5 92.5z" />
<glyph unicode="&#xf0;" horiz-adv-x="1081" d="M59 449q0 207 126 325.5t292 118.5q135 0 234 -57q-43 147 -215 270l-166 -96q-33 -18 -51 12l-15 27q-20 33 12 51l119 67q-66 37 -135 62q-55 16 -37 59l47 121q12 41 58 29q160 -63 280 -146l142 82q35 16 53 -16l14 -23q20 -35 -12 -53l-107 -61q311 -264 312 -676 q0 -242 -128 -403.5t-360 -161.5q-188 0 -325.5 138t-137.5 331zM291 452.5q0 -98.5 68.5 -169t164.5 -70.5q115 0 177.5 92t62.5 209q-20 68 -83 123t-155 55q-98 0 -166.5 -70.5t-68.5 -169z" />
<glyph unicode="&#xf1;" horiz-adv-x="1062" d="M123 39v741q0 16 11 27.5t28 11.5h78q25 0 34 -24l29 -76q113 121 289 121q184 0 274 -117t90 -291v-393q0 -14 -11 -26.5t-27 -12.5h-168q-16 0 -27.5 11.5t-11.5 27.5v405q0 80 -40 127t-114 47t-124 -39.5t-68 -89.5v-450q0 -39 -52 -39h-151q-14 0 -26.5 12.5 t-12.5 26.5zM231 1241q16 31 25.5 45t39.5 52t67.5 56.5t80.5 18.5q57 0 121 -56.5t99 -56.5q25 0 43 19.5t27 39t26.5 31t36.5 -5.5l57 -41q27 -20 2 -63q-61 -106 -123 -137q-35 -18 -76 -19q-57 0 -125.5 57.5t-97.5 57.5q-31 0 -51.5 -30.5t-36.5 -52t-43 -5.5l-59 43 q-25 18 -13 47z" />
<glyph unicode="&#xf2;" horiz-adv-x="958" d="M59 412q0 174 124 301t296 127t296 -127t124 -301q0 -176 -123 -304t-297 -128t-297 128t-123 304zM256 1294l57 105q16 31 54 6l335 -199q25 -12 13 -39l-37 -73q-12 -29 -51 -13l-359 158q-33 16 -12 55zM283 412q0 -88 57 -149.5t139 -61.5t139.5 61.5t57.5 149.5 q0 86 -57.5 146t-139.5 60t-139 -60t-57 -146z" />
<glyph unicode="&#xf3;" horiz-adv-x="958" d="M59 412q0 174 124 301t296 127t296 -127t124 -301q0 -176 -123 -304t-297 -128t-297 128t-123 304zM246 1167q-12 23 12 39l334 199q37 25 53 -6l60 -105q18 -41 -13 -55l-358 -158q-39 -14 -53 13zM283 412q0 -88 57 -149.5t139 -61.5t139.5 61.5t57.5 149.5 q0 86 -57.5 146t-139.5 60t-139 -60t-57 -146z" />
<glyph unicode="&#xf4;" horiz-adv-x="958" d="M59 412q0 174 124 301t296 127t296 -127t124 -301q0 -176 -123 -304t-297 -128t-297 128t-123 304zM176 1159q-14 20 12 39l267 207q20 16 43 0l266 -207q27 -18 12 -39l-53 -76q-18 -23 -47 -6l-199 125l-201 -125q-29 -17 -47 6zM283 412q0 -88 57 -149.5t139 -61.5 t139.5 61.5t57.5 149.5q0 86 -57.5 146t-139.5 60t-139 -60t-57 -146z" />
<glyph unicode="&#xf5;" horiz-adv-x="958" d="M59 412q0 174 124 301t296 127t296 -127t124 -301q0 -176 -123 -304t-297 -128t-297 128t-123 304zM160 1241q16 31 25.5 45t39 52t67.5 56.5t81 18.5q57 0 120.5 -56.5t98.5 -56.5q25 0 43 19.5t27.5 39t27 31t35.5 -5.5l57 -41q27 -20 2 -63q-61 -106 -122 -137 q-35 -18 -76 -19q-57 0 -126 57.5t-98 57.5q-31 0 -51 -30.5t-36.5 -52t-43.5 -5.5l-59 43q-25 18 -12 47zM283 412q0 -88 57 -149.5t139 -61.5t139.5 61.5t57.5 149.5q0 86 -57.5 146t-139.5 60t-139 -60t-57 -146z" />
<glyph unicode="&#xf6;" horiz-adv-x="958" d="M59 412q0 174 124 301t296 127t296 -127t124 -301q0 -176 -123 -304t-297 -128t-297 128t-123 304zM141 1259.5q0 53.5 38 91.5t91.5 38t92 -38t38.5 -91.5t-38.5 -92.5t-92 -39t-91.5 39t-38 92.5zM283 412q0 -88 57 -149.5t139 -61.5t139.5 61.5t57.5 149.5 q0 86 -57.5 146t-139.5 60t-139 -60t-57 -146zM553 1259.5q0 53.5 38 91.5t91 38t92 -38t39 -91.5t-39 -92.5t-92 -39t-91 39t-38 92.5z" />
<glyph unicode="&#xf7;" horiz-adv-x="1034" d="M76 651v115q0 16 11 27.5t28 11.5h807q14 0 25 -11.5t11 -27.5v-115q0 -16 -11 -27.5t-25 -11.5h-807q-16 0 -27.5 11.5t-11.5 27.5zM371 328q0 57 40 98t99 41t100 -41t41 -98.5t-41 -99.5t-100 -42q-57 0 -98 41.5t-41 100.5zM371 1106q0 57 42 99t99 42t99 -42t42 -99 t-42 -99t-99 -42t-99 42t-42 99z" />
<glyph unicode="&#xf8;" horiz-adv-x="958" d="M61 414q0 174 124 300t296 126q143 0 258 -95l54 54q25 29 53 0l20 -21q29 -25 0 -53l-53 -53q86 -117 86 -258q0 -178 -123 -306t-295 -128q-145 0 -260 92l-43 -45q-10 -10 -27.5 -10.5t-27.5 12.5l-19 20q-27 29 -2 53l45 45q-86 117 -86 267zM285 414q-1 -58 22 -103 l275 277q-43 31 -101 30q-82 0 -139 -59t-57 -145zM379 229q45 -29 102 -28q82 0 138.5 62.5t56.5 150.5q0 51 -23 96z" />
<glyph unicode="&#xf9;" horiz-adv-x="1030" d="M109 383v397q0 16 11 27.5t27 11.5h168q16 0 27.5 -11t11.5 -28v-403q0 -82 40 -129t110 -47q61 0 107 47t57 106v426q0 23 10 31t35 8h155q16 0 27.5 -11t11.5 -28v-741q0 -14 -11 -26.5t-28 -12.5h-75q-27 0 -39 31l-25 67q-2 -2 -15.5 -14t-20.5 -18.5t-24.5 -18.5 t-30.5 -20.5t-34.5 -18.5t-43 -15t-49.5 -9t-56 -4q-178 0 -262 114.5t-84 288.5zM293 1294l57 105q16 31 53 6l336 -199q25 -12 13 -39l-37 -73q-12 -29 -51 -13l-359 158q-33 16 -12 55z" />
<glyph unicode="&#xfa;" horiz-adv-x="1030" d="M109 383v397q0 16 11 27.5t27 11.5h168q16 0 27.5 -11t11.5 -28v-403q0 -82 40 -129t110 -47q61 0 107 47t57 106v426q0 23 10 31t35 8h155q16 0 27.5 -11t11.5 -28v-741q0 -14 -11 -26.5t-28 -12.5h-75q-27 0 -39 31l-25 67q-2 -2 -15.5 -14t-20.5 -18.5t-24.5 -18.5 t-30.5 -20.5t-34.5 -18.5t-43 -15t-49.5 -9t-56 -4q-178 0 -262 114.5t-84 288.5zM285 1167q-12 23 12 39l334 199q37 25 53 -6l59 -105q18 -41 -12 -55l-358 -158q-39 -14 -54 13z" />
<glyph unicode="&#xfb;" horiz-adv-x="1030" d="M109 383v397q0 16 11 27.5t27 11.5h168q16 0 27.5 -11t11.5 -28v-403q0 -82 40 -129t110 -47q61 0 107 47t57 106v426q0 23 10 31t35 8h155q16 0 27.5 -11t11.5 -28v-741q0 -14 -11 -26.5t-28 -12.5h-75q-27 0 -39 31l-25 67q-2 -2 -15.5 -14t-20.5 -18.5t-24.5 -18.5 t-30.5 -20.5t-34.5 -18.5t-43 -15t-49.5 -9t-56 -4q-178 0 -262 114.5t-84 288.5zM211 1159q-14 20 12 39l266 207q20 16 43 0l267 -207q27 -18 12 -39l-53 -76q-18 -23 -47 -6l-199 125l-201 -125q-29 -17 -47 6z" />
<glyph unicode="&#xfc;" horiz-adv-x="1030" d="M109 383v397q0 16 11 27.5t27 11.5h168q16 0 27.5 -11t11.5 -28v-403q0 -82 40 -129t110 -47q61 0 107 47t57 106v426q0 23 10 31t35 8h155q16 0 27.5 -11t11.5 -28v-741q0 -14 -11 -26.5t-28 -12.5h-75q-27 0 -39 31l-25 67q-2 -2 -15.5 -14t-20.5 -18.5t-24.5 -18.5 t-30.5 -20.5t-34.5 -18.5t-43 -15t-49.5 -9t-56 -4q-178 0 -262 114.5t-84 288.5zM190 1259.5q0 53.5 38 91.5t91.5 38t92.5 -38t39 -91.5t-39 -92.5t-92.5 -39t-91.5 39t-38 92.5zM602 1259.5q0 53.5 38 91.5t91 38t92 -38t39 -91.5t-39 -92.5t-92 -39t-91 39t-38 92.5z " />
<glyph unicode="&#xfd;" horiz-adv-x="948" d="M16 766q-10 20 1.5 36.5t33.5 16.5h185q23 0 34 -22l207 -463h2l205 463q12 23 49 22h164q25 0 35 -16.5t0 -36.5l-627 -1356q-12 -25 -35 -24h-176q-23 0 -34 17t-1 38l291 616zM248 1167q-12 23 12 39l334 199q37 25 53 -6l60 -105q18 -41 -13 -55l-358 -158 q-39 -14 -53 13z" />
<glyph unicode="&#xfe;" horiz-adv-x="1024" d="M123 -578v1973q0 14 12 26.5t27 12.5h174q16 0 27.5 -12.5t11.5 -26.5v-615q92 57 192 58q168 0 282 -126t114 -302q0 -182 -121 -306t-295 -124q-82 0 -172 45v-603q0 -16 -11.5 -27t-27.5 -11h-174q-14 0 -26.5 11t-12.5 27zM375 258q47 -55 151 -55q86 0 142.5 59.5 t56.5 147.5q0 86 -54.5 147t-140.5 61q-63 0 -105 -26.5t-50 -50.5v-283z" />
<glyph unicode="&#xff;" horiz-adv-x="948" d="M16 766q-10 20 1.5 36.5t33.5 16.5h185q23 0 34 -22l207 -463h2l205 463q12 23 49 22h164q25 0 35 -16.5t0 -36.5l-627 -1356q-12 -25 -35 -24h-176q-23 0 -34 17t-1 38l291 616zM141 1259.5q0 53.5 38 91.5t91.5 38t92 -38t38.5 -91.5t-38.5 -92.5t-92 -39t-91.5 39 t-38 92.5zM553 1259.5q0 53.5 38 91.5t91 38t92 -38t39 -91.5t-39 -92.5t-92 -39t-91 39t-38 92.5z" />
<glyph unicode="&#x152;" horiz-adv-x="1996" d="M84 715q0 307 214 523t521 216q49 0 98.5 -5t73.5 -11l27 -4h833q16 0 27.5 -11.5t11.5 -27.5v-168q0 -16 -11 -27.5t-28 -11.5h-606v-336h506q14 0 26.5 -12.5t12.5 -26.5v-170q0 -16 -11.5 -27.5t-27.5 -11.5h-506v-358h606q16 0 27.5 -11.5t11.5 -27.5v-168 q0 -16 -11 -27.5t-28 -11.5h-833q-115 -20 -199 -20q-307 0 -521 214t-214 521zM350 714.5q0 -194.5 138.5 -333.5t330.5 -139q94 0 160 26v895q-80 29 -160 29q-193 0 -331 -141.5t-138 -336z" />
<glyph unicode="&#x153;" horiz-adv-x="1499" d="M59 414q0 174 124 300t296 126q170 0 293 -129q117 129 295 129q158 0 270.5 -107.5t112.5 -273.5q0 -27 -4 -56q-4 -35 -39 -34h-522q8 -70 61 -125.5t133 -55.5q84 0 162 54q35 23 53 0l82 -97q25 -33 -2 -53q-117 -113 -305 -112q-178 0 -297 129q-119 -129 -293 -129 q-172 0 -296 128t-124 306zM283 414q0 -88 57 -150.5t139 -62.5t139.5 62.5t57.5 150.5q0 86 -57.5 145t-139.5 59t-139 -59t-57 -145zM903 512h307q-2 57 -46 97t-103 40q-61 0 -105.5 -39t-52.5 -98z" />
<glyph unicode="&#x178;" horiz-adv-x="1193" d="M-8 1414q10 20 35 20h209q18 0 32 -19l328 -471l328 471q14 18 32 19h211q25 0 35 -19.5t-2 -40.5l-473 -682v-653q0 -14 -11 -26.5t-28 -12.5h-188q-16 0 -27.5 11.5t-11.5 27.5v651l-467 684q-12 20 -2 40zM213 1718.5q0 53.5 38 91t91 37.5t92 -37.5t39 -91t-39 -92.5 t-92 -39t-91 39t-38 92.5zM719 1718.5q0 53.5 38 91t91 37.5t92 -37.5t39 -91t-39 -92.5t-92 -39t-91 39t-38 92.5z" />
<glyph unicode="&#x2c6;" horiz-adv-x="763" d="M76 1159q-14 20 12 39l266 207q20 16 43 0l267 -207q27 -18 12 -39l-53 -76q-18 -23 -48 -6l-198 125l-201 -125q-29 -17 -47 6z" />
<glyph unicode="&#x2dc;" horiz-adv-x="778" d="M72 1241q16 31 25 45t39 52t68 56.5t81 18.5q57 0 120.5 -56.5t98.5 -56.5q25 0 43 19.5t27.5 39t26.5 31t36 -5.5l57 -41q27 -20 2 -63q-61 -106 -123 -137q-35 -18 -75 -19q-57 0 -126 57.5t-98 57.5q-31 0 -51 -30.5t-36.5 -52t-43.5 -5.5l-59 43q-25 18 -12 47z" />
<glyph unicode="&#x2000;" horiz-adv-x="1003" />
<glyph unicode="&#x2001;" horiz-adv-x="2007" />
<glyph unicode="&#x2002;" horiz-adv-x="1003" />
<glyph unicode="&#x2003;" horiz-adv-x="2007" />
<glyph unicode="&#x2004;" horiz-adv-x="669" />
<glyph unicode="&#x2005;" horiz-adv-x="501" />
<glyph unicode="&#x2006;" horiz-adv-x="334" />
<glyph unicode="&#x2007;" horiz-adv-x="334" />
<glyph unicode="&#x2008;" horiz-adv-x="250" />
<glyph unicode="&#x2009;" horiz-adv-x="401" />
<glyph unicode="&#x200a;" horiz-adv-x="111" />
<glyph unicode="&#x2010;" horiz-adv-x="755" d="M111 430v137q0 39 39 39h456q39 0 39 -39v-137q0 -16 -11 -26.5t-28 -10.5h-456q-16 0 -27.5 10.5t-11.5 26.5z" />
<glyph unicode="&#x2011;" horiz-adv-x="755" d="M111 430v137q0 39 39 39h456q39 0 39 -39v-137q0 -16 -11 -26.5t-28 -10.5h-456q-16 0 -27.5 10.5t-11.5 26.5z" />
<glyph unicode="&#x2012;" horiz-adv-x="755" d="M111 430v137q0 39 39 39h456q39 0 39 -39v-137q0 -16 -11 -26.5t-28 -10.5h-456q-16 0 -27.5 10.5t-11.5 26.5z" />
<glyph unicode="&#x2013;" horiz-adv-x="1103" d="M109 467v76q0 39 38 39h809q39 0 39 -39v-76q0 -16 -11 -26.5t-28 -10.5h-809q-16 0 -27 10.5t-11 26.5z" />
<glyph unicode="&#x2014;" horiz-adv-x="1554" d="M109 467v76q0 39 38 39h1260q39 0 39 -39v-76q0 -16 -11.5 -26.5t-27.5 -10.5h-1260q-16 0 -27 10.5t-11 26.5z" />
<glyph unicode="&#x2018;" horiz-adv-x="405" d="M49 1069q0 207 184 371q27 20 46 -2l30 -31q20 -25 -6 -45l-10 -10q-10 -8 -16.5 -14.5l-18.5 -18.5t-21.5 -23.5t-20.5 -28t-19.5 -32.5t-16.5 -35.5t-12 -42t-4 -45.5l8 2q10 4 25.5 6t29.5 2q55 0 96.5 -40t41.5 -97q0 -55 -43.5 -96t-104.5 -41q-66 0 -117 53 t-51 168z" />
<glyph unicode="&#x2019;" horiz-adv-x="401" d="M43 1317q0 57 42 97t103 40q68 0 119 -52t51 -167q0 -207 -184 -371q-27 -18 -47 2l-29 29q-23 23 4 47q20 14 46 39t60 86t34 125h-4q-4 -2 -9.5 -3t-12.5 -3t-17.5 -3t-18.5 -1q-57 0 -97 39t-40 96z" />
<glyph unicode="&#x201a;" horiz-adv-x="466" d="M76 117q0 55 43 96t104 41q66 0 118 -53.5t52 -167.5q0 -207 -184 -371q-27 -20 -47 2l-31 31q-20 23 6 45q20 14 46 39.5t59.5 86t33.5 124.5l-4 -2q-4 0 -9 -2t-13 -3t-17.5 -2t-19.5 -1q-55 0 -96 40t-41 97z" />
<glyph unicode="&#x201c;" horiz-adv-x="802" d="M49 1071q0 207 184 371q27 20 46 -2l30 -29q23 -27 -6 -47q-137 -113 -139 -250l8 2q10 2 25.5 5t29.5 3q55 0 96.5 -40t41.5 -95q0 -57 -42.5 -97t-105.5 -40q-66 0 -117 52t-51 167zM442 1071q0 207 185 371q27 20 47 -2l31 -29q20 -25 -7 -47q-137 -113 -139 -250h4 q4 2 9.5 3t13.5 3t17 3t20 1q55 0 96 -40t41 -95q0 -57 -42.5 -97t-105.5 -40q-68 0 -119 52t-51 167z" />
<glyph unicode="&#x201d;" horiz-adv-x="796" d="M43 1317q0 57 42 97t103 40q68 0 119 -52t51 -167q0 -207 -184 -371q-27 -18 -47 2l-29 29q-23 23 4 47q20 14 46 39t60 86t34 125h-4q-4 -2 -9.5 -3t-12.5 -3t-17.5 -3t-18.5 -1q-57 0 -97 39t-40 96zM436 1317q0 57 42 97t106 40q68 0 119 -52t51 -167 q0 -207 -185 -371q-27 -21 -47 2l-30 29q-20 25 6 47q20 14 45.5 39t59.5 86t34 125h-4q-4 -2 -9.5 -3t-13.5 -3t-17 -3t-20 -1q-55 0 -96 40t-41 95z" />
<glyph unicode="&#x201e;" horiz-adv-x="862" d="M78 117q0 55 42 96t103 41q66 0 118 -53.5t52 -167.5q0 -207 -184 -371q-27 -18 -47 2l-29 31q-23 23 4 45q20 14 47 39.5t59.5 86t32.5 124.5l-10 -2q-8 -4 -22.5 -6t-28.5 -2q-57 0 -97 40t-40 97zM471 117q0 55 43 96t104 41q66 0 118 -53.5t52 -167.5 q0 -207 -184 -371q-27 -20 -47 2l-31 31q-20 23 6 45q20 14 46 39.5t60 86t34 124.5l-4 -2q-4 0 -9.5 -2t-13.5 -3t-17.5 -2t-19.5 -1q-55 0 -96 40t-41 97z" />
<glyph unicode="&#x2022;" horiz-adv-x="796" d="M129 459q0 111 79 191.5t185 80.5q113 0 193 -80t80 -192q0 -109 -80 -186.5t-193 -77.5q-106 0 -185 78.5t-79 185.5z" />
<glyph unicode="&#x2026;" horiz-adv-x="1368" d="M96 127q0 61 43 104t103 43q61 0 105 -43t44 -104q0 -59 -44 -103t-105 -44q-59 0 -102.5 44t-43.5 103zM541 127q0 61 43 104t102 43q61 0 105.5 -43t44.5 -104q0 -59 -44 -103t-106 -44q-59 0 -102 44t-43 103zM977 127q0 61 43 104t104.5 43t104.5 -43t43 -104 q0 -59 -43 -103t-104.5 -44t-104.5 44t-43 103z" />
<glyph unicode="&#x202f;" horiz-adv-x="401" />
<glyph unicode="&#x2039;" horiz-adv-x="555" d="M53 397q-16 23 0 49l223 304q14 25 37 24h117q27 0 35 -19.5t-4 -43.5l-139 -285l133 -301q12 -25 3 -43.5t-34 -18.5h-127q-19 1 -31 17z" />
<glyph unicode="&#x203a;" horiz-adv-x="555" d="M88 755q8 19 35 19h117q23 0 36 -24l224 -304q16 -27 0 -49l-213 -317q-12 -16 -31 -17h-127q-25 0 -34 18.5t3 43.5l133 301l-139 285q-12 25 -4 44z" />
<glyph unicode="&#x205f;" horiz-adv-x="501" />
<glyph unicode="&#x20ac;" horiz-adv-x="1470" d="M41 551v27q0 16 11 27t26 11h80q-6 49 -6 99q0 29 2 43h-76q-14 0 -25.5 11t-11.5 28v26q0 16 11 27.5t26 11.5h88q51 256 255 424t470 168q283 0 495 -190q31 -29 3 -58l-123 -127q-27 -29 -56 0q-131 119 -313 119q-156 0 -274.5 -94t-161.5 -242h477q16 0 27.5 -11 t11.5 -28v-30q0 -16 -11.5 -26.5t-27.5 -10.5h-498v-35q0 -61 11 -105h405q16 0 27.5 -11t11.5 -27v-29q0 -16 -11.5 -26.5t-27.5 -10.5h-369q55 -119 165 -191.5t247 -72.5q170 0 313 117q27 25 52 0l127 -132q12 -12 11 -27.5t-13 -27.5q-205 -199 -498 -198 q-252 0 -447.5 149.5t-263.5 382.5h-102q-14 0 -25.5 11.5t-11.5 27.5z" />
<glyph unicode="&#x2122;" horiz-adv-x="1476" d="M88 1321v74q0 14 11.5 26.5t27.5 12.5h420q16 0 27.5 -11.5t11.5 -27.5v-74q0 -39 -39 -39h-131v-455q0 -16 -11.5 -27.5t-27.5 -11.5h-80q-16 0 -27.5 11.5t-11.5 27.5v455h-131q-16 0 -27.5 11.5t-11.5 27.5zM653 836l107 577q4 31 39 31h8q27 0 35 -23l178 -379 l182 379q10 23 35 23h8q35 0 39 -31l109 -579q2 -18 -9.5 -32t-29.5 -14h-80q-31 0 -39 35l-45 256l-131 -278q-8 -18 -33 -19h-12q-25 0 -35 21l-125 276l-49 -258q-2 -12 -14.5 -22.5t-24.5 -10.5h-74q-20 0 -31.5 14.5t-7.5 33.5z" />
<glyph unicode="&#x25fc;" horiz-adv-x="819" d="M0 0v819h819v-819h-819z" />
<glyph unicode="&#xfb03;" horiz-adv-x="1751" d="M63 643v137q0 39 39 39h70v182q0 182 112.5 302t317.5 131q170 0 283 -95q104 115 295 115q168 0 319 -88q33 -18 14 -53l-73 -137q-18 -29 -54 -11q-115 57 -196 58q-63 0 -106.5 -46.5t-43.5 -136.5v-221h549q39 0 39 -39v-741q0 -16 -11 -27.5t-28 -11.5h-170 q-16 0 -27.5 11.5t-11.5 27.5v565h-340v-565q0 -14 -12 -26.5t-27 -12.5h-178q-16 0 -27.5 12.5t-11.5 26.5v565h-356v-565q0 -14 -11 -26.5t-28 -12.5h-178q-14 0 -26.5 12.5t-12.5 26.5v565h-70q-16 0 -27.5 11.5t-11.5 27.5zM428 819h356v221q0 51 7 95q-61 72 -175 71 q-82 0 -135 -54t-53 -151v-182z" />
<glyph unicode="&#xfb04;" horiz-adv-x="1779" d="M61 643v137q0 39 39 39h72v182q0 207 123 320t305 113q166 0 285 -95q104 115 307 115q76 0 148.5 -28.5t105.5 -57.5l35 -29l22 58q14 37 49 37h66q16 0 27.5 -12.5t11.5 -26.5v-1356q0 -14 -11.5 -26.5t-27.5 -12.5h-172q-16 0 -27.5 12.5t-11.5 26.5v1081 q-10 14 -30.5 34t-68.5 43.5t-98 23.5q-72 0 -122 -45.5t-50 -135.5v-221h172q16 0 27.5 -11t11.5 -28v-135q0 -14 -12 -26.5t-27 -12.5h-172v-567q0 -14 -11 -26.5t-28 -12.5h-178q-14 0 -26.5 12.5t-12.5 26.5v565h-354v-565q0 -14 -11 -26.5t-28 -12.5h-178 q-14 0 -26.5 12.5t-12.5 26.5v565h-72q-16 0 -27.5 11.5t-11.5 27.5zM428 819h354v221q0 37 9 95q-61 72 -177 71q-82 0 -134 -54t-52 -151v-182z" />
</font>
</defs>
</svg>
