<?xml version="1.0" standalone="no"?>
<!DOCTYPE svg PUBLIC "-//W3C//DTD SVG 1.1//EN" "http://www.w3.org/Graphics/SVG/1.1/DTD/svg11.dtd" >
<svg xmlns="http://www.w3.org/2000/svg" xmlns:xlink="http://www.w3.org/1999/xlink" version="1.1">
<metadata></metadata>
<defs>
<font id="brandon_grotesqueregular" horiz-adv-x="987" >
<font-face units-per-em="2048" ascent="1434" descent="-614" />
<missing-glyph horiz-adv-x="454" />
<glyph unicode="&#xfb01;" horiz-adv-x="1079" d="M47 735v45q0 39 39 39h125v287q0 170 96 259t238 89q90 0 174 -32.5t127 -63.5q25 -18 8 -47l-33 -56q-14 -23 -53 -2q-137 74 -225 74q-78 0 -134.5 -55t-56.5 -166v-287h543q14 0 26.5 -12t12.5 -27v-741q0 -14 -12.5 -26.5t-26.5 -12.5h-64q-16 0 -27 12.5t-11 26.5 v657h-441v-657q0 -14 -12 -26.5t-27 -12.5h-63q-16 0 -27.5 12.5t-11.5 26.5v657h-125q-16 0 -27.5 11.5t-11.5 27.5z" />
<glyph unicode="&#xfb02;" horiz-adv-x="1085" d="M47 735v45q0 39 39 39h125v287q0 170 95 259t237 89q76 0 142.5 -26.5t94.5 -51.5l29 -26l16 51q10 33 39 33h35q14 0 26.5 -12.5t12.5 -26.5v-1356q0 -14 -12.5 -26.5t-26.5 -12.5h-63q-16 0 -27.5 12.5t-11.5 26.5v1149l-27 33q-27 33 -87 64.5t-130 31.5 q-82 0 -141.5 -51.5t-59.5 -159.5v-287h238q39 0 39 -39v-45q0 -16 -11.5 -27.5t-27.5 -11.5h-238v-657q0 -14 -12 -26.5t-27 -12.5h-63q-16 0 -27.5 12.5t-11.5 26.5v657h-125q-16 0 -27.5 11.5t-11.5 27.5z" />
<glyph horiz-adv-x="0" />
<glyph unicode="&#xd;" horiz-adv-x="681" />
<glyph unicode=" "  horiz-adv-x="454" />
<glyph unicode="&#x09;" horiz-adv-x="454" />
<glyph unicode="&#xa0;" horiz-adv-x="454" />
<glyph unicode="!" horiz-adv-x="610" d="M188 96q0 49 35 83t82 34q49 0 83 -34t34 -83q0 -47 -34 -81.5t-83 -34.5q-47 0 -82 34.5t-35 81.5zM215 1161v234q0 14 11.5 26.5t27.5 12.5h102q16 0 27.5 -12.5t11.5 -26.5v-230l-39 -575q-2 -12 -13 -22.5t-26 -10.5h-24q-14 0 -25.5 10.5t-13.5 22.5z" />
<glyph unicode="&#x22;" horiz-adv-x="628" d="M100 1065v330q0 14 11.5 26.5t27.5 12.5h70q20 0 31.5 -15.5t5.5 -36.5l-58 -325q-8 -31 -36 -31h-13q-16 0 -27.5 11.5t-11.5 27.5zM410 1065v330q0 14 12 26.5t27 12.5h69q20 0 31.5 -15.5t5.5 -36.5l-57 -325q-8 -31 -37 -31h-12q-14 0 -26.5 11.5t-12.5 27.5z" />
<glyph unicode="#" horiz-adv-x="1110" d="M86 438v15q0 39 39 39h158l49 350h-148q-16 0 -27.5 11t-11.5 28v14q0 14 11.5 26.5t27.5 12.5h160l66 467q2 12 12 22.5t24 10.5h15q16 0 27.5 -13.5t9.5 -31.5l-62 -455h309l64 467q2 12 13.5 22.5t25.5 10.5h12q18 0 29.5 -13.5t9.5 -31.5l-61 -455h143 q16 0 27.5 -11.5t11.5 -27.5v-14q0 -39 -35 -39h-160l-49 -350h146q16 0 27.5 -11.5t11.5 -27.5v-15q0 -16 -10.5 -27.5t-24.5 -11.5h-164l-53 -366q-4 -33 -39 -33h-13q-18 0 -29.5 13.5t-9.5 31.5l54 354h-314l-51 -366q-4 -33 -39 -33h-12q-20 0 -31.5 13.5t-7.5 31.5 l51 354h-143q-16 0 -27.5 11.5t-11.5 27.5zM373 492h313l47 350h-309z" />
<glyph unicode="$" horiz-adv-x="1073" d="M106 215q20 33 48 57.5t55 -0.5q18 -18 46 -41.5t101.5 -61.5t143.5 -48v532q-178 72 -272.5 153t-112.5 210q-4 23 -4 74q0 72 36.5 147.5t129 140t223.5 74.5v66q0 16 11 27t28 11h14q16 0 26.5 -11t10.5 -27v-66q80 -6 156.5 -31.5t113.5 -48.5l37 -22 q14 -6 20.5 -22.5t-8.5 -47.5q-12 -20 -22 -35.5t-20.5 -24t-23 -8.5t-30.5 11l-16 10q-16 8 -37 19.5t-47.5 23.5t-59 22.5t-63.5 14.5l-2 -531q102 -43 169.5 -81.5t125 -90t84 -116t26.5 -146.5q0 -150 -118.5 -253t-286.5 -113v-213q0 -37 -45 -37q-43 0 -43 37v213 q-96 8 -189.5 48t-129 65t-62.5 50q-37 31 -13 70zM262 1092q0 -90 59.5 -155t178.5 -118v496q-119 -12 -178.5 -81t-59.5 -142zM588 119q102 8 171.5 73.5t69.5 149.5t-58 146.5t-183 123.5v-493z" />
<glyph unicode="%" horiz-adv-x="1382" d="M72 1179.5q0 114.5 80.5 195.5t195.5 81t196 -81t81 -195.5t-81 -195.5t-196 -81t-195.5 81t-80.5 195.5zM188 1180q0 -68 46 -114t114 -46q63 0 109.5 46t46.5 114q0 63 -46 109t-110 46q-68 0 -114 -46t-46 -109zM262 55l703 1358q12 20 34 21h33q23 0 34 -17.5 t1 -38.5l-707 -1358q-10 -20 -34 -20h-29q-23 0 -34 17.5t-1 37.5zM719 254q0 115 81 195.5t195.5 80.5t195.5 -80.5t81 -195.5t-81 -196t-195.5 -81t-195.5 81t-81 196zM836 254q0 -68 46 -114t113 -46q63 0 109.5 46t46.5 114q0 63 -46 109.5t-110 46.5 q-68 0 -113.5 -46.5t-45.5 -109.5z" />
<glyph unicode="&#x26;" horiz-adv-x="1363" d="M168 356q0 242 285 410v4l-50 53q-147 156 -143 299q0 131 94.5 231.5t268.5 100.5q160 0 253 -91t93 -224q0 -205 -303 -394l338 -337q82 168 81 364q0 31 10.5 39t37.5 8h49q39 0 39 -43v-4q0 -246 -121 -461l196 -196q23 -25 25 -40.5t-27 -54.5l-24 -22 q-43 -39 -86 6l-174 180q-182 -205 -447 -204q-186 0 -290.5 108t-104.5 268zM311 354q0 -106 75 -177t183 -71q207 0 351 175l-379 397q-230 -140 -230 -324zM397 1118q-2 -61 31 -114.5t100 -118.5l45 -45q53 33 81 51t76 59t71.5 87t23.5 98q0 80 -58 139t-156.5 59 t-156 -61.5t-57.5 -153.5z" />
<glyph unicode="'" horiz-adv-x="319" d="M100 1065v330q0 14 11.5 26.5t27.5 12.5h70q20 0 31.5 -15.5t5.5 -36.5l-58 -325q-8 -31 -36 -31h-13q-16 0 -27.5 11.5t-11.5 27.5z" />
<glyph unicode="(" horiz-adv-x="704" d="M119 645q0 217 42 377t113.5 249t152.5 132t175 47q35 4 37 -20l4 -56q6 -31 -20 -35q-188 -37 -274.5 -211t-86.5 -483t86 -483t275 -211q27 -4 20 -35l-4 -55q-2 -25 -37 -21q-94 4 -175 47t-152.5 132.5t-113.5 249t-42 376.5z" />
<glyph unicode=")" horiz-adv-x="704" d="M61 -84q-6 31 21 35q188 37 274 211t86 483t-86 483.5t-274 210.5q-27 4 -21 35l5 56q2 25 36 20q94 -4 175 -47t153 -132t114 -249t42 -377t-42 -376.5t-114 -249t-152.5 -132.5t-175.5 -47q-35 -4 -36 21z" />
<glyph unicode="*" horiz-adv-x="671" d="M78 1292l16 23q8 12 23.5 16t27.5 -4l142 -100l-4 170q0 14 11 25.5t28 11.5h26q16 0 27.5 -11.5t11.5 -25.5l-4 -168l137 102q31 16 53 -12l15 -23q18 -35 -10 -53l-158 -100l160 -101q33 -20 12 -53l-14 -22q-20 -31 -56 -13l-139 101l4 -166q0 -16 -11 -27.5 t-28 -11.5h-26q-14 0 -26.5 11t-12.5 28l4 168l-137 -99q-12 -8 -29 -5t-25 18l-14 20q-20 33 10 56l154 96l-158 96q-29 23 -10 53z" />
<glyph unicode="+" horiz-adv-x="1026" d="M84 682v57q0 14 11 26.5t28 12.5h321v324q0 14 11.5 25.5t27.5 11.5h58q16 0 27.5 -11.5t11.5 -25.5v-324h323q14 0 25.5 -11t11.5 -28v-57q0 -16 -11 -27.5t-26 -11.5h-323v-321q0 -14 -11.5 -25.5t-27.5 -11.5h-58q-16 0 -27.5 11.5t-11.5 25.5v321h-321 q-16 0 -27.5 12.5t-11.5 26.5z" />
<glyph unicode="," horiz-adv-x="477" d="M113 96q0 49 34.5 83t81.5 34q135 0 136 -184q0 -115 -54.5 -217.5t-117.5 -161.5q-29 -25 -50 -4l-28 28q-20 20 12 50q127 115 127 258q-8 -2 -25 -2q-47 0 -81.5 34.5t-34.5 81.5z" />
<glyph unicode="-" horiz-adv-x="845" d="M170 487v39q0 39 39 39h428q39 0 39 -39v-39q0 -16 -11.5 -26t-27.5 -10h-428q-16 0 -27.5 10t-11.5 26z" />
<glyph unicode="." horiz-adv-x="462" d="M115 96q0 49 34.5 83t81.5 34q49 0 83 -34t34 -83q0 -47 -33.5 -81.5t-83.5 -34.5q-47 0 -81.5 34.5t-34.5 81.5z" />
<glyph unicode="/" horiz-adv-x="655" d="M82 51l401 1356q8 27 37 27h45q23 0 33 -15.5t4 -36.5l-399 -1355q-8 -27 -37 -27h-47q-20 0 -31.5 15.5t-5.5 35.5z" />
<glyph unicode="0" horiz-adv-x="1294" d="M150 696q0 338 130 527.5t367.5 189.5t367.5 -189.5t130 -527.5t-130 -527t-367.5 -189t-367.5 189t-130 527zM295 696q0 -281 91 -432t261 -151t261 151.5t91 431.5q0 279 -92 431.5t-260 152.5t-260 -152.5t-92 -431.5z" />
<glyph unicode="1" horiz-adv-x="667" d="M72 1069q-18 23 4 45l286 279h56q14 0 25.5 -11.5t11.5 -27.5v-1315q0 -16 -11.5 -27.5t-25.5 -11.5h-74q-16 0 -27.5 11.5t-11.5 27.5v1100l-147 -115q-27 -20 -47 2z" />
<glyph unicode="2" horiz-adv-x="1062" d="M86 39v61l502 543q207 225 207 371q0 102 -71 181t-216 79q-147 0 -291 -154q-29 -27 -55 0l-41 39q-25 29 -2 53l28 33q27 31 73 68t125 68.5t163 31.5q209 0 325.5 -114.5t116.5 -280.5q0 -123 -63.5 -224.5t-192.5 -240.5l-393 -420h602q14 0 26.5 -11t12.5 -28v-55 q0 -14 -12 -26.5t-27 -12.5h-778q-16 0 -27.5 11.5t-11.5 27.5z" />
<glyph unicode="3" horiz-adv-x="1089" d="M96 162q-25 29 2 49l56 47q31 23 55 -10q18 -23 48 -48.5t103.5 -59.5t153.5 -34q123 0 209 70t86 186q0 115 -91 192t-272 77h-114q-39 0 -39 45v49q0 45 43 45h113q158 0 241.5 70.5t83.5 177.5q0 119 -78 189.5t-190 70.5q-152 0 -268 -133q-25 -29 -54 -4l-49 39 q-29 25 0 53l43 45q43 45 136.5 90t191.5 45q188 0 305 -102.5t117 -272.5q0 -109 -65.5 -197.5t-145.5 -125.5v-6q92 -39 169 -126t77 -206q0 -172 -124 -284.5t-331 -112.5q-252 0 -412 182z" />
<glyph unicode="4" horiz-adv-x="1200" d="M33 354v76l776 973q12 12 31 12h41q16 0 27.5 -11t11.5 -28l2 -936h165q16 0 27.5 -10t11.5 -27v-45q0 -16 -11 -27.5t-28 -11.5h-165v-280q0 -14 -12.5 -26.5t-26.5 -12.5h-70q-14 0 -26.5 12.5t-12.5 26.5v276h-702q-16 0 -27.5 11.5t-11.5 27.5zM205 442h577v713z" />
<glyph unicode="5" horiz-adv-x="1091" d="M133 219q8 8 23.5 22.5t23.5 22.5q31 27 51 -2q18 -27 46 -54.5t101 -62t157 -34.5q141 0 231 103t90 232q0 127 -83 211t-238 84h-312q-29 0 -46 22.5t-17 49.5v541q0 16 11 27.5t28 11.5h618q16 0 27.5 -11.5t11.5 -27.5v-60q0 -16 -11 -27.5t-28 -11.5h-520v-376h238 q229 0 351 -114t122 -316q0 -195 -135.5 -332t-340.5 -137q-254 0 -395 170q-35 39 -4 69z" />
<glyph unicode="6" horiz-adv-x="1112" d="M109 563q0 156 51 293t124.5 228.5t173 168t174.5 116.5t150 71q31 12 45 -21l23 -49q18 -43 -37 -59q-31 -10 -83 -38t-121.5 -76t-132 -105.5t-116 -135t-73.5 -155.5l39 22q39 25 116.5 47.5t155.5 22.5q180 0 310 -123t130 -321q0 -193 -134 -331t-318 -138 q-238 0 -357.5 161.5t-119.5 421.5zM257 460q15 -89 48 -166t107 -128t174 -51q129 0 218 96t89 229t-90 226.5t-219 93.5q-84 0 -165 -34t-120 -67l-39 -32q-18 -78 -3 -167z" />
<glyph unicode="7" horiz-adv-x="970" d="M49 1294v60q0 14 12.5 26.5t26.5 12.5h823q14 0 26.5 -12.5t12.5 -26.5v-15l-598 -1286q-25 -53 -67 -53h-60q-16 0 -27.5 12.5t-11.5 26.5v22l572 1194h-670q-14 0 -26.5 11.5t-12.5 27.5z" />
<glyph unicode="8" horiz-adv-x="1173" d="M127 375q0 119 79 211t169 131v6q-82 37 -146.5 122t-64.5 193q0 168 118.5 271.5t303.5 103.5q186 0 306 -103.5t120 -271.5q0 -109 -64.5 -193.5t-146.5 -121.5v-6q90 -39 169 -131t79 -211q0 -172 -126 -283.5t-339 -111.5q-207 0 -332 111.5t-125 283.5zM281 360 q0 -115 89 -186.5t214 -71.5q135 0 223 70t88 188q0 100 -84 181.5t-223 95.5q-141 -14 -224 -95.5t-83 -181.5zM315 1032q0 -100 68 -166t205 -78q135 14 203.5 79t68.5 165q0 115 -79 186.5t-201 71.5q-113 0 -189 -72.5t-76 -185.5z" />
<glyph unicode="9" horiz-adv-x="1112" d="M74 956q0 193 134 331t318 138q238 0 358 -161.5t120 -421.5q0 -156 -51.5 -293t-125 -228.5t-173 -168t-174 -116.5t-150.5 -71q-31 -12 -45 21l-23 49q-18 43 37 59q31 10 83 38t121.5 76t132 105.5t116 135t73.5 155.5l-39 -22q-39 -25 -116.5 -47.5t-155.5 -22.5 q-180 0 -310 123t-130 321zM219 964.5q0 -133.5 90 -226.5t219 -93q84 0 165 34t120 66l39 33q18 78 3 167t-48 166t-106.5 128t-174.5 51q-129 0 -218 -96t-89 -229.5z" />
<glyph unicode=":" horiz-adv-x="524" d="M145 96q0 49 35 83t82 34q49 0 83 -34t34 -83q0 -47 -34 -81.5t-83 -34.5q-47 0 -82 34.5t-35 81.5zM145 723q0 49 35 83t82 34q49 0 83 -34t34 -83q0 -47 -34 -82t-83 -35q-47 0 -82 35t-35 82z" />
<glyph unicode=";" horiz-adv-x="530" d="M143 96q0 49 35 83t82 34q135 0 135 -184q0 -115 -54 -217.5t-118 -161.5q-29 -25 -49 -4l-29 28q-20 20 13 50q127 115 127 258q-8 -2 -25 -2q-47 0 -82 34.5t-35 81.5zM143 723q0 49 35 83t82 34q49 0 83 -34t34 -83q0 -47 -34 -82t-83 -35q-47 0 -82 35t-35 82z" />
<glyph unicode="&#x3c;" horiz-adv-x="899" d="M51 465v10q0 23 21 35l696 434q20 12 38.5 2t18.5 -35v-73q0 -25 -22 -39l-535 -328l535 -315q23 -14 22 -39v-74q0 -25 -18.5 -35t-38.5 2l-696 420q-20 12 -21 35z" />
<glyph unicode="=" horiz-adv-x="1044" d="M176 326v63q0 16 11.5 27.5t27.5 11.5h612q16 0 27.5 -11t11.5 -28v-63q0 -16 -11 -27.5t-28 -11.5h-612q-16 0 -27.5 11t-11.5 28zM176 758v61q0 16 11.5 27.5t27.5 11.5h612q16 0 27.5 -11t11.5 -28v-61q0 -16 -11 -27.5t-28 -11.5h-612q-16 0 -27.5 11t-11.5 28z" />
<glyph unicode="&#x3e;" horiz-adv-x="899" d="M74 43v74q0 27 22 39l535 315l-535 328q-23 14 -22 39v73q0 25 18.5 35t38.5 -2l696 -434q20 -12 21 -35v-10q0 -23 -21 -35l-696 -420q-20 -12 -38.5 -2t-18.5 35z" />
<glyph unicode="?" horiz-adv-x="944" d="M102 1221q-25 20 0 53l25 29q23 29 64.5 61.5t119.5 61t166 28.5q160 0 258.5 -86t98.5 -227q0 -74 -34 -133.5t-81 -97.5t-94 -70.5t-81 -72.5t-34 -85v-84q0 -41 -43 -41h-55q-16 0 -27.5 11.5t-11.5 27.5v86q0 70 31.5 122t76.5 86t90 65.5t77 79.5t32 112 q0 76 -53.5 128t-149.5 52q-47 0 -89 -10t-70.5 -26.5t-54 -35t-40 -36t-28.5 -31.5q-27 -27 -54 -2zM319 96q0 49 35 83t82 34q49 0 83 -34t34 -83q0 -47 -34 -81.5t-83 -34.5q-47 0 -82 34.5t-35 81.5z" />
<glyph unicode="@" horiz-adv-x="2009" d="M88 457q0 440 257 718.5t685 278.5q401 0 632.5 -241.5t231.5 -622.5q0 -109 -22.5 -211.5t-69.5 -194.5t-134 -148t-202 -56q-100 0 -158.5 45t-76.5 114h-17q-35 -70 -102.5 -114.5t-155.5 -44.5q-158 0 -258 118.5t-100 313.5q0 201 101.5 314.5t263.5 113.5 q74 0 132 -27t81 -55l22 -27q8 29 12 48.5t17.5 29.5t40.5 10h20q14 0 26.5 -12t12.5 -27v-436q0 -141 37 -195.5t111 -54.5q123 0 207.5 133t84.5 363q0 330 -193.5 539.5t-547.5 209.5q-371 0 -590 -237.5t-219 -644.5q0 -281 146.5 -487t394.5 -312q23 -10 25.5 -20.5 t-7.5 -30.5l-22 -56q-12 -29 -41 -16q-285 119 -455 358.5t-170 563.5zM729 410q0 -137 69.5 -216t170.5 -79q94 0 147 55t74 137v291l-23 29q-20 29 -74.5 57.5t-121.5 28.5q-106 0 -174 -80t-68 -223z" />
<glyph unicode="A" horiz-adv-x="1357" d="M12 53l623 1379q12 23 35 22h20q23 0 35 -22l618 -1379q10 -20 -1 -36.5t-33 -16.5h-82q-27 0 -35 23l-152 337h-727l-149 -337q-8 -23 -35 -23h-82q-23 0 -34 16.5t-1 36.5zM371 487h614l-299 672h-16z" />
<glyph unicode="B" horiz-adv-x="1280" d="M209 39v1356q0 16 11 27.5t28 11.5h448q186 0 303 -106.5t117 -270.5q0 -109 -59.5 -195t-141.5 -133q100 -41 173 -124t73 -210q0 -172 -125 -283.5t-321 -111.5h-467q-16 0 -27.5 11.5t-11.5 27.5zM358 137h373q111 0 184.5 75t73.5 185q0 109 -86 180.5t-207 71.5 h-338v-512zM362 791h334q115 0 180.5 72.5t65.5 183.5q0 113 -64.5 179t-181.5 66h-334v-501z" />
<glyph unicode="C" horiz-adv-x="1447" d="M104 715q0 307 216.5 523t523.5 216q272 0 495 -190q15 -16 15 -31q0 -14 -13 -27l-55 -55q-23 -29 -53 2q-178 154 -391 154q-240 0 -406 -174.5t-166 -415.5q0 -240 166 -414t406 -174q84 0 158.5 23.5t119.5 51t113 79.5q27 20 49 6l61 -56q12 -10 11.5 -26.5 t-13.5 -28.5q-204 -198 -494 -198h-3q-307 0 -523.5 214t-216.5 521z" />
<glyph unicode="D" horiz-adv-x="1529" d="M209 39v1356q0 16 11 27.5t26 11.5h459q297 0 507.5 -210t210.5 -505q0 -297 -211 -508t-507 -211h-459q-14 0 -25.5 11.5t-11.5 27.5zM365 141h307q252 0 415.5 163t163.5 415t-163.5 413.5t-415.5 161.5h-307v-1153z" />
<glyph unicode="E" horiz-adv-x="1212" d="M209 39v1356q0 16 11 27.5t28 11.5h807q16 0 27.5 -11.5t11.5 -27.5v-60q0 -16 -11.5 -27.5t-27.5 -11.5h-688v-499h587q16 0 27.5 -11.5t11.5 -27.5v-60q0 -16 -11 -27.5t-28 -11.5h-587v-522h688q16 0 27.5 -11t11.5 -28v-59q0 -16 -11.5 -27.5t-27.5 -11.5h-807 q-16 0 -27.5 11.5t-11.5 27.5z" />
<glyph unicode="F" horiz-adv-x="1165" d="M209 39v1356q0 16 11 27.5t28 11.5h807q16 0 27.5 -11.5t11.5 -27.5v-60q0 -16 -11.5 -27.5t-27.5 -11.5h-688v-561h587q16 0 27.5 -11t11.5 -28v-59q0 -14 -11 -26.5t-28 -12.5h-587v-559q0 -14 -11.5 -26.5t-27.5 -12.5h-80q-16 0 -27.5 11.5t-11.5 27.5z" />
<glyph unicode="G" horiz-adv-x="1499" d="M104 715q0 307 216.5 523t523.5 216q272 0 495 -190q15 -16 15 -31q0 -14 -13 -27l-57 -57q-23 -25 -53 2q-82 72 -185.5 116t-203.5 44q-240 0 -405 -173t-165 -415q0 -240 165 -416t405 -176q100 0 192 21.5t133 44.5l43 20v287h-235q-16 0 -27.5 10t-11.5 27v75 q0 39 39 39h354q14 0 25.5 -11t11.5 -28v-469q0 -20 -16 -32l-60 -33q-61 -35 -188 -68.5t-258 -33.5q-307 0 -523.5 214t-216.5 521z" />
<glyph unicode="H" horiz-adv-x="1564" d="M209 39v1356q0 14 12 26.5t27 12.5h80q16 0 27.5 -11.5t11.5 -27.5v-598h831v598q0 16 11.5 27.5t27.5 11.5h80q14 0 26.5 -12.5t12.5 -26.5v-1356q0 -14 -12.5 -26.5t-26.5 -12.5h-80q-16 0 -27.5 11.5t-11.5 27.5v620h-831v-620q0 -16 -11.5 -27.5t-27.5 -11.5h-80 q-14 0 -26.5 12.5t-12.5 26.5z" />
<glyph unicode="I" horiz-adv-x="577" d="M209 39v1356q0 14 12 26.5t27 12.5h82q14 0 26.5 -12.5t12.5 -26.5v-1356q0 -14 -12.5 -26.5t-26.5 -12.5h-82q-14 0 -26.5 12.5t-12.5 26.5z" />
<glyph unicode="J" horiz-adv-x="829" d="M-41 131q-16 27 4 51l43 49q16 15 32 15l38 -21q96 -109 198 -109v0q103 1 176.5 78.5t73.5 229.5v971q0 16 11.5 27.5t27.5 11.5h80q16 0 27.5 -11.5t11.5 -27.5v-967q0 -209 -113.5 -328.5t-298.5 -119.5h-2q-187 0 -309 151z" />
<glyph unicode="K" horiz-adv-x="1265" d="M209 49v1335q0 20 14.5 35t34.5 15h59q20 0 35 -14.5t15 -35.5v-579l639 608q16 20 38 21h101q29 0 38 -25t-14 -47l-647 -604l678 -695q14 -10 5 -36.5t-40 -26.5h-104q-27 0 -37 14l-657 686v-651q0 -20 -14.5 -34.5t-35.5 -14.5h-59q-20 0 -34.5 14.5t-14.5 34.5z" />
<glyph unicode="L" horiz-adv-x="1005" d="M209 39v1356q0 16 11 27.5t28 11.5h80q16 0 27.5 -12.5t11.5 -26.5v-1258h589q16 0 27.5 -11t11.5 -28v-59q0 -16 -11 -27.5t-28 -11.5h-708q-16 0 -27.5 11.5t-11.5 27.5z" />
<glyph unicode="M" horiz-adv-x="1765" d="M106 49l265 1376q6 29 37 29h32q27 0 35 -22l406 -1129h10l399 1129q8 23 35 22h33q31 0 37 -29l264 -1376q2 -9 2 -16q0 -33 -39 -33h-82q-29 0 -37 29l-182 1054h-8l-377 -1081q-8 -23 -35 -22h-37q-27 0 -35 22l-380 1081h-9l-178 -1054q-2 -10 -13 -19.5t-24 -9.5 h-82q-39 0 -39 33q0 7 2 16z" />
<glyph unicode="N" horiz-adv-x="1585" d="M209 39v1378q0 14 11 25.5t28 11.5h51l924 -1151h4v1092q0 16 11 27.5t28 11.5h71q14 0 26.5 -12.5t12.5 -26.5v-1379q0 -14 -11 -25t-28 -11h-37l-940 1173h-2v-1114q0 -16 -11 -27.5t-28 -11.5h-71q-14 0 -26.5 12.5t-12.5 26.5z" />
<glyph unicode="O" horiz-adv-x="1681" d="M104 715q0 307 214 523t521.5 216t522.5 -216t215 -523t-215 -521t-522.5 -214t-521.5 214t-214 521zM248 714.5q0 -243.5 174 -417.5t417.5 -174t419 174t175.5 417.5t-175.5 420t-419 176.5t-417.5 -176.5t-174 -420z" />
<glyph unicode="P" horiz-adv-x="1220" d="M209 39v1356q0 16 11 27.5t28 11.5h452q188 0 323.5 -133.5t135.5 -319.5q0 -190 -134 -325.5t-323 -135.5h-337v-481q0 -14 -12.5 -26.5t-26.5 -12.5h-78q-16 0 -27.5 11.5t-11.5 27.5zM365 672h325q127 0 219 91t92 222q0 123 -92 208t-219 85h-325v-606z" />
<glyph unicode="Q" horiz-adv-x="1683" d="M104 715q0 307 214 523t521.5 216t522.5 -216t215 -523q0 -223 -120 -404.5t-316 -269.5l239 -385q14 -20 3 -41t-35 -21h-103q-20 0 -33 21l-223 377q-68 -12 -149 -12q-307 0 -521.5 214t-214.5 521zM248 714.5q0 -243.5 174 -417.5t417.5 -174t419 174t175.5 417.5 t-175.5 420t-419 176.5t-417.5 -176.5t-174 -420z" />
<glyph unicode="R" horiz-adv-x="1353" d="M209 39v1356q0 16 11 27.5t28 11.5h530q184 0 315.5 -127t131.5 -310q0 -139 -83 -250.5t-220 -166.5l280 -521q12 -20 1 -39.5t-36 -19.5h-104q-23 0 -33 18l-272 543h-391v-522q0 -14 -11.5 -26.5t-27.5 -12.5h-80q-16 0 -27.5 11.5t-11.5 27.5zM371 696h397 q119 0 207 87t88 212q0 117 -88 203t-207 86h-397v-588z" />
<glyph unicode="S" horiz-adv-x="1091" d="M117 215q6 6 16 19.5t14 19.5q23 30 45 30q14 0 27 -12q181 -155 344 -155h2q121 0 198 65.5t77 159.5q0 100 -85 173t-274 151q-188 82 -274 171t-86 253q0 57 23.5 116.5t71.5 116.5t137 94t204 37q90 0 177 -26.5t130 -51.5l43 -26q14 -6 20.5 -22.5t-7.5 -47.5 q-4 -6 -12.5 -19.5t-12.5 -19.5q-18 -27 -42 -27q-14 0 -30 9q-164 94 -268 94q-145 0 -214 -71.5t-69 -153.5q0 -98 69 -165t208 -124q236 -96 345.5 -192.5t109.5 -262.5q0 -158 -130.5 -263t-312.5 -105q-109 0 -214 39.5t-147 69t-71 56.5q-22 18 -22 40q0 14 10 30z " />
<glyph unicode="T" horiz-adv-x="978" d="M16 1335v60q0 16 11.5 27.5t27.5 11.5h869q16 0 27.5 -11.5t11.5 -27.5v-60q0 -16 -11.5 -27.5t-27.5 -11.5h-357v-1257q0 -14 -11 -26.5t-28 -12.5h-77q-16 0 -27.5 12.5t-11.5 26.5v1257h-357q-16 0 -27.5 11.5t-11.5 27.5z" />
<glyph unicode="U" horiz-adv-x="1466" d="M190 528v867q0 14 11.5 26.5t27.5 12.5h78q16 0 27.5 -11.5t11.5 -27.5v-854q0 -180 104.5 -298t280.5 -118q178 0 283.5 116.5t105.5 295.5v858q0 16 11.5 27.5t27.5 11.5h78q16 0 27.5 -12.5t11.5 -26.5v-867q0 -236 -152.5 -392t-392.5 -156q-238 0 -389.5 156 t-151.5 392z" />
<glyph unicode="V" horiz-adv-x="1359" d="M14 1380q-10 20 1.5 37t33.5 17h82q27 0 35 -23l510 -1147h8l510 1147q8 23 35 23h82q23 0 34 -16.5t1 -37.5l-623 -1378q-10 -23 -35 -22h-20q-25 -1 -35 22z" />
<glyph unicode="W" horiz-adv-x="1847" d="M76 1384q-6 20 4 35t33 15h86q29 0 37 -29l284 -1061h8l342 1088q8 23 35 22h37q27 0 35 -22l348 -1088h8l279 1061q8 29 37 29h86q23 0 33 -14.5t4 -35.5l-388 -1376q-8 -29 -36 -28h-33q-25 0 -35 22l-354 1108h-11l-348 -1108q-10 -23 -35 -22h-32q-29 -1 -37 28z" />
<glyph unicode="X" horiz-adv-x="1193" d="M81 18.5q-11 18.5 1 38.5l416 678l-400 641q-12 20 -2 39t37 19h111q25 0 35 -19l315 -543h2l319 543q10 18 35 19h111q27 0 37 -18.5t-2 -39.5l-400 -641l414 -678q12 -20 2 -38.5t-37 -18.5h-94q-27 0 -35 18l-350 580h-2l-346 -580q-10 -18 -35 -18h-94 q-27 0 -38 18.5z" />
<glyph unicode="Y" horiz-adv-x="1157" d="M2 1414q10 20 35 20h96q18 0 33 -19l414 -571l413 571q14 18 33 19h96q25 0 35 -19.5t-2 -40.5l-500 -682v-653q0 -14 -12 -26.5t-27 -12.5h-79q-16 0 -27.5 11.5t-11.5 27.5v651l-494 684q-12 20 -2 40z" />
<glyph unicode="Z" horiz-adv-x="1093" d="M61 39v37l744 1208v6h-645q-16 0 -27.5 12.5t-11.5 26.5v66q0 14 11 26.5t28 12.5h829q14 0 26.5 -12.5t12.5 -26.5v-27l-756 -1223v-2h676q16 0 27.5 -11t11.5 -28v-65q0 -16 -11 -27.5t-28 -11.5h-848q-14 0 -26.5 12.5t-12.5 26.5z" />
<glyph unicode="[" horiz-adv-x="669" d="M160 -575v1970q0 14 12 26.5t27 12.5h381q14 0 26 -12.5t12 -26.5v-52q0 -16 -11 -27t-27 -11h-281v-1790h281q16 0 27 -11.5t11 -25.5v-53q0 -14 -12 -26.5t-26 -12.5h-381q-14 0 -26.5 12t-12.5 27z" />
<glyph unicode="\" horiz-adv-x="675" d="M53 1382q-6 20 4.5 36t32.5 16h66q29 0 37 -27l401 -1356q6 -20 -5 -35.5t-32 -15.5h-68q-28 0 -36 27z" />
<glyph unicode="]" horiz-adv-x="669" d="M51 -522q0 14 11.5 25.5t27.5 11.5h281v1790h-281q-16 0 -27.5 11t-11.5 27v52q0 14 11.5 26.5t27.5 12.5h381q16 0 27.5 -12.5t11.5 -26.5v-1970q0 -14 -11.5 -26.5t-27.5 -12.5h-381q-16 0 -27.5 12t-11.5 27v53z" />
<glyph unicode="^" horiz-adv-x="1073" d="M88 833.5q-10 18.5 2 38.5l412 570q12 20 35 20h10q23 0 35 -20l401 -570q12 -20 2 -38.5t-35 -18.5h-67q-25 0 -39 23l-305 432l-310 -432q-16 -23 -39 -23h-67q-25 0 -35 18.5z" />
<glyph unicode="_" horiz-adv-x="792" d="M51 -59q0 39 39 39h612q39 0 39 -39v-33q0 -16 -11 -26.5t-28 -10.5h-612q-16 0 -27.5 10t-11.5 27v33z" />
<glyph unicode="`" horiz-adv-x="618" d="M143 1325l37 74q6 12 25.5 13t27.5 -7l308 -172q25 -12 12 -39l-21 -45q-10 -20 -47 -4l-329 137q-29 10 -13 43z" />
<glyph unicode="a" horiz-adv-x="860" d="M86 248q0 121 87 196.5t241 75.5q55 0 114 -12l60 -14v17q0 109 -24 155q-26 49 -109 49q-129 0 -246 -45q-29 -12 -39 20l-16 51q-10 31 22 45q12 6 44 16.5t101.5 24t139.5 13.5q152 0 206 -79t54 -267v-455q0 -14 -12.5 -26.5t-26.5 -12.5h-39q-25 0 -35 31l-16 55 q-106 -106 -254 -106q-109 0 -180.5 73.5t-71.5 194.5zM217 248q0 -63 39 -104.5t104 -41.5q72 0 133.5 36t92.5 79v162q-55 33 -172 33q-88 0 -142.5 -43t-54.5 -121z" />
<glyph unicode="b" d="M147 39v1356q0 14 12.5 26.5t26.5 12.5h64q16 0 27.5 -12.5t11.5 -26.5v-609l24 13q25 14 80.5 27.5t114.5 13.5q180 0 286.5 -122t106.5 -306q0 -178 -108.5 -305t-264.5 -127q-68 0 -131 26.5t-92 54.5l-29 27l-12 -55q-8 -33 -35 -33h-43q-14 0 -26.5 12.5t-12.5 26.5 zM291 244l16 -23q14 -20 40 -44.5t71 -46t96 -21.5q109 0 176.5 88t67.5 213q0 129 -70 210.5t-199 81.5q-70 0 -133 -24l-65 -25v-409z" />
<glyph unicode="c" horiz-adv-x="903" d="M84 408q0 178 126 305t296 127q180 0 293 -144q11 -14 11 -27q0 -17 -19 -30l-39 -33q-14 -12 -24.5 -13t-18 6t-17.5 15q-76 86 -188 86q-115 0 -194 -84t-79 -206.5t78 -208.5t193 -86q43 0 78.5 10t58.5 25.5t44.5 35t35.5 35.5q16 16 32 16q14 0 29 -12l23 -16 q22 -16 22 -34q0 -11 -8 -23q-49 -78 -131 -125t-182 -47q-172 0 -296 123t-124 305z" />
<glyph unicode="d" d="M86 412q0 184 106.5 306t286.5 122q59 0 114.5 -13.5t80.5 -27.5l24 -13v609q0 14 11.5 26.5t27.5 12.5h64q14 0 26.5 -12.5t12.5 -26.5v-1356q0 -14 -12.5 -26.5t-26.5 -12.5h-43q-27 0 -35 33l-12 55l-29 -27q-29 -29 -92.5 -55t-130.5 -26q-156 0 -264.5 127 t-108.5 305zM229 410q0 -125 68 -213t176 -88q51 0 96 21.5t71 46t40 44.5l16 23v409l-65 25q-61 24 -128 24h-5q-129 0 -199 -81.5t-70 -210.5z" />
<glyph unicode="e" horiz-adv-x="935" d="M86 410q0 180 110.5 305t290.5 125q162 0 266.5 -106.5t104.5 -268.5q0 -27 -4 -55q-4 -35 -37 -35h-590q6 -104 87 -185t188 -81q102 0 203 61q27 14 32.5 16t24.5 -12l35 -47q12 -16 12 -26.5t-21 -26.5q-119 -94 -301 -94q-180 0 -290.5 124t-110.5 306zM229 489h488 q-4 90 -70.5 158t-159.5 68q-102 0 -175 -65t-83 -161z" />
<glyph unicode="f" horiz-adv-x="655" d="M47 735v45q0 39 39 39h125v287q0 170 87 259t226 89q137 0 226 -84q25 -20 8 -47l-33 -53q-18 -31 -53 -2q-78 59 -150 59q-76 0 -123 -54t-47 -167v-287h238q39 0 39 -39v-45q0 -16 -11.5 -27.5t-27.5 -11.5h-238v-657q0 -14 -12 -26.5t-27 -12.5h-63q-16 0 -27.5 12.5 t-11.5 26.5v657h-125q-16 0 -27.5 11.5t-11.5 27.5z" />
<glyph unicode="g" horiz-adv-x="940" d="M63 39q0 70 34 128t69 83l35 24l-17 25q-16 25 -32.5 76t-16.5 104q0 150 95.5 255.5t250.5 105.5h346q39 0 39 -39v-35q0 -31 -22 -35l-111 -22l23 -21q23 -23 46 -80t23 -129q0 -145 -95 -246.5t-249 -101.5q-57 0 -106 12.5t-68 24.5l-20 14l-23 -12q-23 -12 -45 -43 t-22 -68q0 -41 29.5 -70.5t82.5 -29.5h295q135 0 221 -66.5t86 -195.5q0 -131 -121.5 -231.5t-302.5 -100.5q-193 0 -293 85t-100 198q0 119 119 190v6q-55 14 -102.5 62.5t-47.5 132.5zM240 -332q0 -74 70.5 -122t174.5 -48q106 0 190.5 54.5t84.5 140.5q0 23 -7.5 48.5 t-45 55t-103.5 29.5h-227l-35 -12q-35 -12 -68.5 -52.5t-33.5 -93.5zM268 483.5q0 -100.5 60.5 -165t154.5 -64.5q92 0 148.5 63.5t56.5 166t-56.5 166t-148.5 63.5q-94 0 -154.5 -64.5t-60.5 -165z" />
<glyph unicode="h" horiz-adv-x="1015" d="M147 39v1356q0 14 12.5 26.5t26.5 12.5h64q16 0 27.5 -12.5t11.5 -26.5v-664l30 27q33 29 101.5 55.5t142.5 26.5q154 0 236 -95.5t82 -273.5v-432q0 -14 -12.5 -26.5t-26.5 -12.5h-66q-14 0 -26.5 12.5t-12.5 26.5v432q0 115 -48 173t-136 58q-70 0 -135.5 -28.5 t-98.5 -57.5l-30 -28v-549q0 -14 -11.5 -26.5t-27.5 -12.5h-64q-14 0 -26.5 12.5t-12.5 26.5z" />
<glyph unicode="i" horiz-adv-x="432" d="M117 1294q0 41 27.5 70t68.5 29t69.5 -29t28.5 -70t-28.5 -68.5t-69.5 -27.5t-68.5 27.5t-27.5 68.5zM145 39v741q0 14 11.5 26.5t27.5 12.5h64q14 0 26.5 -12t12.5 -27v-741q0 -14 -12.5 -26.5t-26.5 -12.5h-64q-16 0 -27.5 12.5t-11.5 26.5z" />
<glyph unicode="j" horiz-adv-x="436" d="M-258 -504l33 53q18 31 53 2q78 -59 149 -59q76 0 123 54t47 167v1067q0 16 11.5 27.5t27.5 11.5h64q16 0 27.5 -11t11.5 -28v-1067q0 -170 -87 -259t-227 -89q-137 0 -225 84q-25 20 -8 47zM121 1294q0 41 27.5 70t68.5 29t69.5 -29t28.5 -70t-28.5 -68.5t-69.5 -27.5 t-68.5 27.5t-27.5 68.5z" />
<glyph unicode="k" horiz-adv-x="917" d="M147 39v1356q0 14 12.5 26.5t26.5 12.5h64q16 0 27.5 -12.5t11.5 -26.5v-887l348 287q29 25 49 24h111q25 0 27.5 -20.5t-9.5 -30.5l-389 -311l453 -406q14 -10 9 -30.5t-30 -20.5h-113q-18 0 -40 16l-416 396v-373q0 -14 -11.5 -26.5t-27.5 -12.5h-64q-14 0 -26.5 12.5 t-12.5 26.5z" />
<glyph unicode="l" horiz-adv-x="436" d="M147 39v1356q0 14 12.5 26.5t26.5 12.5h64q16 0 27.5 -12.5t11.5 -26.5v-1356q0 -14 -11.5 -26.5t-27.5 -12.5h-64q-14 0 -26.5 12.5t-12.5 26.5z" />
<glyph unicode="m" horiz-adv-x="1560" d="M145 39v741q0 14 11.5 26.5t27.5 12.5h39q27 0 33 -24l18 -64l29 27q29 29 95.5 55.5t142.5 26.5q180 0 262 -133q166 133 305 133q317 0 317 -369v-432q0 -14 -12 -26.5t-27 -12.5h-65q-14 0 -26.5 12.5t-12.5 26.5v432q0 231 -184 231q-127 0 -250 -114q10 -57 10 -117 v-432q0 -14 -11 -26.5t-28 -12.5h-65q-16 0 -27.5 12.5t-11.5 26.5v432q0 231 -195 231q-66 0 -124 -29.5t-85 -58.5l-24 -28v-547q0 -14 -12.5 -26.5t-26.5 -12.5h-64q-16 0 -27.5 12.5t-11.5 26.5z" />
<glyph unicode="n" horiz-adv-x="1013" d="M145 39v741q0 14 11.5 26.5t27.5 12.5h39q27 0 33 -24l18 -64l33 27q35 29 106.5 55.5t147.5 26.5q317 0 318 -369v-432q0 -14 -11.5 -26.5t-27.5 -12.5h-66q-16 0 -27.5 12.5t-11.5 26.5v432q0 115 -48 173t-136 58q-68 0 -134.5 -29.5t-97.5 -58.5l-32 -28v-547 q0 -14 -12.5 -26.5t-26.5 -12.5h-64q-16 0 -27.5 12.5t-11.5 26.5z" />
<glyph unicode="o" d="M86 412q0 174 119 301t289 127t288.5 -127t118.5 -301q0 -178 -118.5 -305t-288.5 -127t-289 127t-119 305zM227 412q0 -125 77 -212t189.5 -87t189.5 87t77 212q0 121 -77 207t-189.5 86t-189.5 -86t-77 -207z" />
<glyph unicode="p" d="M147 -575v1355q0 14 12.5 26.5t26.5 12.5h43q23 0 33 -26l14 -39l27 20q27 23 86.5 44.5t124.5 21.5q166 0 276.5 -127t110.5 -305q0 -180 -112.5 -304t-280.5 -124q-59 0 -114.5 16t-80.5 33l-24 18v-622q0 -14 -11.5 -26.5t-27.5 -12.5h-64q-14 0 -26.5 12t-12.5 27z M291 188l24 -18q25 -18 75 -35.5t99 -17.5q117 0 193 84t76 209t-70 213t-188 88q-59 0 -111.5 -26t-75.5 -50l-22 -25v-422z" />
<glyph unicode="q" d="M86 408q0 178 110.5 305t276.5 127q66 0 125 -21.5t86 -44.5l27 -20l14 37q10 29 39 28h37q14 0 26.5 -12t12.5 -27v-1355q0 -14 -12.5 -26.5t-26.5 -12.5h-64q-16 0 -27.5 12t-11.5 27v626l-24 -18q-25 -16 -80 -34.5t-115 -18.5q-168 0 -280.5 124t-112.5 304zM229 410 q0 -125 76 -209t193 -84q49 0 99 17.5t75 33.5l24 16v426l-22 25q-23 25 -75 50.5t-112 25.5q-119 0 -188.5 -88t-69.5 -213z" />
<glyph unicode="r" horiz-adv-x="684" d="M145 39v741q0 14 11.5 26.5t27.5 12.5h39q29 0 35 -28l16 -60l17 19q14 16 41.5 35.5t78 37t109.5 17.5q39 0 71 -4.5t57.5 -20.5t15.5 -43l-25 -70q-12 -33 -49 -18q-37 16 -80 16q-70 0 -125 -28.5t-78 -57.5l-20 -28v-547q0 -14 -12.5 -26.5t-26.5 -12.5h-64 q-16 0 -27.5 12.5t-11.5 26.5z" />
<glyph unicode="s" horiz-adv-x="729" d="M92 627q0 78 65.5 145.5t194.5 67.5q135 0 228 -64q21 -14 21 -34q0 -13 -9 -29l-17 -33q-15 -25 -35 -25q-11 0 -24 7l-57 24q-59 25 -107 25q-61 0 -88.5 -24.5t-27.5 -57.5t24.5 -59.5t47 -39t79.5 -41.5q68 -33 104.5 -53t80.5 -54t63.5 -76t19.5 -95 q0 -92 -79.5 -161.5t-202.5 -69.5q-148 0 -267 92q-20 16 -10 43q4 6 15.5 26.5t13.5 24.5q18 29 55 6l25 -18q25 -18 73 -36t95 -18q61 0 97 28t36 71q0 49 -39 80.5t-141 82.5q-68 33 -112 62t-83 83t-39 120z" />
<glyph unicode="t" horiz-adv-x="700" d="M55 735v45q0 39 39 39h105v228q0 14 11 26t28 12l65 5q14 0 25.5 -11.5t11.5 -27.5v-232h238q39 0 38 -39v-45q0 -16 -11 -27.5t-27 -11.5h-238v-479q0 -59 15.5 -78.5t52.5 -19.5q66 0 149 45q31 16 49 -12l31 -52q18 -31 -14.5 -51t-102 -44.5t-133.5 -24.5 q-113 0 -150.5 57t-37.5 168v491h-105q-16 0 -27.5 11.5t-11.5 27.5z" />
<glyph unicode="u" horiz-adv-x="993" d="M135 350v430q0 14 12.5 26.5t26.5 12.5h66q14 0 26.5 -12t12.5 -27v-432q0 -115 48 -173t136 -58q70 0 130 29.5t87 58.5l27 28v547q0 14 11 26.5t27 12.5h64q14 0 26.5 -12t12.5 -27v-741q0 -14 -12.5 -26.5t-26.5 -12.5h-39q-27 0 -37 35l-14 53l-29 -27 q-29 -29 -95.5 -55t-141.5 -26h-2q-316 0 -316 370z" />
<glyph unicode="v" horiz-adv-x="841" d="M32 805.5q9 13.5 31 13.5h64q25 0 37 -22l254 -586h2l270 586q10 23 35 22h53q23 0 32 -13t-1 -34l-350 -772q-8 -20 -35 -20h-10q-27 0 -35 20l-346 772q-10 20 -1 33.5z" />
<glyph unicode="w" horiz-adv-x="1236" d="M68 772q-3 11 -3 20q0 27 33 27h64q29 0 37 -22l149 -541h2l232 563q8 20 34 21h11q27 0 35 -21l229 -565h2l147 543q8 23 35 22h64q34 0 34 -26q0 -9 -4 -21l-223 -772q-6 -20 -35 -20h-10q-27 0 -35 20l-250 614l-241 -614q-8 -20 -35 -20h-10q-29 0 -35 20z" />
<glyph unicode="x" horiz-adv-x="854" d="M69.5 16.5q-7.5 16.5 6.5 36.5l268 365l-260 348q-16 20 -8 36.5t35 16.5h86q20 0 32 -16l195 -279h2l203 279q12 16 33 16h86q27 0 35 -16.5t-9 -36.5l-260 -346l262 -367q14 -20 6 -36.5t-32 -16.5h-76q-16 0 -31 18l-217 301h-2l-213 -303q-12 -16 -33 -16h-76 q-25 0 -32.5 16.5z" />
<glyph unicode="y" horiz-adv-x="954" d="M28 806.5q9 12.5 31 12.5h91q23 0 34 -22l303 -627h2l287 627q10 23 35 22h78q23 0 32 -13t-1 -34l-629 -1362q-12 -25 -35 -24h-76q-23 0 -33 14t0 37l263 565l-381 772q-10 20 -1 32.5z" />
<glyph unicode="z" horiz-adv-x="747" d="M74 39v20l401 625v6h-344q-14 0 -25.5 11.5t-11.5 27.5v51q0 16 10.5 27.5t26.5 11.5h514q23 0 35 -17.5t0 -37.5l-391 -629v-6h315q39 0 39 -39v-51q0 -16 -11 -27.5t-28 -11.5h-491q-14 0 -26.5 12.5t-12.5 26.5z" />
<glyph unicode="{" horiz-adv-x="817" d="M51 379v63q0 27 31 31q45 8 93 53t48 107v330q0 133 48 233t125 153.5t160 79t169 25.5q41 0 41 -35v-39q0 -33 -27 -37q-158 -23 -266 -123t-108 -257v-273q0 -72 -15.5 -124t-45.5 -81.5t-50.5 -43t-50.5 -25.5v-15q31 -12 51 -25.5t50 -43t45.5 -81.5t15.5 -124v-272 q0 -158 108.5 -257.5t265.5 -121.5q27 -4 27 -35v-41q0 -14 -12.5 -24.5t-28.5 -10.5q-86 0 -169 25.5t-160 79t-125 153t-48 232.5v329q0 61 -48 106.5t-93 53.5q-31 4 -31 35z" />
<glyph unicode="|" horiz-adv-x="405" d="M158 -578v2096q0 16 11 27t28 11h14q16 0 26.5 -11t10.5 -27v-2096q0 -14 -11.5 -25t-27.5 -11h-12q-16 0 -27.5 11t-11.5 25z" />
<glyph unicode="}" horiz-adv-x="817" d="M51 -559q0 31 27 35q158 23 266.5 122t108.5 257v272q0 72 15 124t45 81.5t50.5 43t50.5 25.5v15q-31 12 -51 25.5t-50 43t-45 81.5t-15 124v273q0 158 -108.5 258t-266.5 122q-27 4 -27 37v39q0 35 41 35q86 0 169 -25.5t160 -79t125 -153.5t48 -233v-330 q0 -61 48 -106.5t93 -53.5q31 -4 31 -31v-63q0 -31 -31 -35q-45 -8 -93 -53t-48 -107v-329q0 -133 -48 -232.5t-125 -153t-160 -79t-169 -25.5q-16 0 -28.5 10.5t-12.5 24.5v41z" />
<glyph unicode="~" horiz-adv-x="1138" d="M115 551l20 31q20 29 54 63.5t88.5 64t109.5 29.5q92 0 221 -92q98 -70 150 -69q33 0 63.5 15t49 36.5t36 45t25.5 38.5q25 35 55 8l43 -35q27 -23 4 -49l-20 -31q-20 -29 -54 -63.5t-89.5 -64t-112.5 -29.5q-86 0 -213 88q-23 14 -44.5 30.5t-52 29.5t-59.5 13 q-33 0 -62.5 -15t-48 -36.5t-36 -45.5t-25.5 -38q-24 -35 -55 -8q-6 6 -20.5 17.5t-22.5 17.5q-27 23 -4 49z" />
<glyph unicode="&#xa1;" horiz-adv-x="468" d="M119 723q0 47 33.5 82t83.5 35q47 0 81.5 -35t34.5 -82q0 -49 -34.5 -83t-81.5 -34q-49 0 -83 34t-34 83zM145 -346l39 575q2 12 13.5 22.5t25.5 10.5h25q14 0 25.5 -10t13.5 -23l39 -571v-233q0 -14 -11.5 -26.5t-27.5 -12.5h-103q-16 0 -27.5 12t-11.5 27v229z" />
<glyph unicode="&#xa2;" horiz-adv-x="874" d="M61 408q0 180 123 306t299 126q16 0 54 -4l22 84q10 37 47 26l15 -4q37 -8 26 -47l-22 -82q88 -37 151 -117q25 -33 -8 -57l-39 -33q-14 -12 -25.5 -13t-17.5 6t-16 15q-35 37 -82 62l-152 -559q14 -2 43 -2q51 0 98.5 20.5t64.5 35.5t54 50q29 29 62 4l22 -16 q35 -25 15 -57q-49 -78 -131 -125t-183 -47q-47 0 -80 8l-53 -199q-2 -14 -16.5 -22.5t-30.5 -4.5l-12 5q-37 8 -29 45l53 202q-113 49 -182.5 154.5t-69.5 239.5zM209 410q0 -86 37.5 -156t103.5 -107l150 551q0 2 -19 2q-115 0 -193.5 -84t-78.5 -206z" />
<glyph unicode="&#xa3;" horiz-adv-x="1032" d="M121 641v14q0 16 11 27.5t26 11.5h65q-2 8 -20.5 69.5t-31.5 132.5t-13 138q0 190 121.5 305t306.5 115q176 0 342 -145q31 -23 4 -54l-43 -53q-31 -39 -60 -2l-32 29q-33 31 -95.5 60.5t-123.5 29.5q-119 0 -198 -80t-79 -207q0 -70 15.5 -143.5t33 -130t19.5 -64.5h336 q16 0 27 -11t11 -28v-16q0 -16 -11 -26.5t-27 -10.5h-314q18 -72 8 -223.5t-53 -247.5h512q16 0 26.5 -11t10.5 -28v-53q0 -16 -11.5 -27.5t-25.5 -11.5h-651q-14 0 -26.5 12.5t-12.5 26.5v37q131 248 80 526h-90q-14 0 -25.5 11.5t-11.5 27.5z" />
<glyph unicode="&#xa4;" horiz-adv-x="974" d="M166 399q-27 27 0 56l84 84q-82 141 0 282l-84 84q-27 29 0 56l41 38q10 10 27.5 10.5t27.5 -10.5l84 -84q66 41 141.5 41t141.5 -38l86 86q27 25 53 -3l41 -40q27 -27 0 -54l-84 -84q41 -63 41 -142t-41 -144l84 -84q27 -27 0 -54l-41 -41q-27 -27 -53 -2l-86 86 q-66 -39 -142.5 -37.5t-140.5 39.5l-84 -84q-10 -10 -27.5 -10t-27.5 10zM340 679.5q0 -61.5 43 -104.5t104.5 -43t104.5 43t43 104.5t-43 104.5t-104.5 43t-104.5 -43t-43 -104.5z" />
<glyph unicode="&#xa5;" horiz-adv-x="1265" d="M55.5 1414q10.5 20 34.5 20h96q18 0 33 -19l414 -571l414 571q14 18 32 19h97q25 0 35 -19.5t-3 -40.5l-499 -682v-102h264q16 0 27.5 -11.5t11.5 -27.5v-16q0 -16 -11.5 -26.5t-27.5 -10.5h-264v-154h264q16 0 27.5 -11t11.5 -28v-16q0 -16 -11.5 -26.5t-27.5 -10.5 h-264v-213q0 -14 -12.5 -26.5t-26.5 -12.5h-80q-16 0 -27.5 11.5t-11.5 27.5v213h-268q-14 0 -25.5 11t-11.5 28v14q0 16 11 27.5t26 11.5h268v154h-268q-14 0 -25.5 11t-11.5 28v14q0 16 11 27.5t26 11.5h268v100l-494 684q-12 20 -1.5 40z" />
<glyph unicode="&#xa6;" horiz-adv-x="745" d="M328 100q0 16 11 27.5t28 11.5h14q16 0 26.5 -11t10.5 -28v-678q0 -14 -11.5 -25t-27.5 -11h-12q-16 0 -27.5 11t-11.5 25v678zM328 842v676q0 16 11 27t28 11h14q16 0 26.5 -11t10.5 -27v-676q0 -14 -11.5 -25.5t-27.5 -11.5h-12q-16 0 -27.5 11t-11.5 26z" />
<glyph unicode="&#xa7;" horiz-adv-x="1079" d="M94 -276l41 51q31 37 62 6q20 -20 56 -48t123 -68t167 -40q117 0 195.5 53.5t78.5 151.5q0 94 -87 170t-271 154q-360 152 -361 399q0 59 26 113.5t56.5 84t57.5 48.5l24 16l-41 33q-41 31 -82 104.5t-41 157.5q0 127 107.5 235.5t329.5 108.5q90 0 177 -26.5t130 -51.5 l43 -26q14 -6 20 -21.5t-6 -46.5l-31 -47q-27 -35 -67 -12q-164 94 -269 94q-150 0 -216 -62.5t-66 -142.5q0 -156 276 -268q238 -98 346.5 -186.5t108.5 -227.5q0 -76 -44 -146.5t-87 -103.5l-43 -33l43 -32q43 -35 87 -113t44 -166q0 -158 -125 -253t-317 -95 q-109 0 -214.5 40t-147.5 69.5t-71 56.5q-39 35 -12 70zM250 559q0 -49 17.5 -86t64.5 -70.5t85 -54t126 -62.5t141 -69l33 21q33 18 66.5 68t33.5 112q0 86 -82 146.5t-276 142.5q-57 25 -86 38l-31 -16q-31 -16 -61.5 -63.5t-30.5 -106.5z" />
<glyph unicode="&#xa8;" horiz-adv-x="847" d="M164 1294q0 41 27.5 70t68.5 29t69.5 -29t28.5 -70t-28.5 -68.5t-69.5 -27.5q-39 0 -67.5 27.5t-28.5 68.5zM559 1294q0 41 27.5 70t68.5 29t70 -29t29 -70t-29 -68.5t-70 -27.5t-68.5 27.5t-27.5 68.5z" />
<glyph unicode="&#xa9;" horiz-adv-x="1691" d="M111 717q0 305 216 521t519 216q305 0 521 -217t216 -520t-216 -519t-521 -216t-520 216t-215 519zM233 717q0 -254 179.5 -433.5t433.5 -179.5t433 179.5t179 433.5t-178 433t-434 179q-254 0 -433.5 -179t-179.5 -433zM481 713q0 160 112 272.5t271 112.5 q137 0 236 -78q33 -29 4 -59l-29 -37q-18 -25 -55 -2q-70 47 -152 47q-104 0 -173.5 -74t-69.5 -176q0 -106 69.5 -178t173.5 -72q78 0 146 45q39 25 59 -2l33 -39q27 -29 -2 -57q-100 -86 -240 -86q-158 0 -270.5 112.5t-112.5 270.5z" />
<glyph unicode="&#xaa;" horiz-adv-x="638" d="M72 1026q0 88 62.5 142.5t174.5 54.5q39 0 80 -11l43 -10q0 90 -17.5 124t-74.5 34q-74 0 -176 -37q-23 -6 -31 23l-10 36q-6 20 14 31q14 10 72.5 25.5t138.5 15.5q31 0 56.5 -5t44 -14.5t33 -21.5t22.5 -27.5t14 -34t9 -39t4 -42t1 -43v-43.5v-312q0 -29 -26 -28h-37 q-18 0 -25 20l-12 43q-86 -80 -178 -80q-80 0 -131 54.5t-51 144.5zM164 1028q0 -45 28.5 -74.5t73.5 -29.5q47 0 93.5 24.5t68.5 52.5v115q-53 27 -125 27q-59 0 -99 -33t-40 -82z" />
<glyph unicode="&#xab;" horiz-adv-x="849" d="M84 397q-16 23 0 49l223 304q14 25 37 24h29q27 0 35 -19.5t-5 -43.5l-151 -285l145 -301q12 -25 4 -43.5t-34 -18.5h-39q-19 1 -31 17zM418 397q-16 23 0 49l223 304q14 25 37 24h29q27 0 35 -19.5t-5 -43.5l-151 -285l145 -301q12 -25 4 -43.5t-35 -18.5h-38 q-18 0 -31 17z" />
<glyph unicode="&#xac;" horiz-adv-x="1064" d="M76 682v57q0 14 11 26.5t28 12.5h778q16 0 27.5 -12t11.5 -27v-417q0 -14 -11.5 -25.5t-27.5 -11.5h-57q-16 0 -27.5 11t-11.5 26v321h-682q-16 0 -27.5 12.5t-11.5 26.5z" />
<glyph unicode="&#xad;" horiz-adv-x="710" d="M102 487v39q0 39 39 39h428q39 0 39 -39v-39q0 -16 -11 -26t-28 -10h-428q-16 0 -27.5 10t-11.5 26z" />
<glyph unicode="&#xae;" horiz-adv-x="1693" d="M111 717q0 305 216 521t519 216q305 0 521 -217t216 -520t-216 -519t-521 -216t-520 216t-215 519zM233 717q0 -254 179.5 -433.5t433.5 -179.5t433 179.5t179 433.5t-178 433t-434 179q-254 0 -433.5 -179t-179.5 -433zM590 383v672q0 16 11 27.5t28 11.5h291 q102 0 176.5 -60.5t74.5 -169.5q0 -102 -52 -155.5t-113 -67.5l122 -242q10 -18 -1 -36.5t-33 -18.5h-70q-23 0 -37 29l-115 256h-151v-246q0 -16 -11.5 -27.5t-27.5 -11.5h-53q-16 0 -27.5 11.5t-11.5 27.5zM719 748h201q55 0 88.5 33.5t33.5 82.5q0 53 -32.5 85t-89.5 32 h-201v-233z" />
<glyph unicode="&#xaf;" horiz-adv-x="847" d="M123 1231v43q0 39 39 39h524q39 0 39 -39v-43q0 -16 -11.5 -26.5t-27.5 -10.5h-524q-16 0 -27.5 10t-11.5 27z" />
<glyph unicode="&#xb0;" horiz-adv-x="684" d="M66 1177.5q0 114.5 80.5 195.5t195.5 81t195.5 -81t80.5 -195.5t-80.5 -195.5t-195.5 -81t-195.5 81t-80.5 195.5zM174 1178q0 -66 51 -117t117 -51q63 0 113.5 51t50.5 117q0 63 -50 113t-114 50q-66 0 -117 -50t-51 -113z" />
<glyph unicode="&#xb1;" horiz-adv-x="1222" d="M182 164v57q0 16 11.5 27.5t27.5 11.5h780q14 0 25.5 -11t11.5 -28v-57q0 -16 -11 -27.5t-26 -11.5h-780q-16 0 -27.5 11.5t-11.5 27.5zM184 825v58q0 14 12.5 26.5t26.5 12.5h322v303q0 14 11 25.5t28 11.5h57q16 0 27.5 -11.5t11.5 -25.5v-303h324q14 0 25 -11.5 t11 -27.5v-58q0 -16 -11 -27.5t-25 -11.5h-324v-239q0 -14 -11.5 -25.5t-27.5 -11.5h-57q-16 0 -27.5 11.5t-11.5 25.5v239h-322q-14 0 -26.5 12.5t-12.5 26.5z" />
<glyph unicode="&#xb2;" horiz-adv-x="628" d="M92 1051v28l260 273q66 72 66 114q0 37 -30 67t-87 30q-66 0 -127 -62q-12 -12 -24 0l-41 43q-12 12 0 23l22 22q23 25 73 47.5t103 22.5q106 0 163.5 -51.5t57.5 -131t-100 -184.5l-166 -170h248q18 0 18 -20v-51q0 -18 -18 -19h-397q-20 0 -21 19z" />
<glyph unicode="&#xb3;" horiz-adv-x="610" d="M86 1096q-12 12 2 22l43 41q16 8 27 -2q80 -53 135 -53q49 0 86 25.5t37 66.5t-38 69.5t-112 28.5h-63q-20 0 -21 19v51q0 18 21 18h63q66 0 99.5 26t33.5 65q0 41 -32.5 66.5t-77.5 25.5q-66 0 -115 -49q-12 -12 -27 0l-41 36q-16 12 0 25l23 20q23 20 71 41t97 21 q92 0 153.5 -47t61.5 -123q0 -49 -33 -88t-73 -55v-5q45 -16 84.5 -58t39.5 -95q0 -76 -64.5 -126t-168.5 -50q-133 0 -211 84z" />
<glyph unicode="&#xb4;" horiz-adv-x="618" d="M150 1194q-12 27 12 39l307 172q8 8 27.5 7t25.5 -13l37 -74q16 -33 -12 -43l-330 -137q-37 -16 -47 4z" />
<glyph unicode="&#xb5;" horiz-adv-x="1034" d="M150 -575v1355q0 14 11 26.5t27 12.5h66q16 0 27.5 -12t11.5 -27v-432q0 -115 48 -173t136 -58q70 0 130.5 29.5t86.5 58.5l27 28v547q0 14 12 26.5t27 12.5h63q16 0 27.5 -12t11.5 -27v-741q0 -14 -11 -26.5t-28 -12.5h-39q-27 0 -36 35l-15 53l-28 -27 q-29 -29 -95.5 -55t-142.5 -26q-106 -1 -176 40v-595q0 -14 -12.5 -26.5t-26.5 -12.5h-64q-16 0 -27 12t-11 27z" />
<glyph unicode="&#xb6;" horiz-adv-x="1437" d="M51 1008q0 176 116 302t282 126l905 -2q14 0 26.5 -12.5t12.5 -26.5v-41q0 -16 -11.5 -27.5t-27.5 -11.5h-228v-1893q0 -16 -11 -27t-28 -11h-43q-16 0 -27 11t-11 27v1893h-320v-1893q0 -16 -11 -27t-28 -11h-41q-16 0 -27.5 11t-11.5 27v1156h-90q-174 0 -300 124.5 t-126 305.5z" />
<glyph unicode="&#xb7;" horiz-adv-x="468" d="M117 535q0 49 34.5 82.5t81.5 33.5q49 0 83 -33.5t34 -82.5q0 -47 -34 -82t-83 -35q-47 0 -81.5 34.5t-34.5 82.5z" />
<glyph unicode="&#xb8;" horiz-adv-x="505" d="M72 -408l28 23q29 20 47 0q35 -37 84 -37q41 0 66 26.5t25 69.5t-31 73t-61.5 39t-77.5 17q-35 6 -35 41v156h110v-109q96 -12 155.5 -68t59.5 -142q0 -90 -62.5 -151.5t-152.5 -61.5q-94 0 -155 71q-29 33 0 53z" />
<glyph unicode="&#xb9;" horiz-adv-x="389" d="M49 1501q-2 14 6 23l144 114h57q18 0 18 -18v-569q0 -18 -18 -19h-72q-20 0 -20 19v430l-84 -23q-18 -4 -21 8z" />
<glyph unicode="&#xba;" horiz-adv-x="663" d="M78 1128q0 154 66.5 239t187.5 85t187.5 -85t66.5 -239q0 -152 -66.5 -236.5t-187.5 -84.5t-187.5 85t-66.5 236zM190 1128q0 -106 37 -164.5t104.5 -58.5t104.5 58.5t37 164.5q0 109 -37 167.5t-104.5 58.5t-104.5 -58.5t-37 -167.5z" />
<glyph unicode="&#xbb;" horiz-adv-x="849" d="M107 755q8 19 34 19h29q23 0 37 -24l223 -304q16 -27 0 -49l-213 -317q-12 -16 -31 -17h-39q-27 0 -35 18.5t5 43.5l145 301l-151 285q-12 25 -4 44zM440.5 755q8.5 19 34.5 19h29q23 0 37 -24l223 -304q16 -27 0 -49l-213 -317q-12 -16 -31 -17h-39q-27 0 -34.5 18.5 t4.5 43.5l145 301l-152 285q-12 25 -3.5 44z" />
<glyph unicode="&#xbc;" horiz-adv-x="1296" d="M78 1296q-2 14 6 23l143 115h58q18 0 18 -19v-569q0 -18 -18 -19h-72q-20 0 -20 19v430l-84 -23q-18 -4 -21 9zM184 55l703 1358q12 20 35 21h32q23 0 34 -17.5t1 -38.5l-706 -1358q-10 -20 -35 -20h-29q-23 0 -34 17.5t-1 37.5zM649 139v60l352 401q6 6 17 6h43 q20 0 20 -18v-379h84q18 0 19 -16v-54q0 -16 -19 -16h-84v-105q0 -18 -20 -18h-66q-20 0 -20 18v103h-307q-19 0 -19 18zM762 211h217v242z" />
<glyph unicode="&#xbd;" horiz-adv-x="1282" d="M78 1296q-2 14 6 23l143 115h58q18 0 18 -19v-569q0 -18 -18 -19h-72q-20 0 -20 19v430l-84 -23q-18 -4 -21 9zM184 55l703 1358q12 20 35 21h32q23 0 34 -17.5t1 -38.5l-706 -1358q-10 -20 -35 -20h-29q-23 0 -34 17.5t-1 37.5zM711 18v29l260 272q66 72 65 115 q0 37 -29.5 66.5t-86.5 29.5q-66 0 -127 -61q-12 -12 -25 0l-41 43q-12 12 0 23l23 22q23 25 72.5 47.5t103.5 22.5q106 0 163.5 -51.5t57.5 -131t-100 -184.5l-166 -170h247q18 0 19 -20v-52q0 -18 -19 -18h-397q-20 0 -20 18z" />
<glyph unicode="&#xbe;" horiz-adv-x="1388" d="M92 891q-12 12 2 22l43 41q16 8 27 -2q80 -53 135 -53q49 0 86 25.5t37 66.5t-38 70t-112 29h-63q-20 0 -21 18v51q0 18 21 19h63q66 0 100 25.5t34 64.5q0 41 -33 66.5t-78 25.5q-66 0 -115 -49q-12 -12 -26 0l-41 37q-16 12 0 24l22 21q23 20 71 40.5t97 20.5 q92 0 153.5 -47t61.5 -123q0 -49 -32.5 -88t-73.5 -55v-4q45 -16 85 -58.5t40 -95.5q0 -76 -65 -126t-169 -50q-133 0 -211 84zM276 55l703 1358q12 20 35 21h33q23 0 34 -17.5t0 -38.5l-706 -1358q-10 -20 -35 -20h-29q-23 0 -34 17.5t-1 37.5zM741 139v60l353 401 q6 6 16 6h43q20 0 21 -18v-379h83q18 0 19 -16v-54q0 -16 -19 -16h-83v-105q0 -18 -21 -18h-66q-20 0 -20 18v103h-307q-19 0 -19 18zM854 211h217v242z" />
<glyph unicode="&#xbf;" horiz-adv-x="499" d="M-133 -322q0 74 33.5 133.5t81 97.5t94.5 70.5t80.5 72.5t33.5 85v84q0 41 43 41h56q16 0 27.5 -11t11.5 -28v-86q0 -70 -32 -122t-77 -85.5t-90 -65.5t-77 -80t-32 -112q0 -76 53.5 -128t149.5 -52q47 0 89 10.5t71 26.5t54.5 34.5t40 36t28.5 31.5q27 27 53 2l39 -34 q25 -20 0 -54l-25 -28q-23 -29 -64.5 -62t-119.5 -61.5t-166 -28.5q-160 0 -258 86t-98 227zM147 723q0 47 34 82t83 35q47 0 82 -35t35 -82q0 -49 -35 -83t-82 -34q-49 0 -83 34t-34 83z" />
<glyph unicode="&#xc0;" horiz-adv-x="1357" d="M12 53l623 1379q12 23 35 22h20q23 0 35 -22l618 -1379q10 -20 -1 -36.5t-33 -16.5h-82q-27 0 -35 23l-152 337h-727l-149 -337q-8 -23 -35 -23h-82q-23 0 -34 16.5t-1 36.5zM371 487h614l-299 672h-16zM475 1780l37 73q6 12 25.5 13.5t27.5 -6.5l307 -172q25 -12 13 -39 l-21 -45q-10 -21 -47 -5l-330 138q-29 10 -12 43z" />
<glyph unicode="&#xc1;" horiz-adv-x="1357" d="M12 53l623 1379q12 23 35 22h20q23 0 35 -22l618 -1379q10 -20 -1 -36.5t-33 -16.5h-82q-27 0 -35 23l-152 337h-727l-149 -337q-8 -23 -35 -23h-82q-23 0 -34 16.5t-1 36.5zM371 487h614l-299 672h-16zM473 1649q-12 27 12 39l308 172q8 8 27.5 7t25.5 -14l37 -73 q16 -33 -13 -43l-329 -138q-37 -15 -47 5z" />
<glyph unicode="&#xc2;" horiz-adv-x="1357" d="M12 53l623 1379q12 23 35 22h20q23 0 35 -22l618 -1379q10 -20 -1 -36.5t-33 -16.5h-82q-27 0 -35 23l-152 337h-727l-149 -337q-8 -23 -35 -23h-82q-23 0 -34 16.5t-1 36.5zM371 487h614l-299 672h-16zM395 1624q-14 20 13 39l245 192q10 8 26.5 8.5t27.5 -8.5l245 -192 q27 -18 13 -39q-8 -23 -29 -43t-47 -2l-209 143l-209 -139q-31 -21 -47 4z" />
<glyph unicode="&#xc3;" horiz-adv-x="1357" d="M12 53l623 1379q12 23 35 22h20q23 0 35 -22l618 -1379q10 -20 -1 -36.5t-33 -16.5h-82q-27 0 -35 23l-152 337h-727l-149 -337q-8 -23 -35 -23h-82q-23 0 -34 16.5t-1 36.5zM371 487h614l-299 672h-16zM379 1692q14 23 26.5 60.5t56.5 74.5t105 37q53 0 95.5 -38t74 -76 t56.5 -38q61 0 92 105q10 33 47 16l33 -16q20 -10 8 -54q-57 -166 -182 -166q-49 0 -93.5 39t-77 77t-55.5 38q-25 0 -45 -18.5t-27.5 -36t-17.5 -47.5q-12 -41 -51 -21l-37 19q-23 12 -8 45z" />
<glyph unicode="&#xc4;" horiz-adv-x="1357" d="M12 53l623 1379q12 23 35 22h20q23 0 35 -22l618 -1379q10 -20 -1 -36.5t-33 -16.5h-82q-27 0 -35 23l-152 337h-727l-149 -337q-8 -23 -35 -23h-82q-23 0 -34 16.5t-1 36.5zM365 1718q0 41 27.5 70t68.5 29t69.5 -29t28.5 -70t-28.5 -68.5t-69.5 -27.5q-39 0 -67.5 28.5 t-28.5 67.5zM371 487h614l-299 672h-16zM797 1718q0 41 27.5 70t68.5 29t69.5 -29t28.5 -70t-28.5 -68.5t-69.5 -27.5t-68.5 28.5t-27.5 67.5z" />
<glyph unicode="&#xc5;" horiz-adv-x="1357" d="M12 53l623 1379q12 23 35 22h20q23 0 35 -22l618 -1379q10 -20 -1 -36.5t-33 -16.5h-82q-27 0 -35 23l-152 337h-727l-149 -337q-8 -23 -35 -23h-82q-23 0 -34 16.5t-1 36.5zM371 487h614l-299 672h-16zM455 1775.5q0 94.5 64.5 159t158.5 64.5q92 0 157.5 -64.5 t65.5 -159t-65.5 -159t-157.5 -64.5q-94 0 -158.5 64.5t-64.5 159zM553 1775.5q0 -49.5 38 -87t87 -37.5t85 37.5t36 87t-36 85t-85 35.5t-87 -35.5t-38 -85z" />
<glyph unicode="&#xc6;" horiz-adv-x="1837" d="M-18 16.5q-7 16.5 6 36.5l821 1317q8 12 14 22.5t13.5 17.5t15.5 12t19.5 8.5t27.5 3.5h780q16 0 27.5 -11.5t11.5 -27.5v-60q0 -16 -11 -27.5t-28 -11.5h-700v-499h600q14 0 26.5 -11.5t12.5 -27.5v-60q0 -16 -11.5 -27.5t-27.5 -11.5h-600v-522h700q16 0 27.5 -11 t11.5 -28v-59q0 -16 -11 -27.5t-28 -11.5h-807q-16 0 -27 11.5t-11 27.5v321h-486l-213 -337q-18 -23 -39 -23h-84q-23 0 -30 16.5zM422 487h412v672z" />
<glyph unicode="&#xc7;" horiz-adv-x="1452" d="M106 715q0 307 216.5 523t523.5 216q272 0 495 -190q31 -31 2 -58l-55 -55q-23 -29 -53 2q-178 154 -391 154q-240 0 -406 -174.5t-166 -415.5q0 -240 166 -414t406 -174q84 0 158.5 23.5t119.5 51t113 79.5q27 20 49 6l62 -56q12 -10 11 -26.5t-14 -28.5 q-205 -199 -497 -198v-89q96 -12 155.5 -68t59.5 -142q0 -90 -62.5 -151.5t-152.5 -61.5q-94 0 -156 71q-29 33 0 53l29 23q29 20 47 0q35 -37 84 -37q41 0 65.5 26.5t24.5 69.5t-30.5 73t-61.5 39t-78 17q-35 6 -35 41v144q-270 39 -449.5 245t-179.5 482z" />
<glyph unicode="&#xc8;" horiz-adv-x="1212" d="M209 39v1356q0 16 11 27.5t28 11.5h807q16 0 27.5 -11.5t11.5 -27.5v-60q0 -16 -11.5 -27.5t-27.5 -11.5h-688v-499h587q16 0 27.5 -11.5t11.5 -27.5v-60q0 -16 -11 -27.5t-28 -11.5h-587v-522h688q16 0 27.5 -11t11.5 -28v-59q0 -16 -11.5 -27.5t-27.5 -11.5h-807 q-16 0 -27.5 11.5t-11.5 27.5zM465 1780l37 73q6 12 25.5 13.5t27.5 -6.5l307 -172q25 -12 12 -39l-20 -45q-10 -21 -47 -5l-330 138q-29 10 -12 43z" />
<glyph unicode="&#xc9;" horiz-adv-x="1212" d="M209 39v1356q0 16 11 27.5t28 11.5h807q16 0 27.5 -11.5t11.5 -27.5v-60q0 -16 -11.5 -27.5t-27.5 -11.5h-688v-499h587q16 0 27.5 -11.5t11.5 -27.5v-60q0 -16 -11 -27.5t-28 -11.5h-587v-522h688q16 0 27.5 -11t11.5 -28v-59q0 -16 -11.5 -27.5t-27.5 -11.5h-807 q-16 0 -27.5 11.5t-11.5 27.5zM465 1649q-12 27 12 39l307 172q8 8 27.5 7t26.5 -14l36 -73q16 -33 -12 -43l-330 -138q-37 -15 -47 5z" />
<glyph unicode="&#xca;" horiz-adv-x="1212" d="M209 39v1356q0 16 11 27.5t28 11.5h807q16 0 27.5 -11.5t11.5 -27.5v-60q0 -16 -11.5 -27.5t-27.5 -11.5h-688v-499h587q16 0 27.5 -11.5t11.5 -27.5v-60q0 -16 -11 -27.5t-28 -11.5h-587v-522h688q16 0 27.5 -11t11.5 -28v-59q0 -16 -11.5 -27.5t-27.5 -11.5h-807 q-16 0 -27.5 11.5t-11.5 27.5zM365 1624q-14 20 12 39l246 192q10 8 26.5 8.5t26.5 -8.5l246 -192q27 -18 12 -39q-8 -23 -28.5 -43t-47.5 -2l-209 143l-209 -139q-31 -21 -47 4z" />
<glyph unicode="&#xcb;" horiz-adv-x="1212" d="M209 39v1356q0 16 11 27.5t28 11.5h807q16 0 27.5 -11.5t11.5 -27.5v-60q0 -16 -11.5 -27.5t-27.5 -11.5h-688v-499h587q16 0 27.5 -11.5t11.5 -27.5v-60q0 -16 -11 -27.5t-28 -11.5h-587v-522h688q16 0 27.5 -11t11.5 -28v-59q0 -16 -11.5 -27.5t-27.5 -11.5h-807 q-16 0 -27.5 11.5t-11.5 27.5zM338 1718q0 41 27.5 70t68.5 29t69.5 -29t28.5 -70t-28.5 -68.5t-69.5 -27.5t-68.5 28.5t-27.5 67.5zM770 1718q0 41 27.5 70t68.5 29t70 -29t29 -70t-29 -68.5t-70 -27.5q-39 0 -67.5 28.5t-28.5 67.5z" />
<glyph unicode="&#xcc;" horiz-adv-x="577" d="M84 1780l37 73q6 12 25.5 13.5t27.5 -6.5l307 -172q25 -12 13 -39l-21 -45q-10 -21 -47 -5l-330 138q-29 10 -12 43zM209 39v1356q0 14 12 26.5t27 12.5h82q14 0 26.5 -12.5t12.5 -26.5v-1356q0 -14 -12.5 -26.5t-26.5 -12.5h-82q-14 0 -26.5 12.5t-12.5 26.5z" />
<glyph unicode="&#xcd;" horiz-adv-x="577" d="M84 1649q-12 27 12 39l307 172q8 8 28 7t26 -14l37 -73q16 -33 -13 -43l-329 -138q-38 -15 -48 5zM209 39v1356q0 14 12 26.5t27 12.5h82q14 0 26.5 -12.5t12.5 -26.5v-1356q0 -14 -12.5 -26.5t-26.5 -12.5h-82q-14 0 -26.5 12.5t-12.5 26.5z" />
<glyph unicode="&#xce;" horiz-adv-x="577" d="M4 1624q-14 20 12 39l246 192q10 8 26.5 8.5t26.5 -8.5l246 -192q27 -18 12 -39q-8 -23 -28.5 -43t-46.5 -2l-209 143l-209 -139q-31 -21 -47 4zM209 39v1356q0 14 12 26.5t27 12.5h82q14 0 26.5 -12.5t12.5 -26.5v-1356q0 -14 -12.5 -26.5t-26.5 -12.5h-82 q-14 0 -26.5 12.5t-12.5 26.5z" />
<glyph unicode="&#xcf;" horiz-adv-x="577" d="M-23 1718q0 41 28 70t69 29t69.5 -29t28.5 -70t-28.5 -68.5t-69.5 -27.5t-69 28.5t-28 67.5zM209 39v1356q0 14 12 26.5t27 12.5h82q14 0 26.5 -12.5t12.5 -26.5v-1356q0 -14 -12.5 -26.5t-26.5 -12.5h-82q-14 0 -26.5 12.5t-12.5 26.5zM410 1718q0 41 27.5 70t68.5 29 t69.5 -29t28.5 -70t-28.5 -68.5t-69.5 -27.5q-39 0 -67.5 28.5t-28.5 67.5z" />
<glyph unicode="&#xd0;" horiz-adv-x="1538" d="M121 702v15q0 16 11 27.5t26 11.5h59v639q0 16 11.5 27.5t25.5 11.5h459q297 0 508 -210t211 -505q0 -297 -211 -508t-508 -211h-459q-14 0 -25.5 11.5t-11.5 27.5v625h-59q-14 0 -25.5 11t-11.5 27zM373 141h307q252 0 416 163t164 415t-164 413.5t-416 161.5h-307v-538 h432q16 0 27.5 -11.5t11.5 -27.5v-17q0 -16 -11.5 -26t-27.5 -10h-432v-523z" />
<glyph unicode="&#xd1;" horiz-adv-x="1585" d="M209 39v1378q0 14 11 25.5t28 11.5h51l924 -1151h4v1092q0 16 11 27.5t28 11.5h71q14 0 26.5 -12.5t12.5 -26.5v-1379q0 -14 -11 -25t-28 -11h-37l-940 1173h-2v-1114q0 -16 -11 -27.5t-28 -11.5h-71q-14 0 -26.5 12.5t-12.5 26.5zM516 1692q14 23 26.5 60.5t56.5 74.5 t106 37q53 0 95 -38t73.5 -76t56.5 -38q61 0 92 105q10 33 47 16l33 -16q20 -10 8 -54q-57 -166 -182 -166q-49 0 -93 39t-77 77t-56 38q-25 0 -45 -18.5t-27 -36t-18 -47.5q-12 -41 -51 -21l-37 19q-23 12 -8 45z" />
<glyph unicode="&#xd2;" horiz-adv-x="1681" d="M104 715q0 307 214 523t521.5 216t522.5 -216t215 -523t-215 -521t-522.5 -214t-521.5 214t-214 521zM248 714.5q0 -243.5 174 -417.5t417.5 -174t419 174t175.5 417.5t-175.5 420t-419 176.5t-417.5 -176.5t-174 -420zM655 1780l37 73q6 12 25.5 13.5t27.5 -6.5 l308 -172q25 -12 12 -39l-21 -45q-10 -21 -47 -5l-329 138q-29 10 -13 43z" />
<glyph unicode="&#xd3;" horiz-adv-x="1681" d="M104 715q0 307 214 523t521.5 216t522.5 -216t215 -523t-215 -521t-522.5 -214t-521.5 214t-214 521zM248 714.5q0 -243.5 174 -417.5t417.5 -174t419 174t175.5 417.5t-175.5 420t-419 176.5t-417.5 -176.5t-174 -420zM655 1649q-12 27 13 39l307 172q8 8 27.5 7 t25.5 -14l37 -73q16 -33 -12 -43l-330 -138q-37 -15 -47 5z" />
<glyph unicode="&#xd4;" horiz-adv-x="1681" d="M104 715q0 307 214 523t521.5 216t522.5 -216t215 -523t-215 -521t-522.5 -214t-521.5 214t-214 521zM248 714.5q0 -243.5 174 -417.5t417.5 -174t419 174t175.5 417.5t-175.5 420t-419 176.5t-417.5 -176.5t-174 -420zM555 1624q-14 20 12 39l246 192q10 8 26.5 8.5 t26.5 -8.5l246 -192q27 -18 12 -39q-8 -23 -28.5 -43t-46.5 -2l-209 143l-209 -139q-31 -21 -47 4z" />
<glyph unicode="&#xd5;" horiz-adv-x="1681" d="M104 715q0 307 214 523t521.5 216t522.5 -216t215 -523t-215 -521t-522.5 -214t-521.5 214t-214 521zM248 714.5q0 -243.5 174 -417.5t417.5 -174t419 174t175.5 417.5t-175.5 420t-419 176.5t-417.5 -176.5t-174 -420zM539 1692q14 23 26.5 60.5t56.5 74.5t105 37 q53 0 95 -38t74 -76t56 -38q61 0 92 105q10 33 48 16l32 -16q20 -10 9 -54q-57 -166 -183 -166q-49 0 -93 39t-76.5 77t-55.5 38q-25 0 -45.5 -18.5t-27.5 -36t-17 -47.5q-12 -41 -51 -21l-37 19q-23 12 -8 45z" />
<glyph unicode="&#xd6;" horiz-adv-x="1681" d="M104 715q0 307 214 523t521.5 216t522.5 -216t215 -523t-215 -521t-522.5 -214t-521.5 214t-214 521zM248 714.5q0 -243.5 174 -417.5t417.5 -174t419 174t175.5 417.5t-175.5 420t-419 176.5t-417.5 -176.5t-174 -420zM528 1718q0 41 28 70t69 29t69.5 -29t28.5 -70 t-28.5 -68.5t-69.5 -27.5q-39 0 -68 28.5t-29 67.5zM961 1718q0 41 27.5 70t68.5 29t69.5 -29t28.5 -70t-28.5 -68.5t-69.5 -27.5t-68.5 28.5t-27.5 67.5z" />
<glyph unicode="&#xd7;" horiz-adv-x="985" d="M170 430q-27 27 0 53l227 228l-227 227q-27 29 0 55l39 41q29 27 55 0l228 -227l229 229q25 25 53 -2l41 -41q10 -10 11 -26.5t-9 -26.5l-229 -229l229 -228q25 -29 -2 -55l-41 -39q-29 -29 -53 -2l-229 229l-228 -227q-26 -27 -53 0z" />
<glyph unicode="&#xd8;" horiz-adv-x="1681" d="M104 715q0 307 214 523t522 216q279 0 491 -186l129 129q27 27 53 0l11 -11q27 -27 0 -53l-129 -129q182 -213 182 -489q0 -307 -215 -521t-522 -214q-281 0 -488 180l-125 -125q-10 -10 -26.5 -9t-26.5 11l-8 8q-27 29 -2 53l125 125q-184 211 -185 492zM248 715 q0 -219 145 -387l836 837q-168 145 -389 146q-244 0 -418 -176.5t-174 -419.5zM457 264q164 -141 383 -141q244 0 419 174t175 418q0 221 -144 385z" />
<glyph unicode="&#xd9;" horiz-adv-x="1466" d="M190 528v867q0 14 11.5 26.5t27.5 12.5h78q16 0 27.5 -11.5t11.5 -27.5v-854q0 -180 104.5 -298t280.5 -118q178 0 283.5 116.5t105.5 295.5v858q0 16 11.5 27.5t27.5 11.5h78q16 0 27.5 -12.5t11.5 -26.5v-867q0 -236 -152.5 -392t-392.5 -156q-238 0 -389.5 156 t-151.5 392zM524 1780l37 73q6 12 25.5 13.5t27.5 -6.5l308 -172q25 -12 12 -39l-21 -45q-10 -21 -47 -5l-329 138q-29 10 -13 43z" />
<glyph unicode="&#xda;" horiz-adv-x="1466" d="M190 528v867q0 14 11.5 26.5t27.5 12.5h78q16 0 27.5 -11.5t11.5 -27.5v-854q0 -180 104.5 -298t280.5 -118q178 0 283.5 116.5t105.5 295.5v858q0 16 11.5 27.5t27.5 11.5h78q16 0 27.5 -12.5t11.5 -26.5v-867q0 -236 -152.5 -392t-392.5 -156q-238 0 -389.5 156 t-151.5 392zM524 1649q-12 27 13 39l307 172q8 8 27.5 7t25.5 -14l37 -73q16 -33 -12 -43l-330 -138q-37 -15 -47 5z" />
<glyph unicode="&#xdb;" horiz-adv-x="1466" d="M190 528v867q0 14 11.5 26.5t27.5 12.5h78q16 0 27.5 -11.5t11.5 -27.5v-854q0 -180 104.5 -298t280.5 -118q178 0 283.5 116.5t105.5 295.5v858q0 16 11.5 27.5t27.5 11.5h78q16 0 27.5 -12.5t11.5 -26.5v-867q0 -236 -152.5 -392t-392.5 -156q-238 0 -389.5 156 t-151.5 392zM438 1624q-14 20 13 39l245 192q10 8 26.5 8.5t27.5 -8.5l245 -192q27 -18 13 -39q-8 -23 -29 -43t-47 -2l-209 143l-209 -139q-31 -21 -47 4z" />
<glyph unicode="&#xdc;" horiz-adv-x="1466" d="M190 528v867q0 14 11.5 26.5t27.5 12.5h78q16 0 27.5 -11.5t11.5 -27.5v-854q0 -180 104.5 -298t280.5 -118q178 0 283.5 116.5t105.5 295.5v858q0 16 11.5 27.5t27.5 11.5h78q16 0 27.5 -12.5t11.5 -26.5v-867q0 -236 -152.5 -392t-392.5 -156q-238 0 -389.5 156 t-151.5 392zM418 1718q0 41 27.5 70t68.5 29t69.5 -29t28.5 -70t-28.5 -68.5t-69.5 -27.5q-39 0 -67.5 28.5t-28.5 67.5zM850 1718q0 41 27.5 70t68.5 29t69.5 -29t28.5 -70t-28.5 -68.5t-69.5 -27.5t-68.5 28.5t-27.5 67.5z" />
<glyph unicode="&#xdd;" horiz-adv-x="1157" d="M2 1414q10 20 35 20h96q18 0 33 -19l414 -571l413 571q14 18 33 19h96q25 0 35 -19.5t-2 -40.5l-500 -682v-653q0 -14 -12 -26.5t-27 -12.5h-79q-16 0 -27.5 11.5t-11.5 27.5v651l-494 684q-12 20 -2 40zM375 1649q-12 27 12 39l307 172q8 8 27.5 7t26.5 -14l36 -73 q16 -33 -12 -43l-330 -138q-37 -15 -47 5z" />
<glyph unicode="&#xde;" horiz-adv-x="1222" d="M209 39v1354q0 16 11 28.5t28 12.5h78q14 0 26.5 -12.5t12.5 -26.5v-219h335q188 2 323.5 -132.5t135.5 -320.5q0 -190 -134 -325.5t-323 -135.5h-337v-223q0 -14 -12.5 -26.5t-26.5 -12.5h-78q-16 0 -27.5 11.5t-11.5 27.5zM365 414h325q127 0 219 91t92 222 q0 123 -92 208t-219 85h-325v-606z" />
<glyph unicode="&#xdf;" horiz-adv-x="1107" d="M147 39v803q0 303 110 457.5t321 154.5q145 0 244.5 -77t99.5 -232q0 -68 -29 -136.5t-62.5 -115.5t-62.5 -95t-29 -77q0 -27 47.5 -71t102.5 -90t102 -124t47 -164q0 -145 -97 -218.5t-239 -73.5q-121 0 -198 38q-39 18 -31 48l16 61q10 43 43 25q84 -47 170 -47.5 t136.5 47t50.5 122.5q0 49 -32 98.5t-78 90.5t-91 81t-76.5 84t-31.5 87q0 63 98 212.5t98 211.5q0 88 -61.5 138t-141.5 50q-283 0 -282 -487v-801q0 -14 -12.5 -26.5t-26.5 -12.5h-66q-14 0 -26.5 12.5t-12.5 26.5z" />
<glyph unicode="&#xe0;" horiz-adv-x="858" d="M86 248q0 121 87 196.5t241 75.5q55 0 114 -12l60 -14q2 123 -23.5 172t-109.5 49q-129 0 -246 -45q-29 -12 -39 20l-16 51q-10 31 22 45q12 6 44 16.5t101.5 24t139.5 13.5q152 0 206 -79t54 -267v-455q0 -14 -12.5 -26.5t-26.5 -12.5h-39q-25 0 -35 31l-16 55 q-106 -106 -254 -106q-109 0 -180.5 73.5t-71.5 194.5zM217 248q0 -63 39 -104.5t104 -41.5q72 0 133.5 36t92.5 79v162q-55 33 -172 33q-88 0 -142.5 -43t-54.5 -121zM250 1325l37 74q6 12 25.5 13t27.5 -7l307 -172q25 -12 12 -39l-20 -45q-10 -20 -47 -4l-330 137 q-29 10 -12 43z" />
<glyph unicode="&#xe1;" horiz-adv-x="858" d="M86 248q0 121 87 196.5t241 75.5q55 0 114 -12l60 -14q2 123 -23.5 172t-109.5 49q-129 0 -246 -45q-29 -12 -39 20l-16 51q-10 31 22 45q12 6 44 16.5t101.5 24t139.5 13.5q152 0 206 -79t54 -267v-455q0 -14 -12.5 -26.5t-26.5 -12.5h-39q-25 0 -35 31l-16 55 q-106 -106 -254 -106q-109 0 -180.5 73.5t-71.5 194.5zM217 248q0 -63 39 -104.5t104 -41.5q72 0 133.5 36t92.5 79v162q-55 33 -172 33q-88 0 -142.5 -43t-54.5 -121zM233 1194q-12 27 13 39l307 172q8 8 27.5 7t25.5 -13l37 -74q16 -33 -12 -43l-330 -137q-37 -16 -47 4z " />
<glyph unicode="&#xe2;" horiz-adv-x="858" d="M86 248q0 121 87 196.5t241 75.5q55 0 114 -12l60 -14q2 123 -23.5 172t-109.5 49q-129 0 -246 -45q-29 -12 -39 20l-16 51q-10 31 22 45q12 6 44 16.5t101.5 24t139.5 13.5q152 0 206 -79t54 -267v-455q0 -14 -12.5 -26.5t-26.5 -12.5h-39q-25 0 -35 31l-16 55 q-106 -106 -254 -106q-109 0 -180.5 73.5t-71.5 194.5zM137 1174q-14 20 13 38l245 193q10 8 26.5 8t27.5 -8l245 -193q27 -18 13 -38q-8 -23 -29 -43.5t-47 -2.5l-209 144l-209 -139q-31 -21 -47 4zM217 248q0 -63 39 -104.5t104 -41.5q72 0 133.5 36t92.5 79v162 q-55 33 -172 33q-88 0 -142.5 -43t-54.5 -121z" />
<glyph unicode="&#xe3;" horiz-adv-x="858" d="M86 248q0 121 87 196.5t241 75.5q55 0 114 -12l60 -14q2 123 -23.5 172t-109.5 49q-129 0 -246 -45q-29 -12 -39 20l-16 51q-10 31 22 45q12 6 44 16.5t101.5 24t139.5 13.5q152 0 206 -79t54 -267v-455q0 -14 -12.5 -26.5t-26.5 -12.5h-39q-25 0 -35 31l-16 55 q-106 -106 -254 -106q-109 0 -180.5 73.5t-71.5 194.5zM123 1241q14 23 26.5 60.5t56.5 74.5t105 37q53 0 95.5 -38t74 -75.5t56.5 -37.5q61 0 92 104q10 33 47 16l33 -16q20 -10 8 -53q-57 -166 -182 -166q-49 0 -93.5 39t-77 76.5t-55.5 37.5q-25 0 -45 -18t-27.5 -35.5 t-17.5 -48.5q-12 -40 -51 -20l-37 18q-23 12 -8 45zM217 248q0 -63 39 -104.5t104 -41.5q72 0 133.5 36t92.5 79v162q-55 33 -172 33q-88 0 -142.5 -43t-54.5 -121z" />
<glyph unicode="&#xe4;" horiz-adv-x="858" d="M86 248q0 121 87 196.5t241 75.5q55 0 114 -12l60 -14q2 123 -23.5 172t-109.5 49q-129 0 -246 -45q-29 -12 -39 20l-16 51q-10 31 22 45q12 6 44 16.5t101.5 24t139.5 13.5q152 0 206 -79t54 -267v-455q0 -14 -12.5 -26.5t-26.5 -12.5h-39q-25 0 -35 31l-16 55 q-106 -106 -254 -106q-109 0 -180.5 73.5t-71.5 194.5zM154 1294q0 41 27.5 70t68.5 29t69.5 -29t28.5 -70t-28.5 -68.5t-69.5 -27.5t-68.5 27.5t-27.5 68.5zM217 248q0 -63 39 -104.5t104 -41.5q72 0 133.5 36t92.5 79v162q-55 33 -172 33q-88 0 -142.5 -43t-54.5 -121z M549 1294q0 41 27.5 70t68.5 29t69.5 -29t28.5 -70t-28.5 -68.5t-69.5 -27.5q-39 0 -67.5 27.5t-28.5 68.5z" />
<glyph unicode="&#xe5;" horiz-adv-x="858" d="M86 248q0 121 87 196.5t241 75.5q55 0 114 -12l60 -14q2 123 -23.5 172t-109.5 49q-129 0 -246 -45q-29 -12 -39 20l-16 51q-10 31 22 45q12 6 44 16.5t101.5 24t139.5 13.5q152 0 206 -79t54 -267v-455q0 -14 -12.5 -26.5t-26.5 -12.5h-39q-25 0 -35 31l-16 55 q-106 -106 -254 -106q-109 0 -180.5 73.5t-71.5 194.5zM201 1231q0 94 64.5 158.5t158.5 64.5q92 0 157.5 -64.5t65.5 -158.5t-65.5 -158.5t-157.5 -64.5q-94 0 -158.5 64.5t-64.5 158.5zM217 248q0 -63 39 -104.5t104 -41.5q72 0 133.5 36t92.5 79v162q-55 33 -172 33 q-88 0 -142.5 -43t-54.5 -121zM299 1231q0 -49 38 -87t87 -38t85 38t36 87t-36 85t-85 36t-87 -36t-38 -85z" />
<glyph unicode="&#xe6;" horiz-adv-x="1413" d="M88 254q0 117 81 190.5t222 73.5q68 0 127 -6l60 -6q2 123 -19.5 168t-95.5 45q-113 0 -260 -49q-35 -10 -43 28l-10 52q-6 31 32 41l97 24q94 25 190 25q176 0 223 -113q117 113 275 113q156 0 262 -104.5t106 -270.5q0 -90 -41 -90h-573v-125q37 -63 105.5 -100 t152.5 -37q109 0 203 57q27 14 33 16t24 -12l35 -47q12 -16 12 -26.5t-20 -26.5q-125 -94 -301 -94q-201 0 -310 145q-45 -59 -125.5 -102t-173.5 -43q-121 0 -194.5 74.5t-73.5 199.5zM217 250q0 -74 48 -111t118 -37q61 0 115.5 31t83.5 74v182l-50 8q-51 10 -120 11 q-82 0 -138.5 -42t-56.5 -116zM725 492h471q-4 94 -70.5 157.5t-160.5 63.5q-74 0 -140.5 -39t-99.5 -99v-83z" />
<glyph unicode="&#xe7;" horiz-adv-x="907" d="M86 408q0 178 126 305t296 127q180 0 293 -144q25 -33 -8 -57l-39 -33q-14 -12 -24.5 -13t-17.5 6t-18 15q-76 86 -188 86q-115 0 -194 -84t-79 -206.5t78 -208.5t193 -86q43 0 78.5 10t58.5 25.5t44.5 35t35.5 35.5q29 29 61 4l23 -16q35 -25 14 -57q-96 -156 -282 -170 v-91q96 -12 155.5 -68t59.5 -142q0 -90 -62.5 -151.5t-152.5 -61.5q-94 0 -156 71q-29 33 0 53l29 23q29 20 47 0q35 -37 84 -37q41 0 65.5 26.5t24.5 69.5t-31 73t-61.5 39t-77.5 17q-35 6 -35 41v144q-145 27 -242.5 143.5t-97.5 276.5z" />
<glyph unicode="&#xe8;" horiz-adv-x="935" d="M86 410q0 180 110.5 305t290.5 125q162 0 266.5 -106.5t104.5 -268.5q0 -27 -4 -55q-4 -35 -37 -35h-590q6 -104 87 -185t188 -81q102 0 203 61q27 14 32.5 16t24.5 -12l35 -47q12 -16 12 -26.5t-21 -26.5q-119 -94 -301 -94q-180 0 -290.5 124t-110.5 306zM229 489h488 q-4 90 -70.5 158t-159.5 68q-102 0 -175 -65t-83 -161zM281 1325l36 74q6 12 25.5 13t28.5 -7l307 -172q25 -12 12 -39l-20 -45q-10 -20 -47 -4l-330 137q-29 10 -12 43z" />
<glyph unicode="&#xe9;" horiz-adv-x="935" d="M86 410q0 180 110.5 305t290.5 125q162 0 266.5 -106.5t104.5 -268.5q0 -27 -4 -55q-4 -35 -37 -35h-590q6 -104 87 -185t188 -81q102 0 203 61q27 14 32.5 16t24.5 -12l35 -47q12 -16 12 -26.5t-21 -26.5q-119 -94 -301 -94q-180 0 -290.5 124t-110.5 306zM229 489h488 q-4 90 -70.5 158t-159.5 68q-102 0 -175 -65t-83 -161zM274 1194q-12 27 13 39l307 172q8 8 27.5 7t25.5 -13l37 -74q16 -33 -12 -43l-330 -137q-37 -16 -47 4z" />
<glyph unicode="&#xea;" horiz-adv-x="935" d="M86 410q0 180 110.5 305t290.5 125q162 0 266.5 -106.5t104.5 -268.5q0 -27 -4 -55q-4 -35 -37 -35h-590q6 -104 87 -185t188 -81q102 0 203 61q27 14 32.5 16t24.5 -12l35 -47q12 -16 12 -26.5t-21 -26.5q-119 -94 -301 -94q-180 0 -290.5 124t-110.5 306zM207 1174 q-14 20 12 38l246 193q10 8 26.5 8t26.5 -8l246 -193q27 -18 12 -38q-8 -23 -28.5 -43.5t-47.5 -2.5l-208 144l-209 -139q-31 -21 -47 4zM229 489h488q-4 90 -70.5 158t-159.5 68q-102 0 -175 -65t-83 -161z" />
<glyph unicode="&#xeb;" horiz-adv-x="935" d="M86 410q0 180 110.5 305t290.5 125q162 0 266.5 -106.5t104.5 -268.5q0 -27 -4 -55q-4 -35 -37 -35h-590q6 -104 87 -185t188 -81q102 0 203 61q27 14 32.5 16t24.5 -12l35 -47q12 -16 12 -26.5t-21 -26.5q-119 -94 -301 -94q-180 0 -290.5 124t-110.5 306zM190 1294 q0 41 28 70t69 29t69.5 -29t28.5 -70t-28.5 -68.5t-69.5 -27.5t-69 27.5t-28 68.5zM229 489h488q-4 90 -70.5 158t-159.5 68q-102 0 -175 -65t-83 -161zM586 1294q0 41 27.5 70t68.5 29t69.5 -29t28.5 -70t-28.5 -68.5t-69.5 -27.5q-39 0 -67.5 27.5t-28.5 68.5z" />
<glyph unicode="&#xec;" horiz-adv-x="432" d="M12 1325l37 74q6 12 25.5 13t27.5 -7l308 -172q25 -12 12 -39l-21 -45q-10 -20 -47 -4l-329 137q-29 10 -13 43zM145 39v741q0 14 11.5 26.5t27.5 12.5h64q14 0 26.5 -12t12.5 -27v-741q0 -14 -12.5 -26.5t-26.5 -12.5h-64q-16 0 -27.5 12.5t-11.5 26.5z" />
<glyph unicode="&#xed;" horiz-adv-x="432" d="M12 1194q-12 27 13 39l307 172q8 8 27.5 7t25.5 -13l37 -74q16 -33 -12 -43l-330 -137q-37 -16 -47 4zM145 39v741q0 14 11.5 26.5t27.5 12.5h64q14 0 26.5 -12t12.5 -27v-741q0 -14 -12.5 -26.5t-26.5 -12.5h-64q-16 0 -27.5 12.5t-11.5 26.5z" />
<glyph unicode="&#xee;" horiz-adv-x="432" d="M-66 1174q-14 20 13 38l246 193q10 8 26.5 8t26.5 -8l246 -193q27 -18 12 -38q-8 -23 -28.5 -43.5t-47.5 -2.5l-209 144l-209 -139q-31 -21 -47 4zM145 39v741q0 14 11.5 26.5t27.5 12.5h64q14 0 26.5 -12t12.5 -27v-741q0 -14 -12.5 -26.5t-26.5 -12.5h-64 q-16 0 -27.5 12.5t-11.5 26.5z" />
<glyph unicode="&#xef;" horiz-adv-x="432" d="M-78 1294q0 41 27.5 70t68.5 29t70 -29t29 -70t-29 -68.5t-70 -27.5q-39 0 -67.5 27.5t-28.5 68.5zM145 39v741q0 14 11.5 26.5t27.5 12.5h64q14 0 26.5 -12t12.5 -27v-741q0 -14 -12.5 -26.5t-26.5 -12.5h-64q-16 0 -27.5 12.5t-11.5 26.5zM317 1294q0 41 28 70t69 29 t69.5 -29t28.5 -70t-28.5 -68.5t-69.5 -27.5t-69 27.5t-28 68.5z" />
<glyph unicode="&#xf0;" horiz-adv-x="1114" d="M84 449q0 199 130 321.5t310 122.5q78 0 156 -22.5t117 -47.5l39 -22q-49 184 -263 352l-198 -115q-14 -8 -29.5 -3t-21.5 18l-9 14q-20 33 13 51l164 94q-117 74 -203 109q-35 14 -17 49l27 55q10 25 41 15q150 -57 283 -152l143 82q35 20 53 -14l8 -15q18 -29 -14 -51 l-111 -63q311 -272 312 -664q0 -260 -120 -421.5t-357 -161.5q-197 0 -325 136t-128 333zM229 440q0 -133 89.5 -229t218.5 -96q100 0 173.5 51t106.5 128t48.5 166t-3.5 167l-39 32q-39 33 -119.5 67t-164.5 34q-129 0 -219.5 -93.5t-90.5 -226.5z" />
<glyph unicode="&#xf1;" horiz-adv-x="1013" d="M145 39v741q0 14 11.5 26.5t27.5 12.5h39q27 0 33 -24l18 -64l33 27q35 29 106.5 55.5t147.5 26.5q317 0 318 -369v-432q0 -14 -11.5 -26.5t-27.5 -12.5h-66q-16 0 -27.5 12.5t-11.5 26.5v432q0 115 -48 173t-136 58q-68 0 -134.5 -29.5t-97.5 -58.5l-32 -28v-547 q0 -14 -12.5 -26.5t-26.5 -12.5h-64q-16 0 -27.5 12.5t-11.5 26.5zM215 1241q14 23 26.5 60.5t56.5 74.5t105 37q53 0 95.5 -38t74 -75.5t56.5 -37.5q61 0 92 104q10 33 47 16l33 -16q20 -10 8 -53q-57 -166 -182 -166q-49 0 -93.5 39t-77 76.5t-55.5 37.5q-25 0 -45 -18 t-27 -35.5t-18 -48.5q-12 -40 -51 -20l-37 18q-23 12 -8 45z" />
<glyph unicode="&#xf2;" d="M86 412q0 174 119 301t289 127t288.5 -127t118.5 -301q0 -178 -118.5 -305t-288.5 -127t-289 127t-119 305zM227 412q0 -125 77 -212t189.5 -87t189.5 87t77 212q0 121 -77 207t-189.5 86t-189.5 -86t-77 -207zM289 1325l37 74q6 12 25.5 13t27.5 -7l307 -172 q25 -12 12 -39l-20 -45q-10 -20 -47 -4l-330 137q-29 10 -12 43z" />
<glyph unicode="&#xf3;" d="M86 412q0 174 119 301t289 127t288.5 -127t118.5 -301q0 -178 -118.5 -305t-288.5 -127t-289 127t-119 305zM227 412q0 -125 77 -212t189.5 -87t189.5 87t77 212q0 121 -77 207t-189.5 86t-189.5 -86t-77 -207zM289 1194q-12 27 12 39l307 172q8 8 27.5 7t26.5 -13 l36 -74q16 -33 -12 -43l-330 -137q-37 -16 -47 4z" />
<glyph unicode="&#xf4;" d="M86 412q0 174 119 301t289 127t288.5 -127t118.5 -301q0 -178 -118.5 -305t-288.5 -127t-289 127t-119 305zM209 1174q-14 20 12 38l246 193q10 8 26.5 8t26.5 -8l246 -193q27 -18 12 -38q-8 -23 -28.5 -43.5t-47.5 -2.5l-208 144l-209 -139q-31 -21 -47 4zM227 412 q0 -125 77 -212t189.5 -87t189.5 87t77 212q0 121 -77 207t-189.5 86t-189.5 -86t-77 -207z" />
<glyph unicode="&#xf5;" d="M86 412q0 174 119 301t289 127t288.5 -127t118.5 -301q0 -178 -118.5 -305t-288.5 -127t-289 127t-119 305zM195 1241q14 23 26 60.5t56.5 74.5t105.5 37q53 0 95 -38t74 -75.5t56 -37.5q61 0 92 104q10 33 48 16l32 -16q20 -10 8 -53q-57 -166 -182 -166q-49 0 -93 39 t-77 76.5t-55 37.5q-25 0 -45.5 -18t-27.5 -35.5t-17 -48.5q-12 -40 -51 -20l-37 18q-23 12 -8 45zM227 412q0 -125 77 -212t189.5 -87t189.5 87t77 212q0 121 -77 207t-189.5 86t-189.5 -86t-77 -207z" />
<glyph unicode="&#xf6;" d="M86 412q0 174 119 301t289 127t288.5 -127t118.5 -301q0 -178 -118.5 -305t-288.5 -127t-289 127t-119 305zM197 1294q0 41 27.5 70t68.5 29t69.5 -29t28.5 -70t-28.5 -68.5t-69.5 -27.5q-39 0 -67.5 27.5t-28.5 68.5zM227 412q0 -125 77 -212t189.5 -87t189.5 87t77 212 q0 121 -77 207t-189.5 86t-189.5 -86t-77 -207zM592 1294q0 41 27.5 70t68.5 29t69.5 -29t28.5 -70t-28.5 -68.5t-69.5 -27.5t-68.5 27.5t-27.5 68.5z" />
<glyph unicode="&#xf7;" horiz-adv-x="1101" d="M123 682v57q0 14 12 26.5t27 12.5h780q14 0 25.5 -11t11.5 -28v-57q0 -16 -11.5 -27.5t-25.5 -11.5h-780q-14 0 -26.5 12.5t-12.5 26.5zM428 350q0 49 35 83t82 34q49 0 83 -34t34 -83q0 -47 -34 -82t-83 -35q-47 0 -82 35t-35 82zM428 1083q0 49 35 83t82 34 q49 0 83 -33.5t34 -83.5q0 -47 -34 -81.5t-83 -34.5q-47 0 -82 34.5t-35 81.5z" />
<glyph unicode="&#xf8;" horiz-adv-x="983" d="M88 414q0 174 118 300t288 126q150 0 262 -103l43 43q29 29 55 0l10 -10q12 -10 12.5 -26.5t-12.5 -26.5l-47 -47q82 -115 82 -256q0 -178 -117.5 -306t-287.5 -128q-152 0 -263 98l-28 -29q-25 -27 -56 0l-8 10q-29 27 -2 54l33 32q-82 119 -82 269zM229 414 q0 -96 41 -168l389 395q-70 63 -165 64q-113 0 -189 -85t-76 -206zM328 174q72 -61 166 -61q111 0 187.5 88t76.5 213q0 86 -41 155z" />
<glyph unicode="&#xf9;" horiz-adv-x="993" d="M135 350v430q0 14 12.5 26.5t26.5 12.5h66q14 0 26.5 -12t12.5 -27v-432q0 -115 48 -173t136 -58q70 0 130 29.5t87 58.5l27 28v547q0 14 11 26.5t27 12.5h64q14 0 26.5 -12t12.5 -27v-741q0 -14 -12.5 -26.5t-26.5 -12.5h-39q-27 0 -37 35l-14 53l-29 -27 q-29 -29 -95.5 -55t-141.5 -26q-318 -1 -318 370zM303 1325l37 74q6 12 25.5 13t27.5 -7l307 -172q25 -12 13 -39l-21 -45q-10 -20 -47 -4l-330 137q-29 10 -12 43z" />
<glyph unicode="&#xfa;" horiz-adv-x="993" d="M135 350v430q0 14 12.5 26.5t26.5 12.5h66q14 0 26.5 -12t12.5 -27v-432q0 -115 48 -173t136 -58q70 0 130 29.5t87 58.5l27 28v547q0 14 11 26.5t27 12.5h64q14 0 26.5 -12t12.5 -27v-741q0 -14 -12.5 -26.5t-26.5 -12.5h-39q-27 0 -37 35l-14 53l-29 -27 q-29 -29 -95.5 -55t-141.5 -26q-318 -1 -318 370zM301 1194q-12 27 12 39l308 172q8 8 27.5 7t25.5 -13l37 -74q16 -33 -13 -43l-329 -137q-37 -16 -47 4z" />
<glyph unicode="&#xfb;" horiz-adv-x="993" d="M135 350v430q0 14 12.5 26.5t26.5 12.5h66q14 0 26.5 -12t12.5 -27v-432q0 -115 48 -173t136 -58q70 0 130 29.5t87 58.5l27 28v547q0 14 11 26.5t27 12.5h64q14 0 26.5 -12t12.5 -27v-741q0 -14 -12.5 -26.5t-26.5 -12.5h-39q-27 0 -37 35l-14 53l-29 -27 q-29 -29 -95.5 -55t-141.5 -26q-318 -1 -318 370zM219 1174q-14 20 12 38l246 193q10 8 26.5 8t26.5 -8l246 -193q27 -18 12 -38q-8 -23 -28.5 -43.5t-46.5 -2.5l-209 144l-209 -139q-31 -21 -47 4z" />
<glyph unicode="&#xfc;" horiz-adv-x="993" d="M135 350v430q0 14 12.5 26.5t26.5 12.5h66q14 0 26.5 -12t12.5 -27v-432q0 -115 48 -173t136 -58q70 0 130 29.5t87 58.5l27 28v547q0 14 11 26.5t27 12.5h64q14 0 26.5 -12t12.5 -27v-741q0 -14 -12.5 -26.5t-26.5 -12.5h-39q-27 0 -37 35l-14 53l-29 -27 q-29 -29 -95.5 -55t-141.5 -26q-318 -1 -318 370zM203 1294q0 41 27.5 70t68.5 29t69.5 -29t28.5 -70t-28.5 -68.5t-69.5 -27.5t-68.5 27.5t-27.5 68.5zM598 1294q0 41 27.5 70t68.5 29t70 -29t29 -70t-29 -68.5t-70 -27.5q-39 0 -67.5 27.5t-28.5 68.5z" />
<glyph unicode="&#xfd;" horiz-adv-x="954" d="M28 806.5q9 12.5 31 12.5h91q23 0 34 -22l303 -627h2l287 627q10 23 35 22h78q23 0 32 -13t-1 -34l-629 -1362q-12 -25 -35 -24h-76q-23 0 -33 14t0 37l263 565l-381 772q-10 20 -1 32.5zM283 1194q-12 27 12 39l307 172q8 8 27.5 7t25.5 -13l37 -74q16 -33 -12 -43 l-330 -137q-37 -16 -47 4z" />
<glyph unicode="&#xfe;" d="M147 -575v1970q0 14 12.5 26.5t26.5 12.5h64q16 0 27.5 -12.5t11.5 -26.5v-633l22 20q25 18 81.5 38t121.5 20q172 0 279.5 -125t107.5 -307q0 -180 -112.5 -304t-280.5 -124q-59 0 -114.5 16t-80.5 33l-24 18v-622q0 -14 -11.5 -26.5t-27.5 -12.5h-64q-14 0 -26.5 12 t-12.5 27zM291 188l24 -18q25 -18 75 -35.5t99 -17.5q117 0 193 84t76 209q0 129 -66.5 215t-191.5 86q-59 0 -111.5 -26t-75.5 -50l-22 -25v-422z" />
<glyph unicode="&#xff;" horiz-adv-x="954" d="M28 806.5q9 12.5 31 12.5h91q23 0 34 -22l303 -627h2l287 627q10 23 35 22h78q23 0 32 -13t-1 -34l-629 -1362q-12 -25 -35 -24h-76q-23 0 -33 14t0 37l263 565l-381 772q-10 20 -1 32.5zM193 1294q0 41 27.5 70t68.5 29t69.5 -29t28.5 -70t-28.5 -68.5t-69.5 -27.5 q-39 0 -67.5 27.5t-28.5 68.5zM588 1294q0 41 27.5 70t68.5 29t69.5 -29t28.5 -70t-28.5 -68.5t-69.5 -27.5t-68.5 27.5t-27.5 68.5z" />
<glyph unicode="&#x152;" horiz-adv-x="1980" d="M104 715q0 307 214 523t522 216q57 0 116 -10l60 -10h807q16 0 27.5 -11.5t11.5 -27.5v-60q0 -16 -11.5 -27.5t-27.5 -11.5h-688v-499h587q14 0 26.5 -11.5t12.5 -27.5v-60q0 -16 -11 -27.5t-28 -11.5h-587v-522h688q16 0 27.5 -11t11.5 -28v-59q0 -16 -11.5 -27.5 t-27.5 -11.5h-807l-60 -10q-59 -10 -116 -10q-307 0 -521.5 214t-214.5 521zM248 714.5q0 -243.5 174 -417.5t418 -174q74 0 137 14v1155q-72 16 -137 17q-244 0 -418 -175.5t-174 -419z" />
<glyph unicode="&#x153;" horiz-adv-x="1595" d="M84 414q0 174 117.5 300t287.5 126q205 0 328 -176q117 176 330 176q158 0 264.5 -104.5t106.5 -270.5q0 -27 -5 -55q-4 -35 -36 -35h-586q14 -106 93 -185t177 -79q104 0 203 59q27 14 33 16t24 -12l35 -47q12 -16 12 -26.5t-20 -26.5q-119 -94 -301 -94 q-211 0 -330 176q-123 -176 -328 -176q-170 0 -287.5 128t-117.5 306zM225 414q0 -125 77 -213t187.5 -88t187.5 88t77 213q0 121 -76 206t-188.5 85t-188.5 -85t-76 -206zM893 487h485q-4 94 -70.5 158t-160.5 64q-102 0 -173 -63t-81 -159z" />
<glyph unicode="&#x178;" horiz-adv-x="1157" d="M2 1414q10 20 35 20h96q18 0 33 -19l414 -571l413 571q14 18 33 19h96q25 0 35 -19.5t-2 -40.5l-500 -682v-653q0 -14 -12 -26.5t-27 -12.5h-79q-16 0 -27.5 11.5t-11.5 27.5v651l-494 684q-12 20 -2 40zM266 1718q0 41 28 70t68.5 29t69.5 -29t29 -70t-29 -68.5 t-70 -27.5q-39 0 -67.5 28.5t-28.5 67.5zM698 1718q0 41 28 70t69 29t69.5 -29t28.5 -70t-28.5 -68.5t-69.5 -27.5t-69 28.5t-28 67.5z" />
<glyph unicode="&#x2c6;" horiz-adv-x="763" d="M94 1174q-14 20 12 38l246 193q10 8 26.5 8t27.5 -8l245 -193q27 -18 13 -38q-8 -23 -29 -43.5t-47 -2.5l-209 144l-209 -139q-31 -21 -47 4z" />
<glyph unicode="&#x2dc;" horiz-adv-x="778" d="M86 1241q14 23 26.5 60.5t56.5 74.5t105 37q53 0 95.5 -38t74 -75.5t56.5 -37.5q61 0 92 104q10 33 47 16l33 -16q20 -10 8 -53q-57 -166 -182 -166q-49 0 -93.5 39t-77 76.5t-55.5 37.5q-25 0 -45 -18t-27 -35.5t-18 -48.5q-12 -40 -51 -20l-37 18q-23 12 -8 45z" />
<glyph unicode="&#x2000;" horiz-adv-x="999" />
<glyph unicode="&#x2001;" horiz-adv-x="1999" />
<glyph unicode="&#x2002;" horiz-adv-x="999" />
<glyph unicode="&#x2003;" horiz-adv-x="1999" />
<glyph unicode="&#x2004;" horiz-adv-x="666" />
<glyph unicode="&#x2005;" horiz-adv-x="499" />
<glyph unicode="&#x2006;" horiz-adv-x="333" />
<glyph unicode="&#x2007;" horiz-adv-x="333" />
<glyph unicode="&#x2008;" horiz-adv-x="249" />
<glyph unicode="&#x2009;" horiz-adv-x="399" />
<glyph unicode="&#x200a;" horiz-adv-x="111" />
<glyph unicode="&#x2010;" horiz-adv-x="845" d="M170 487v39q0 39 39 39h428q39 0 39 -39v-39q0 -16 -11.5 -26t-27.5 -10h-428q-16 0 -27.5 10t-11.5 26z" />
<glyph unicode="&#x2011;" horiz-adv-x="845" d="M170 487v39q0 39 39 39h428q39 0 39 -39v-39q0 -16 -11.5 -26t-27.5 -10h-428q-16 0 -27.5 10t-11.5 26z" />
<glyph unicode="&#x2012;" horiz-adv-x="845" d="M170 487v39q0 39 39 39h428q39 0 39 -39v-39q0 -16 -11.5 -26t-27.5 -10h-428q-16 0 -27.5 10t-11.5 26z" />
<glyph unicode="&#x2013;" horiz-adv-x="1181" d="M174 494v22q0 39 39 39h756q39 0 39 -39v-22q0 -16 -11.5 -26.5t-27.5 -10.5h-756q-16 0 -27.5 10t-11.5 27z" />
<glyph unicode="&#x2014;" horiz-adv-x="1632" d="M174 494v22q0 39 39 39h1206q39 0 39 -39v-22q0 -16 -11 -26.5t-28 -10.5h-1206q-16 0 -27.5 10t-11.5 27z" />
<glyph unicode="&#x2018;" horiz-adv-x="417" d="M78 1059q0 115 54 217t118 162q29 25 49 4l29 -29q20 -20 -13 -49q-127 -115 -127 -258q8 2 25 2q47 0 82 -35t35 -82q0 -49 -35 -83t-82 -34q-135 0 -135 185z" />
<glyph unicode="&#x2019;" horiz-adv-x="413" d="M92 1339q0 49 35 83t82 34q135 0 135 -184q0 -115 -54 -217.5t-118 -161.5q-29 -24 -49 -4l-29 29q-20 20 12 49q127 115 127 258q-8 -2 -24 -2q-47 0 -82 34.5t-35 81.5z" />
<glyph unicode="&#x201a;" horiz-adv-x="477" d="M113 96q0 49 34.5 83t81.5 34q135 0 136 -184q0 -115 -54.5 -217.5t-117.5 -161.5q-29 -25 -50 -4l-28 28q-20 20 12 50q127 115 127 258q-8 -2 -25 -2q-47 0 -81.5 34.5t-34.5 81.5z" />
<glyph unicode="&#x201c;" horiz-adv-x="786" d="M78 1063q0 115 54 217t118 162q29 25 49 4l29 -29q20 -20 -13 -49q-127 -115 -127 -258q8 2 25 2q47 0 82 -35t35 -82q0 -49 -35 -82.5t-82 -33.5q-135 0 -135 184zM446 1063q0 115 54.5 217t117.5 162q29 25 50 4l28 -29q20 -20 -12 -49q-127 -115 -127 -258q8 2 25 2 q47 0 81.5 -35t34.5 -82q0 -49 -34.5 -82.5t-81.5 -33.5q-135 0 -136 184z" />
<glyph unicode="&#x201d;" horiz-adv-x="782" d="M92 1339q0 49 35 83t82 34q135 0 135 -184q0 -115 -54 -217.5t-118 -161.5q-29 -24 -49 -4l-29 29q-20 20 12 49q127 115 127 258q-8 -2 -24 -2q-47 0 -82 34.5t-35 81.5zM461 1339q0 49 34.5 83t82.5 34q135 0 135 -184q0 -115 -54.5 -217.5t-117.5 -161.5 q-29 -24 -49 -4l-29 29q-20 20 12 49q127 115 127 258q-8 -2 -24 -2q-47 0 -82 34.5t-35 81.5z" />
<glyph unicode="&#x201e;" horiz-adv-x="845" d="M113 96q0 49 34.5 83t81.5 34q135 0 136 -184q0 -115 -54.5 -217.5t-117.5 -161.5q-29 -25 -50 -4l-28 28q-20 20 12 50q127 115 127 258q-8 -2 -25 -2q-47 0 -81.5 34.5t-34.5 81.5zM481 96q0 49 35 83t82 34q135 0 135 -184q0 -115 -54 -217.5t-118 -161.5 q-29 -25 -49 -4l-29 28q-20 20 13 50q127 115 127 258q-8 -2 -25 -2q-47 0 -82 34.5t-35 81.5z" />
<glyph unicode="&#x2022;" horiz-adv-x="724" d="M143 459q0 92 63.5 157.5t151.5 65.5q92 0 158 -65.5t66 -157.5q0 -88 -66 -151.5t-158 -63.5q-88 0 -151.5 63.5t-63.5 151.5z" />
<glyph unicode="&#x2026;" horiz-adv-x="1277" d="M123 96q0 49 35 83t82 34q49 0 82.5 -34t33.5 -83q0 -47 -33.5 -81.5t-82.5 -34.5q-47 0 -82 34.5t-35 81.5zM518 96q0 49 35 83t82 34q49 0 83 -34t34 -83q0 -47 -34 -81.5t-83 -34.5q-47 0 -82 34.5t-35 81.5zM922 96q0 49 34.5 83t81.5 34q49 0 83 -34t34 -83 q0 -47 -34 -81.5t-83 -34.5q-47 0 -81.5 34.5t-34.5 81.5z" />
<glyph unicode="&#x202f;" horiz-adv-x="399" />
<glyph unicode="&#x2039;" horiz-adv-x="516" d="M84 397q-16 23 0 49l223 304q18 25 37 24h29q27 0 35 -19.5t-5 -43.5l-151 -285l145 -301q12 -25 3 -43.5t-33 -18.5h-39q-19 1 -31 17z" />
<glyph unicode="&#x203a;" horiz-adv-x="516" d="M107 755q8 19 34 19h29q20 0 37 -24l223 -304q16 -27 0 -49l-213 -317q-12 -16 -31 -17h-39q-25 0 -34 18.5t4 43.5l145 301l-151 285q-12 25 -4 44z" />
<glyph unicode="&#x205f;" horiz-adv-x="499" />
<glyph unicode="&#x20ac;" horiz-adv-x="1497" d="M41 557v14q0 16 11 27.5t26 11.5h82q-6 49 -6 105q0 33 2 49h-78q-14 0 -25.5 11t-11.5 28v14q0 16 11 27.5t26 11.5h88q49 258 253 428t474 170q272 0 496 -190q29 -31 2 -58l-50 -49q-33 -33 -67 2q-158 147 -383 148q-203 0 -356.5 -128t-198.5 -323h575 q16 0 27.5 -11t11.5 -28v-16q0 -16 -11 -26.5t-28 -10.5h-589q-2 -16 -3 -47q0 -59 9 -107h501q16 0 27.5 -11t11.5 -28v-16q0 -16 -11 -26.5t-28 -10.5h-477q59 -172 206 -280.5t333 -108.5q119 0 205 40t188 118q25 20 49 6l60 -60q12 -10 11 -26.5t-13 -28.5 q-205 -199 -498 -198q-254 0 -450.5 150.5t-262.5 387.5h-102q-14 0 -25.5 11.5t-11.5 27.5z" />
<glyph unicode="&#x2122;" horiz-adv-x="1476" d="M102 1372v23q0 14 12.5 26.5t26.5 12.5h391q16 0 27.5 -11.5t11.5 -27.5v-23q0 -39 -39 -39h-143v-479q0 -14 -12 -26.5t-27 -12.5h-26q-16 0 -27.5 11.5t-11.5 27.5v479h-144q-16 0 -27.5 11.5t-11.5 27.5zM639 862l106 551q8 31 39 31h9q27 0 34 -23l166 -434l168 434 q8 23 35 23h8q31 0 39 -31l109 -553q2 -18 -9.5 -31.5t-29.5 -13.5h-25q-31 0 -39 35l-69 338l-148 -361q-8 -18 -33 -18h-12q-29 0 -35 20l-143 359l-72 -340q-8 -33 -39 -33h-20q-20 0 -31.5 14.5t-7.5 32.5z" />
<glyph unicode="&#x25fc;" horiz-adv-x="819" d="M0 0v819h819v-819h-819z" />
<glyph unicode="&#xfb03;" horiz-adv-x="1640" d="M47 735v45q0 39 39 39h125v232q2 190 106.5 286.5t268.5 96.5q147 0 264 -80q86 100 252 100q92 0 177 -32.5t128 -63.5q25 -18 8 -47l-33 -56q-14 -23 -53 -2q-137 74 -225 74q-80 0 -135.5 -56.5t-55.5 -166.5v-285h543q14 0 26.5 -12t12.5 -27v-741q0 -14 -12.5 -26.5 t-26.5 -12.5h-63q-16 0 -27.5 12.5t-11.5 26.5v657h-441v-657q0 -14 -12 -26.5t-27 -12.5h-63q-16 0 -27.5 12.5t-11.5 26.5v657h-420v-657q0 -14 -12 -26.5t-27 -12.5h-63q-16 0 -27.5 12.5t-11.5 26.5v657h-125q-16 0 -27.5 11.5t-11.5 27.5zM352 819h420v287q0 74 14 125 q-25 27 -83 51.5t-119 24.5q-98 0 -165 -61.5t-67 -194.5v-232z" />
<glyph unicode="&#xfb04;" horiz-adv-x="1646" d="M47 735v45q0 39 39 39h125v232q0 193 106.5 288t268.5 95q147 0 264 -80q86 100 258 100q74 0 139.5 -26.5t93.5 -51.5l29 -26l16 51q10 33 39 33h35q14 0 26.5 -12.5t12.5 -26.5v-1356q0 -14 -12 -26.5t-27 -12.5h-63q-16 0 -27.5 12.5t-11.5 26.5v1149l-27 33 q-27 33 -87 64.5t-130 31.5q-82 0 -141.5 -51.5t-59.5 -159.5v-287h238q39 0 39 -39v-45q0 -16 -11.5 -27.5t-27.5 -11.5h-238v-657q0 -14 -12 -26.5t-27 -12.5h-63q-16 0 -27.5 12.5t-11.5 26.5v657h-420v-657q0 -14 -12 -26.5t-27 -12.5h-63q-16 0 -27.5 12.5t-11.5 26.5 v657h-125q-16 0 -27.5 11.5t-11.5 27.5zM352 819h420v287q0 74 14 125q-25 27 -83 51.5t-119 24.5q-98 0 -165 -61.5t-67 -194.5v-232z" />
</font>
</defs>
</svg>
