<?xml version="1.0" standalone="no"?>
<!DOCTYPE svg PUBLIC "-//W3C//DTD SVG 1.1//EN" "http://www.w3.org/Graphics/SVG/1.1/DTD/svg11.dtd" >
<svg xmlns="http://www.w3.org/2000/svg">
<metadata></metadata>
<defs>
<font id="karlabolditalic" horiz-adv-x="565" >
<font-face units-per-em="2048" ascent="1638" descent="-410" />
<missing-glyph horiz-adv-x="468" />
<glyph horiz-adv-x="0" />
<glyph unicode="&#xd;" horiz-adv-x="1091" />
<glyph unicode=" "  horiz-adv-x="468" />
<glyph unicode="&#x09;" horiz-adv-x="468" />
<glyph unicode="&#xa0;" horiz-adv-x="468" />
<glyph unicode="!" horiz-adv-x="542" d="M141 146.5q6 70.5 54.5 118.5t118 48t108.5 -48t33 -118.5t-55.5 -117.5t-116.5 -47q-68 0 -108 47t-34 117.5zM231 457l58 911h246l-111 -911h-193z" />
<glyph unicode="&#x22;" horiz-adv-x="720" d="M174 915l16 490h226l-78 -490h-164zM551 915l16 490h226l-78 -490h-164z" />
<glyph unicode="#" horiz-adv-x="1259" d="M137 334l29 164h168l61 319h-170l33 164h168l51 262h211l-51 -262h248l51 262h211l-51 -262h176l-37 -164h-170l-61 -319h174l-31 -164h-172l-51 -266h-213l51 266h-246l-51 -266h-211l51 266h-168zM545 498h248l59 319h-246z" />
<glyph unicode="$" horiz-adv-x="1280" d="M178 418h223q-10 -96 41.5 -145.5t159.5 -65.5l37 389l-94 37q-150 57 -227.5 139t-63.5 228.5t130 243.5t325 114l16 155h160l-17 -157q336 -43 359 -395h-221q-4 59 -44 106t-112 70l-37 -367l160 -65q135 -53 195.5 -134.5t48.5 -214.5q-12 -150 -132 -254 q-133 -115 -348 -129l-18 -182h-156l17 186q-195 23 -304 129q-119 115 -98 312zM499 991.5q-5 -55.5 21.5 -88.5t85.5 -57l53 -27l31 324q-92 -13 -139 -54.5t-52 -97zM760 203q98 10 147 55t56 102q8 113 -115 168l-57 25z" />
<glyph unicode="%" horiz-adv-x="1415" d="M193 0l942 1333h227l-940 -1333h-229zM211 1049q12 147 98 233q79 78 183 78q51 0 96 -19.5t76 -58.5q72 -86 55 -238.5t-99.5 -229.5t-185.5 -77q-109 0 -170 78q-70 86 -53 234zM377 1049q-18 -154 72 -154t100 154q14 153 -72 153t-100 -153zM833.5 288.5 q16.5 153.5 99.5 230.5t188.5 77t170 -80t50 -234.5t-96.5 -232.5t-186 -78q-109 0 -170 78q-72 86 -55.5 239.5zM1004 287q-14 -156 69 -156q37 0 65.5 35t38 119t-13 118.5t-61.5 34.5q-84 0 -98 -151z" />
<glyph unicode="&#x26;" horiz-adv-x="1785" d="M221 381q23 266 367 326l-27 30q-119 139 -104 293q12 141 129 232q121 94 309 94q186 0 289 -94q94 -90 81.5 -223.5t-98.5 -225.5t-245 -158l204 -229q127 152 228 371l143 -95q-104 -252 -242 -419l25 -27q57 -66 129 -66q43 0 78 36t45 114h203 q-20 -170 -101.5 -269.5t-222.5 -99.5q-168 0 -305 162q-205 -162 -426 -162q-207 0 -340 117q-135 117 -119 293zM471 395q-10 -84 51.5 -141t179.5 -57q137 0 267 86l-267 297q-223 -31 -231 -185zM700.5 1000.5q-6.5 -54.5 12 -94.5t59.5 -83l37 -41q98 43 147.5 95 t59.5 124q4 59 -34 99.5t-110.5 40.5t-118.5 -43t-52.5 -97.5z" />
<glyph unicode="'" horiz-adv-x="339" d="M172 895l16 491h226l-78 -491h-164z" />
<glyph unicode="(" horiz-adv-x="745" d="M242 653q49 518 473 897l147 -133q-174 -184 -270 -368.5t-115.5 -395.5t42 -393t202.5 -366l-176 -138q-350 381 -303 897z" />
<glyph unicode=")" horiz-adv-x="745" d="M47 -106q180 184 276.5 366t114.5 393q20 211 -42 395.5t-203 368.5l176 133q348 -381 303 -897q-45 -506 -473 -897z" />
<glyph unicode="*" horiz-adv-x="753" d="M199 1159l69 146l174 -101l-2 242h152l-45 -242l190 107l45 -150l-209 -76l142 -165l-119 -107l-117 205l-160 -205l-98 107l174 163z" />
<glyph unicode="+" horiz-adv-x="1007" d="M70 393l20 219h359l36 394h224l-35 -394h356l-22 -219h-357l-37 -393h-223l37 393h-358z" />
<glyph unicode="," horiz-adv-x="475" d="M25 -190q154 82 188 180q-51 10 -84 48t-28 99.5t53.5 105.5t124 44t116.5 -66.5t32 -162t-74.5 -191.5t-170.5 -152z" />
<glyph unicode="-" horiz-adv-x="692" d="M135 510l21 219h520l-23 -219h-518z" />
<glyph unicode="." horiz-adv-x="401" d="M68 147q4 70 53 118t117 48t108.5 -48t34.5 -118q-6 -72 -55.5 -118.5t-118.5 -46.5q-70 0 -109.5 46.5t-29.5 118.5z" />
<glyph unicode="/" horiz-adv-x="878" d="M82 -168l633 1696h231l-637 -1696h-227z" />
<glyph unicode="0" horiz-adv-x="1173" d="M182 666q33 346 187 524q150 170 379 170t346 -170q123 -182 90 -524q-31 -340 -189 -523q-152 -172 -379 -172t-346 172q-121 178 -88 523zM412.5 666.5q-21.5 -228.5 37 -347t187.5 -118.5t210 118.5t103.5 347t-37 348.5t-187.5 120t-210 -120t-103.5 -348.5z" />
<glyph unicode="1" horiz-adv-x="661" d="M170 993l23 240q143 23 256 108h167l-124 -1341h-228l98 1042q-98 -49 -192 -49z" />
<glyph unicode="2" horiz-adv-x="1118" d="M111 0l20 231q16 166 92 263q72 90 219 153l258 105q162 68 174 213q8 74 -35.5 126t-134 52t-154 -49.5t-83.5 -145.5h-250q25 205 166 309q137 102 336 103q188 0 299 -111q115 -115 99.5 -281.5t-100.5 -267t-249 -170.5l-262 -106q-74 -29 -109 -64.5t-39 -95.5 l-2 -37h684l-20 -227h-909z" />
<glyph unicode="3" horiz-adv-x="1153" d="M135 420h242q-4 -102 59.5 -160.5t177 -58.5t181 55t77.5 141q8 86 -45 133.5t-176 47.5h-162l19 196h141q104 0 166 49t69 130t-37.5 131.5t-148.5 50.5q-199 0 -247 -168h-238q39 205 174 299t324 94q201 0 315 -103q119 -104 102 -270q-23 -215 -225 -289 q104 -41 162.5 -121.5t49.5 -186t-51 -179.5t-112 -127q-143 -113 -358 -113q-205 0 -334 115q-143 125 -125 334z" />
<glyph unicode="4" horiz-adv-x="1101" d="M68 293l16 188l694 867h217l-77 -842h206l-18 -213h-207l-29 -293h-223l27 293h-606zM350 481h355l45 498z" />
<glyph unicode="5" horiz-adv-x="1077" d="M156 401h231q-10 -102 46 -151t149 -49q98 0 172 69q68 66 80 174q16 199 -226 199h-368l118 690h725l-22 -229h-506l-53 -291q106 18 192 18q186 0 286.5 -100t82.5 -287q-16 -201 -156 -335q-141 -137 -346 -138q-201 0 -309 113q-113 117 -96 317z" />
<glyph unicode="6" horiz-adv-x="1124" d="M174 643q33 342 195 533q158 184 395 184q178 0 285 -109q102 -106 94 -286h-240q-8 170 -153 170q-158 0 -256 -174q-100 -178 -101 -467q72 326 365 325q170 0 266 -119q94 -119 78 -305q-20 -193 -152 -307q-133 -117 -325 -117q-225 0 -355 189q-125 188 -96 483z M461 406q-8 -88 45 -148q49 -57 137 -57t151.5 56t74 151.5t-44 150.5t-140.5 55t-150.5 -57t-72.5 -151z" />
<glyph unicode="7" horiz-adv-x="921" d="M80 0l647 1092h-580l23 241h846l-25 -239l-610 -1094h-301z" />
<glyph unicode="8" horiz-adv-x="1198" d="M137 360q14 125 100.5 201t208.5 92q-154 84 -196 224q-16 53 -10 118q16 170 147 267.5t342 97.5t337 -107.5t110 -275.5q-10 -100 -80 -178t-187 -101l6 -4q135 -61 191 -133q63 -80 53 -185.5t-50 -175t-110 -120.5q-152 -109 -389 -109q-229 0 -360 111 q-129 111 -113 278zM373 385q-8 -82 69 -135q70 -49 201 -49t204 39t78 95t-24 91t-84 61l-184 80q-106 -6 -180 -58t-80 -124zM469 977q-8 -78 109 -129l131 -60q86 0 155 50q70 51 77 126.5t-54.5 123t-165.5 47.5q-157 -1 -227 -91q-20 -27 -25 -67z" />
<glyph unicode="9" horiz-adv-x="1130" d="M166 395h235q-6 -92 44.5 -143t129 -51t135 35.5t97.5 103.5q74 125 100 369q8 57 4 116q-84 -311 -368 -311q-168 0 -262.5 118t-77.5 304q16 188 149 307q133 117 332 117q102 0 191.5 -48t150.5 -136q133 -193 104 -488q-51 -516 -344 -668q-96 -49 -204.5 -49 t-186.5 31t-133 88q-117 121 -96 305zM434 923.5q-10 -96.5 45.5 -150.5t139 -54t149.5 57.5t76 149.5q8 94 -47 151q-53 55 -138.5 55.5t-150 -56t-74.5 -153z" />
<glyph unicode=":" horiz-adv-x="503" d="M119 180q4 70 53 118t117 48t108.5 -48t34.5 -120t-55 -119t-119 -47t-109.5 47t-29.5 121zM178 786q4 70 53.5 118t116.5 48q68 0 109 -48t35 -120t-55.5 -117.5t-119.5 -45.5t-109.5 45.5t-29.5 119.5z" />
<glyph unicode=";" horiz-adv-x="575" d="M82 -190q152 84 186 180q-49 10 -82.5 48t-28.5 99.5t53 105.5t103.5 44t87 -18.5t52.5 -49.5q41 -61 31.5 -158.5t-76 -193.5t-170.5 -152zM229.5 784.5q6.5 71.5 55.5 119.5t117.5 48t109.5 -48t35 -119.5t-56.5 -117.5t-119 -46t-108.5 46t-33.5 117.5z" />
<glyph unicode="&#x3c;" horiz-adv-x="933" d="M135 551l23 227l663 494l133 -191l-577 -417l497 -418l-167 -191z" />
<glyph unicode="=" horiz-adv-x="935" d="M162 190l20 218h645l-22 -218h-643zM205 627l18 215h645l-18 -215h-645z" />
<glyph unicode="&#x3e;" horiz-adv-x="933" d="M104 246l576 418l-496 417l166 191l572 -494l-21 -227l-668 -496z" />
<glyph unicode="?" horiz-adv-x="956" d="M133 961q27 182 145.5 290.5t317.5 108.5t305 -106.5t90 -266.5q-10 -111 -64.5 -183.5t-162.5 -127.5q-94 -49 -123 -84q-47 -61 -51 -131l-4 -58h-228l9 82q16 184 125 265q37 27 86 52t79.5 46.5t49.5 44.5q33 37 39 97.5t-36 102.5t-130 42t-144.5 -48.5 t-68.5 -125.5h-234zM297 137q6 72 54 118t117 46t109.5 -46t32.5 -118q-4 -72 -54 -119t-120.5 -47t-107.5 47.5t-31 118.5z" />
<glyph unicode="@" horiz-adv-x="1908" d="M182.5 440.5q18.5 196.5 104.5 368.5t220 294t308 189.5t359.5 67.5t322.5 -59.5t229 -161.5q188 -213 160 -539q-23 -272 -180 -440q-145 -152 -324 -152q-88 0 -140 36t-66 99l-7 33q-43 -78 -100 -123t-135 -45t-130 29t-89 80q-86 115 -70 274q20 213 168 363 q143 147 328 147q125 0 191.5 -81t49.5 -247l-26 -264q-10 -104 53 -104q72 0 145 90q88 111 107 305q25 233 -102 381q-137 156 -394 156q-305 0 -518 -209t-241 -518q-29 -295 137 -473q172 -184 504 -185l-19 -207q-211 0 -376 69t-275.5 188.5t-161.5 280.5t-32.5 357.5 zM848 395q-6 -90 30.5 -137t101 -47t110 39t90.5 119l20 202q14 139 -84 140q-86 0 -166 -84q-90 -96 -102 -232z" />
<glyph unicode="A" horiz-adv-x="1163" d="M41 0l532 1333h283l268 -1333h-239l-56 283h-442l-111 -283h-235zM463 471h330l-111 567z" />
<glyph unicode="B" horiz-adv-x="1198" d="M170 0l125 1333h489q201 0 301 -104q79 -81 79 -214q0 -18 -1 -36q-10 -113 -73.5 -192.5t-167.5 -112.5q98 -24 156 -102q48 -64 48 -158q0 -21 -2 -43q-25 -250 -252 -338q-86 -33 -213 -33h-489zM414 217h260q190 0 209 168q1 12 1 24q0 62 -36 100q-43 46 -143 46 h-259zM467 774h254q96 0 148.5 46t60.5 125q1 12 1 24q0 62 -36 102q-43 47 -141 47h-254z" />
<glyph unicode="C" horiz-adv-x="1173" d="M182 670q33 330 195 514q156 176 387 176q111 0 189.5 -30t131.5 -85q111 -109 123 -293l-243 -49q-16 104 -70.5 168t-146.5 64q-123 0 -211 -115q-90 -123 -115 -350q-4 -52 -5 -99q0 -153 46 -248q59 -124 185 -124t194.5 68.5t79.5 172.5h241q-23 -225 -162 -347 t-364 -122q-239 1 -363 185q-98 147 -99 384q0 62 7 130z" />
<glyph unicode="D" horiz-adv-x="1267" d="M168 0l125 1333h395q272 0 425 -180q129 -151 129 -392q0 -46 -5 -95q-29 -299 -215 -486q-184 -180 -459 -180h-395zM416 227h168q168 0 280 125q109 117 129 314q3 32 3 61q0 157 -72 256q-92 123 -260 123h-166z" />
<glyph unicode="E" horiz-adv-x="1083" d="M168 0l125 1333h776l-20 -215h-551l-33 -342h516l-20 -217h-517l-32 -342h551l-19 -217h-776z" />
<glyph unicode="F" horiz-adv-x="1011" d="M170 0l125 1333h760l-21 -215h-534l-33 -344h487l-22 -213h-486l-51 -561h-225z" />
<glyph unicode="G" horiz-adv-x="1253" d="M176 659q33 319 211 512q172 188 424 189q172 0 278.5 -82t151.5 -262l-235 -58q-76 176 -230 177q-135 0 -235 -127q-106 -139 -123 -349q-4 -46 -4 -88q0 -147 54 -245q71 -125 195.5 -125t206.5 77.5t103 219.5q0 18 18 18l35 -2q-16 -193 -74 -328q0 82 11.5 167 t11.5 169l-266 6l14 160h481l-63 -688h-183q-2 53 -2 108.5t-2 108.5q-98 -246 -319 -246q-227 0 -354 189q-110 164 -110 398q0 49 5 101z" />
<glyph unicode="H" horiz-adv-x="1306" d="M170 0l125 1333h225l-53 -553h518l53 553h224l-125 -1333h-226l52 561h-517l-51 -561h-225z" />
<glyph unicode="I" d="M170 0l125 1333h225l-125 -1333h-225z" />
<glyph unicode="J" horiz-adv-x="827" d="M35 55l24 248q127 -88 267 -88q78 0 117.5 49t50.5 154l86 915h229l-88 -915q-45 -447 -397 -447q-143 0 -289 84z" />
<glyph unicode="K" horiz-adv-x="1214" d="M170 0l125 1333h227l-51 -542l518 542h307l-583 -600l493 -733h-291l-370 559l-105 -108l-43 -451h-227z" />
<glyph unicode="L" horiz-adv-x="915" d="M170 0l125 1333h225l-106 -1116h489l-18 -217h-715z" />
<glyph unicode="M" horiz-adv-x="1615" d="M170 0l125 1333h321l248 -782l396 782h311l-125 -1333h-227l92 1004l-414 -861h-145l-260 893l-97 -1036h-225z" />
<glyph unicode="N" horiz-adv-x="1327" d="M166 0l125 1333h246l434 -934l88 934h225l-125 -1333h-227l-451 967l-90 -967h-225z" />
<glyph unicode="O" horiz-adv-x="1265" d="M182 668q31 340 201 522q158 170 410 170q250 0 378 -174q111 -146 111 -396q0 -58 -6 -122q-31 -340 -203 -525q-160 -172 -411 -172q-248 0 -379 176q-107 145 -107 395q0 60 6 126zM412 664q-5 -51 -4 -97q0 -155 57 -249q74 -120 218 -120.5t240.5 121t118.5 347.5 q5 52 6 98q0 155 -58 250q-75 123 -218 123t-240.5 -123.5t-119.5 -349.5z" />
<glyph unicode="P" horiz-adv-x="1075" d="M164 0l125 1333h428q205 1 308 -109q87 -92 87 -254q0 -30 -3 -62q-19 -206 -144 -316.5t-330 -110.5h-199l-45 -481h-227zM457 700h200q98 0 154.5 57.5t65.5 149.5q2 16 2 32q0 71 -38 119q-46 60 -147 60h-198z" />
<glyph unicode="Q" horiz-adv-x="1269" d="M182 668q31 340 201 522q158 170 410 170q250 0 378 -174q111 -146 111 -396q0 -58 -6 -122q-29 -276 -139.5 -441.5t-278.5 -224.5l23 -47q39 -76 125 -80q80 0 182 47l-25 -256q-82 -37 -170 -37t-161.5 54.5t-122.5 154.5l-66 133q-240 4 -364 181q-103 146 -103 389 q0 61 6 127zM412 664q-4 -51 -4 -97q0 -156 57 -249q74 -121 218 -121t240.5 121.5t118.5 347.5q6 52 6 98q0 155 -58 250q-75 123 -218 123t-240.5 -124t-119.5 -349z" />
<glyph unicode="R" horiz-adv-x="1193" d="M170 0l125 1333h446q217 1 323 -111q92 -97 91 -250q0 -23 -2 -48q-16 -143 -95 -243.5t-218 -141.5l270 -539h-293l-213 518h-162l-47 -518h-225zM457 684h200q119 0 185.5 59.5t77.5 155.5q1 11 1 21q1 84 -43 138q-48 60 -157 60h-221z" />
<glyph unicode="S" horiz-adv-x="1181" d="M174 418h223q-1 -15 -2 -29q1 -91 59 -136q66 -52 166.5 -52t167.5 41q66 40 73 110q1 13 1 25q0 51 -24 81q-30 36 -105 68l-231 107q-134 59 -200 140q-55 68 -56 180q0 20 2 42q16 164 143 262q129 102 334 102h2q204 -1 303 -105q98 -103 98 -286v-7h-221 q-14 174 -202 174q-92 0 -147 -41q-56 -42 -62 -100q-1 -10 -2 -19q0 -45 26 -71q31 -32 98 -60l252 -115q130 -59 192 -146q52 -73 52 -177q0 -20 -2 -41q-16 -184 -149.5 -289t-360.5 -105q-201 0 -315 109q-115 109 -115 292q0 22 2 46z" />
<glyph unicode="T" horiz-adv-x="987" d="M117 1118l20 215h965l-21 -215h-370l-107 -1118h-223l106 1118h-370z" />
<glyph unicode="U" horiz-adv-x="1277" d="M221 506l80 827h223l-80 -827q-3 -30 -3 -57q0 -181 134 -232q47 -16 105 -16q117 0 197.5 70.5t97.5 234.5l80 827h223l-78 -827q-25 -256 -166 -395.5t-374 -139.5q-232 -1 -346 139q-96 117 -97 317q0 38 4 79z" />
<glyph unicode="V" horiz-adv-x="1126" d="M162 1333h239l189 -1020l389 1020h235l-534 -1333h-238z" />
<glyph unicode="W" horiz-adv-x="1792" d="M164 1333h252l164 -1003l340 919h153l180 -923l375 1007h254l-536 -1333h-238l-152 741l-290 -741h-234z" />
<glyph unicode="X" horiz-adv-x="1269" d="M61 0l482 664l-359 669h275l254 -475l305 475h270l-465 -665l383 -668h-280l-271 467l-321 -467h-273z" />
<glyph unicode="Y" horiz-adv-x="1124" d="M158 1333h266l207 -524l321 524h267l-502 -782l-51 -551h-226l54 551z" />
<glyph unicode="Z" horiz-adv-x="1165" d="M135 0l19 215l712 889h-628l22 229h911l-22 -213l-709 -891h625l-18 -229h-912z" />
<glyph unicode="[" horiz-adv-x="655" d="M141 -297l183 1927h464l-22 -225h-240l-139 -1475h240l-23 -227h-463z" />
<glyph unicode="\" horiz-adv-x="878" d="M186 1530h228l637 -1696h-232z" />
<glyph unicode="]" horiz-adv-x="628" d="M-2 -297l25 227h239l154 1475h-240l23 225h467l-203 -1927h-465z" />
<glyph unicode="^" horiz-adv-x="985" d="M78 440l444 799h183l292 -799h-247l-166 502l-260 -502h-246z" />
<glyph unicode="_" horiz-adv-x="1423" d="M72 -330l20 217h1223l-21 -217h-1222z" />
<glyph unicode="`" horiz-adv-x="663" d="M197 1636l100 215l473 -270l-74 -156z" />
<glyph unicode="a" horiz-adv-x="1081" d="M123 258q0 164 127 250q109 76 291 76q90 0 219 -37l10 94q2 14 2 27v22q0 78 -33.5 115t-111.5 37t-127 -38t-58 -104h-245q18 170 133.5 247t296.5 77q371 0 370 -334v-26q0 -14 -2 -31l-59 -633h-195q-4 33 -4 65.5t-2 67.5q-106 -162 -278 -162q-164 0 -252 84 q-82 78 -82 203zM362 289q0 -59 39 -93t100.5 -34t99.5 17.5t69 47.5q63 64 75 160q-98 33 -163.5 33t-99 -8.5t-60.5 -24.5q-60 -37 -60 -98z" />
<glyph unicode="b" horiz-adv-x="1138" d="M170 0l131 1405h227l-51 -531q102 150 268 150q154 0 250 -123q98 -125 99 -326q0 -215 -115 -395q-57 -90 -145.5 -149.5t-188.5 -59.5q-199 0 -260 201l-70 -172h-145zM434 394.5q0 -23.5 12.5 -61.5t36.5 -69q51 -68 122 -68h1q72 0 119 33t78 86q61 102 61 226.5 t-52 191t-136 66.5t-149.5 -61.5t-77.5 -170.5l-11 -112q-4 -37 -4 -60.5z" />
<glyph unicode="c" horiz-adv-x="978" d="M129 428q0 238 125 410q59 84 148.5 135t191.5 51t166.5 -33t107.5 -86q84 -104 84 -254h-229q-8 61 -41 104.5t-98 43.5q-119 0 -181 -129q-47 -98 -47 -224.5t49.5 -187.5t126 -61t117.5 44t49 115h226q-16 -168 -123 -270q-117 -115 -293 -115q-164 0 -268 123 q-111 131 -111 334z" />
<glyph unicode="d" horiz-adv-x="1136" d="M133 430q0 221 115 397q131 197 334 197q168 0 239 -147l51 528h228l-133 -1405h-185l-14 158q-100 -186 -270 -187q-158 0 -260 125q-104 127 -105 334zM362 458q0 -120 52 -190t139 -71q76 0 143 63q70 66 82 168l13 127q2 10 2 18v15q0 100 -52.5 155.5t-123 55.5 t-118.5 -34t-77 -85q-60 -98 -60 -222z" />
<glyph unicode="e" horiz-adv-x="978" d="M129 426q0 233 125 410q133 188 350 188q170 0 260 -123q84 -111 84 -287q0 -84 -22 -178h-578q-2 -10 -2 -20v-21q0 -100 44 -161.5t118 -61.5q150 0 182 125h228q-33 -143 -148 -234q-115 -92 -264 -92q-162 0 -268 123q-109 125 -109 332zM365 594h374q2 10 2 20.5v35 t-7 58t-25 60.5q-39 57 -125 57t-143.5 -65.5t-75.5 -165.5z" />
<glyph unicode="f" horiz-adv-x="677" d="M150 829l16 168h131l12 113q14 154 105 238q77 73 195 73h3q88 0 187 -22l-62 -193q-51 18 -91 18l-2 1q-39 0 -72 -25q-33 -26 -40 -92l-10 -111h164l-16 -168h-164l-76 -829h-225l76 829h-131z" />
<glyph unicode="g" horiz-adv-x="1077" d="M6 -199q0 145 131 211q37 18 76 25q-90 68 -90 159t50.5 143.5t111.5 70.5q-86 86 -86 217q0 178 133 291q125 106 291 106q117 0 213 -57q25 117 110 190q82 72 189 72l-33 -240q-158 0 -174 -112q53 -80 53 -172.5t-37 -165t-96 -123.5q-127 -106 -293 -107 q-84 0 -158 29q-82 -33 -82 -105q0 -81 126 -81h3h297q289 0 289 -211q0 -201 -186 -336q-166 -121 -375 -121q-217 0 -346 94q-117 86 -117 223zM229 -173q0 -69 68 -105.5t190 -36.5q117 0 209 57q109 63 109 166q0 31 -20.5 49t-59.5 18h-305q-78 0 -134.5 -39.5 t-56.5 -108.5zM422 651q0 -166 153 -166q90 0 135.5 61.5t45.5 143.5q0 160 -158 160q-84 0 -130 -59.5t-46 -139.5z" />
<glyph unicode="h" horiz-adv-x="1153" d="M170 0l131 1405h227l-55 -565q109 184 295 184q162 0 240 -123q56 -89 56 -241q0 -37 -3 -78l-53 -582h-226l54 582q2 21 2 41q0 79 -33 122q-41 54 -122 54t-149.5 -73t-91.5 -224v-6l-47 -496h-225z" />
<glyph unicode="i" horiz-adv-x="610" d="M190 0l95 999h223l-94 -999h-224zM285 1317q8 66 48 105.5t105 39.5q66 0 98 -40q26 -34 26 -86q0 -10 -1 -21q-4 -66 -45 -105t-106 -39q-63 0 -96 39q-29 35 -29 93v14z" />
<glyph unicode="j" horiz-adv-x="620" d="M-180 -453l24 215q98 -59 178 -59t119 41t49 143l105 1114h225l-106 -1118q-23 -215 -112 -307t-232 -92q-119 0 -250 63zM296 1316q5 66 46 106t107 40t99 -40q25 -31 25 -78q0 -13 -2 -27q-4 -68 -44 -107t-105.5 -39t-97.5 39q-29 34 -29 88q0 9 1 18z" />
<glyph unicode="k" horiz-adv-x="1060" d="M170 0l131 1405h227l-71 -752l379 344h305l-432 -368l358 -629h-272l-258 481l-105 -88l-37 -393h-225z" />
<glyph unicode="l" d="M170 0l131 1405h227l-133 -1405h-225z" />
<glyph unicode="m" horiz-adv-x="1751" d="M170 0l94 997h197q2 -43 3 -85t3 -83q109 195 301 195q113 0 181.5 -57.5t97.5 -155.5q106 213 325 213q160 0 238 -123q56 -89 56 -241q0 -37 -3 -78l-53 -582h-228l54 582q2 21 2 41q0 79 -33 122q-41 54 -127 54t-149.5 -85t-79.5 -265l-41 -449h-226l54 582 q3 24 3 46q0 75 -33 117q-42 54 -128 54t-155.5 -88t-86.5 -269l-41 -442h-225z" />
<glyph unicode="n" horiz-adv-x="1153" d="M170 0l94 997h197l6 -168q109 195 301 195q162 0 240 -123q56 -89 57 -241q0 -37 -4 -78l-53 -582h-226l54 582q3 24 3 46q0 75 -33 117q-42 54 -128 54t-155.5 -88t-86.5 -269l-41 -442h-225z" />
<glyph unicode="o" horiz-adv-x="1046" d="M158 496q23 258 164 399q128 129 321 129q92 0 169 -31.5t130 -97.5q94 -114 95 -310q0 -43 -5 -89q-23 -250 -164 -394q-131 -131 -321 -131q-193 0 -299 131q-94 114 -94 307q0 41 4 87zM383 498q-4 -38 -3 -72q0 -103 36 -161q49 -77 143 -77t163 77t84 233q4 38 4 70 q0 103 -36 162q-47 77 -142 77t-164 -76.5t-85 -232.5z" />
<glyph unicode="p" horiz-adv-x="1126" d="M123 -485l141 1482h185q6 -96 10 -135q94 162 270 162q164 0 270 -139q95 -126 95 -312q0 -36 -4 -75q-23 -240 -164 -387q-133 -139 -296 -139q-1 -1 -2 -1q-161 0 -227 105l-53 -561h-225zM430 391v-13q0 -83 49 -130q53 -51 127 -51q90 0 160 73q82 86 96 228 q4 29 4 56q0 102 -44 165q-54 80 -146 80t-154.5 -59.5t-72.5 -170.5l-17 -168z" />
<glyph unicode="q" horiz-adv-x="1128" d="M156 498q23 238 161 387q127 139 295 139q84 0 150.5 -44t101.5 -136l66 153h145l-108 -1149q-3 -31 -3 -54q0 -46 11 -62q27 -41 94 -66l-80 -182q-152 43 -208 133q-44 70 -44 182q0 32 4 68l25 262q-76 -158 -240 -158q-174 0 -280 140q-94 125 -94 309q0 38 4 78z M381 498q-2 -25 -2 -48q0 -107 53 -180q56 -73 146 -73h2q76 0 139 53q63 57 72 151l16 164q2 21 2 40q0 83 -41 133q-51 61 -142 61t-161 -80t-84 -221z" />
<glyph unicode="r" horiz-adv-x="772" d="M170 0l94 999h225l-18 -198q49 111 117.5 163t144.5 52q37 0 76 -15l-27 -249q-41 10 -98 10q-217 0 -248 -326l-41 -436h-225z" />
<glyph unicode="s" horiz-adv-x="970" d="M131 305h209q-1 -9 -1 -17q0 -60 39 -88q44 -32 122 -32t123 32q45 34 50 78q1 8 1 14q0 34 -20 52q-24 22 -81 43l-190 80q-190 78 -190 241q0 16 2 33q12 129 120 205q113 78 286 78t259 -85q77 -76 77 -188q0 -13 -1 -26h-211q0 47 -35 75.5t-104.5 28.5t-110.5 -29.5 t-45 -70.5q-1 -5 -1 -10q0 -62 93 -92l209 -90q97 -39 149 -99q45 -53 46 -121q0 -9 -1 -18q-7 -78 -40 -134t-88 -99q-119 -94 -297 -94q-1 0 -2 -1q-176 0 -278 87q-90 77 -91 210q0 18 2 37z" />
<glyph unicode="t" horiz-adv-x="731" d="M137 831l17 166h122l25 260h225l-24 -260h239l-16 -166h-242l-49 -544q-1 -12 -1 -23q0 -96 93 -96q53 0 138 33l16 -176q-124 -53 -196 -53q-2 0 -4 -1q-70 1 -120 19q-52 18 -88 55q-66 68 -66 183q0 24 3 51l51 552h-123z" />
<glyph unicode="u" horiz-adv-x="1159" d="M197 362l61 637h223l-59 -610q-1 -17 -1 -32q1 -72 31 -111q38 -47 120.5 -47t158.5 80.5t92 244.5l45 475h226l-93 -999h-227l17 176q-101 -194 -287 -194h-2q-240 0 -295 204q-13 48 -13 110q0 31 3 66z" />
<glyph unicode="v" horiz-adv-x="958" d="M117 997h258l127 -749l272 749h258l-426 -997h-252z" />
<glyph unicode="w" horiz-adv-x="1402" d="M117 997h233l111 -704l229 647h205l106 -653l246 710h226l-390 -997h-221l-108 588l-213 -588h-222z" />
<glyph unicode="x" horiz-adv-x="1030" d="M27 0l397 496l-303 503h278l185 -315l235 315h275l-396 -503l301 -496h-274l-188 313l-234 -313h-276z" />
<glyph unicode="y" horiz-adv-x="933" d="M-45 -451l22 220q90 -66 187 -66q117 0 192 201l37 96l-266 997h256l143 -710l252 710h230l-459 -1175q-72 -180 -156 -259t-202.5 -79t-235.5 65z" />
<glyph unicode="z" horiz-adv-x="915" d="M104 0l21 203l512 592h-459l21 202h706l-20 -202l-498 -592h444l-20 -203h-707z" />
<glyph unicode="{" horiz-adv-x="729" d="M178 530l25 254h47q37 0 51 31t23 117l18 188q23 238 150 373q137 145 385 145l-23 -227q-135 0 -203.5 -70.5t-85.5 -224.5l-18 -196q-18 -188 -150 -258l2 -11q49 -29 79 -93t20 -163l-19 -196q-16 -152 40 -223.5t192 -71.5l-21 -228q-244 0 -354 148 q-102 131 -80 373l16 186q10 86 0 116.5t-45 30.5h-49z" />
<glyph unicode="|" d="M145 -250l177 1833h223l-174 -1833h-226z" />
<glyph unicode="}" horiz-adv-x="843" d="M-47 -324l22 228q135 0 205 70.5t84 224.5l19 196q10 98 51 163t96 93v11q-96 59 -100 204v27q0 10 2 27l18 196q4 33 4 47v27q-4 115 -60 168t-175 53l20 227q217 0 332 -116q102 -104 107 -305v-48q0 -25 -5 -51l-16 -186q-4 -41 -4 -77t10 -53.5t39 -17.5h47l-22 -254 h-47q-37 0 -51.5 -30.5t-22.5 -116.5l-19 -188q-39 -373 -311 -482q-94 -37 -223 -37z" />
<glyph unicode="~" horiz-adv-x="1060" d="M152 485q47 135 109.5 214t156.5 79q63 0 160 -43q152 -68 198 -67q76 0 129 114l115 -86q-100 -264 -285 -264q-68 0 -182 57l-98 37q-33 13 -62 13q-68 0 -129 -125z" />
<glyph unicode="&#xa3;" horiz-adv-x="1116" d="M41 0l22 227h58q70 0 99.5 43t39.5 133l16 175h-151l14 167h152l16 166q23 223 137.5 336t276.5 113q326 0 334 -363h-221q-4 66 -36 102t-94.5 36t-111.5 -54.5t-60 -169.5l-16 -166h313l-14 -167h-313l-15 -156q-16 -137 -86 -195h244q92 0 134 37t59 119h247 q-33 -285 -264 -358q-82 -25 -194 -25h-586z" />
<glyph unicode="&#xa8;" horiz-adv-x="714" d="M208 1713.5q5 60.5 46 99t100 38.5t92 -38.5t28 -99t-47 -99.5t-99.5 -39t-91 39t-28.5 99.5zM569 1714q4 59 46 99t100.5 40t91.5 -39.5t27.5 -99t-45 -98.5t-98 -39t-93.5 39t-29 98z" />
<glyph unicode="&#xad;" horiz-adv-x="692" d="M135 510l21 219h520l-23 -219h-518z" />
<glyph unicode="&#xb4;" horiz-adv-x="663" d="M190 1581l525 270l57 -215l-541 -211z" />
<glyph unicode="&#xc0;" horiz-adv-x="1163" d="M41 0l532 1333h283l268 -1333h-239l-56 283h-442l-111 -283h-235zM453 1636l102 215l473 -270l-74 -156zM463 471h330l-111 567z" />
<glyph unicode="&#xc1;" horiz-adv-x="1163" d="M41 0l532 1333h283l268 -1333h-239l-56 283h-442l-111 -283h-235zM449 1581l524 270l55 -215l-541 -211zM463 471h330l-111 567z" />
<glyph unicode="&#xc2;" horiz-adv-x="1163" d="M41 0l532 1333h283l268 -1333h-239l-56 283h-442l-111 -283h-235zM344 1548l420 330l358 -330l-155 -125l-228 205l-266 -205zM463 471h330l-111 567z" />
<glyph unicode="&#xc3;" horiz-adv-x="1163" d="M41 0l532 1333h283l268 -1333h-239l-56 283h-442l-111 -283h-235zM412 1559q35 127 95 196.5t132 69.5q45 0 129 -47q41 -27 64.5 -39.5t48.5 -12.5q59 0 106 99l86 -70q-43 -168 -151 -235q-31 -20 -62 -21q-53 0 -119.5 41t-85.5 51.5t-37 10.5q-68 0 -124 -103z M463 471h330l-111 567z" />
<glyph unicode="&#xc4;" horiz-adv-x="1163" d="M41 0l532 1333h283l268 -1333h-239l-56 283h-442l-111 -283h-235zM425 1674.5q5 60.5 46 100.5t100 40t92 -40t28 -100.5t-47 -99.5t-99.5 -39t-91 39t-28.5 99.5zM463 471h330l-111 567zM786 1675q4 59 46 100.5t100.5 41.5t91.5 -41t28 -100.5t-45 -98.5t-98.5 -39 t-93.5 39t-29 98z" />
<glyph unicode="&#xc8;" horiz-adv-x="1087" d="M168 0l125 1333h776l-20 -215h-551l-33 -342h516l-20 -217h-517l-32 -342h551l-19 -217h-776zM424 1636l100 215l473 -270l-73 -156z" />
<glyph unicode="&#xc9;" horiz-adv-x="1087" d="M168 0h776l19 217h-551l32 342h517l20 217h-516l33 342h551l20 215h-776zM418 1581l524 270l57 -215l-540 -211z" />
<glyph unicode="&#xca;" horiz-adv-x="1087" d="M188 0l125 1333h777l-23 -215h-551l-31 -342h516l-22 -217h-516l-31 -342h551l-18 -217h-777zM334 1548l418 330l360 -330l-158 -125l-225 205l-266 -205z" />
<glyph unicode="&#xcb;" horiz-adv-x="1087" d="M168 0l125 1333h776l-20 -215h-551l-33 -342h516l-20 -217h-517l-32 -342h551l-19 -217h-776zM398 1674.5q5 60.5 46 100.5t101 40q59 0 92 -40t27.5 -100.5t-47.5 -99.5t-99 -39t-91 39t-29 99.5zM760 1675q4 59 46 100.5t100.5 41.5t92 -41t25.5 -101q-4 -59 -44 -98 t-98.5 -39t-93 39t-28.5 98z" />
<glyph unicode="&#xcc;" d="M147 1636l101 215l473 -270l-74 -156zM170 0l125 1333h225l-125 -1333h-225z" />
<glyph unicode="&#xcd;" d="M143 1581l523 270l57 -215l-541 -211zM170 0h225l125 1333h-225z" />
<glyph unicode="&#xce;" d="M41 1548l418 330l360 -330l-157 -125l-226 205l-266 -205zM170 0l125 1333h225l-125 -1333h-225z" />
<glyph unicode="&#xcf;" d="M137 1673q4 61 44 101.5t100 40.5q59 0 93 -40t27 -100q-4 -61 -46 -100t-101 -39q-57 0 -91 39t-26 98zM178 0l125 1333h225l-125 -1333h-225zM498 1675q4 59 46 100.5t99 41.5q59 0 92 -41t27 -101q-4 -59 -45 -98t-99 -39q-59 0 -92.5 39t-27.5 98z" />
<glyph unicode="&#xd1;" horiz-adv-x="1333" d="M166 0h225l90 967l451 -967h227l125 1333h-225l-88 -934l-434 934h-246zM489 1559q35 127 95.5 196.5t132.5 69.5q45 0 129 -47q78 -51 112 -52q59 0 107 99l86 -70q-45 -172 -152 -235q-31 -20 -62.5 -20.5t-62 14t-76.5 42t-65 37t-37 9.5q-66 0 -125 -103z" />
<glyph unicode="&#xd2;" horiz-adv-x="1265" d="M182 668q31 340 201 522q158 170 410 170q250 0 378 -174q137 -180 105 -518q-31 -340 -203 -525q-160 -172 -411 -172q-248 0 -379 176q-133 180 -101 521zM412.5 663.5q-21.5 -225.5 52.5 -346t218 -120.5t240.5 121.5t119 347t-52.5 348.5t-218 123t-240.5 -124 t-119 -349.5zM528 1636l101 215l473 -270l-74 -156z" />
<glyph unicode="&#xd3;" horiz-adv-x="1265" d="M166 670q-16 -174 10.5 -305.5t89.5 -217.5q131 -176 379 -176q252 0 412 172q172 184 203 525q33 338 -105 518q-129 174 -379 174q-387 0 -543 -385q-51 -131 -67 -305zM396.5 663.5q21.5 225.5 118.5 349.5t240.5 124t218.5 -123t52.5 -348.5t-119 -347t-241 -121.5 t-218 120.5t-52 346zM506 1581l524 270l55 -215l-540 -211z" />
<glyph unicode="&#xd4;" horiz-adv-x="1265" d="M182 668q31 340 201 522q158 170 410 170q250 0 378 -174q137 -180 105 -518q-31 -340 -203 -525q-160 -172 -411 -172q-248 0 -379 176q-133 180 -101 521zM412.5 663.5q-21.5 -225.5 52.5 -346t218 -120.5t240.5 121.5t119 347t-52.5 348.5t-218 123t-240.5 -124 t-119 -349.5zM420 1548l420 330l360 -330l-158 -125l-225 205l-268 -205z" />
<glyph unicode="&#xd5;" horiz-adv-x="1265" d="M182 668q-33 -336 101 -521q127 -176 379 -176t411 172q172 184 203 525q33 338 -105 518q-128 174 -380 174q-121 0 -224.5 -42t-183.5 -128q-170 -182 -201 -522zM414.5 664.5q21.5 226.5 117 349.5t239.5 123t219 -123t52.5 -348.5t-119 -347t-241.5 -121.5 t-217 120.5t-50.5 347zM487 1559q35 127 95.5 196.5t132.5 69.5q45 0 108.5 -37t86 -49.5t46.5 -12.5q59 0 107 99l86 -70q-45 -172 -150 -235q-33 -20 -65 -21q-53 0 -141 57q-76 46 -99 46q-66 0 -123 -103z" />
<glyph unicode="&#xd6;" horiz-adv-x="1265" d="M182 668q31 340 201 522q158 170 410 170q250 0 378 -174q137 -180 105 -518q-31 -340 -203 -525q-160 -172 -411 -172q-248 0 -379 176q-133 180 -101 521zM412.5 663.5q-21.5 -225.5 52.5 -346t218 -120.5t240.5 121.5t119 347t-52.5 348.5t-218 123t-240.5 -124 t-119 -349.5zM505 1674.5q5 60.5 46 100.5t100 40t92 -40t28 -100.5t-47 -99.5t-99.5 -39t-91 39t-28.5 99.5zM866 1675q4 59 46 100.5t100.5 41.5t92.5 -41t25 -101q-4 -59 -43.5 -98t-98 -39t-93.5 39t-29 98z" />
<glyph unicode="&#xd9;" horiz-adv-x="1277" d="M221 506l80 827h223l-80 -827q-23 -231 131 -289q47 -16 105 -16q117 0 197.5 70.5t97.5 234.5l80 827h223l-78 -827q-25 -256 -166 -395.5t-373.5 -139.5t-347 139.5t-92.5 395.5zM526 1636l101 215l473 -270l-74 -156z" />
<glyph unicode="&#xda;" horiz-adv-x="1277" d="M221 506q-23 -256 92 -395.5t347.5 -139.5t374 139.5t165.5 395.5l78 827h-223l-80 -827q-16 -164 -97 -234.5t-198 -70.5q-188 0 -229 166q-14 57 -7 139l80 827h-223zM520 1581l524 270l56 -215l-541 -211z" />
<glyph unicode="&#xdb;" horiz-adv-x="1277" d="M221 506l80 827h223l-80 -827q-23 -231 131 -289q47 -16 105 -16q117 0 197.5 70.5t97.5 234.5l80 827h223l-78 -827q-25 -256 -166 -395.5t-373.5 -139.5t-347 139.5t-92.5 395.5zM422 1548l418 330l360 -330l-158 -125l-225 205l-266 -205z" />
<glyph unicode="&#xdc;" horiz-adv-x="1277" d="M221 506l80 827h223l-80 -827q-23 -231 131 -289q47 -16 105 -16q117 0 197.5 70.5t97.5 234.5l80 827h223l-78 -827q-25 -256 -166 -395.5t-373.5 -139.5t-347 139.5t-92.5 395.5zM507 1674.5q5 60.5 46 100.5t100 40t93 -40t30 -102q-8 -59 -49 -98t-99.5 -39t-92 39 t-28.5 99.5zM870 1675q4 59 45 100.5t99.5 41.5t92.5 -41t28.5 -100.5t-46 -98.5t-99 -39t-92.5 39t-28 98z" />
<glyph unicode="&#xe0;" horiz-adv-x="1083" d="M135 296q12 138 117.5 213t279.5 75q111 0 240 -37l10 94q10 104 -21.5 152.5t-116.5 48.5t-133 -38t-56 -104h-246q16 170 132 247t303 77t284.5 -95t79.5 -296l-60 -633h-196q-2 33 -2 65.5t-2 67.5q-106 -162 -279 -162q-176 0 -264 97q-82 90 -70 228zM375 293 q-4 -53 33.5 -92t102 -39t102.5 17.5t69 47.5q64 64 76 160q-98 33 -185 33q-186 0 -198 -127zM397 1356l103 215l471 -271l-74 -155z" />
<glyph unicode="&#xe1;" horiz-adv-x="1083" d="M135 296q12 138 117.5 213t279.5 75q111 0 240 -37l10 94q10 104 -21.5 152.5t-116.5 48.5t-133 -38t-56 -104h-246q16 170 132 247t303 77t284.5 -95t79.5 -296l-60 -633h-196q-2 33 -2 65.5t-2 67.5q-106 -162 -279 -162q-176 0 -264 97q-82 90 -70 228zM375 293 q-4 -53 33.5 -92t102 -39t102.5 17.5t69 47.5q64 64 76 160q-98 33 -185 33q-186 0 -198 -127zM393 1300l525 271l55 -215l-541 -211z" />
<glyph unicode="&#xe2;" horiz-adv-x="1083" d="M135 296q12 138 117.5 213t279.5 75q111 0 240 -37l10 94q10 104 -21.5 152.5t-116.5 48.5t-133 -38t-56 -104h-246q16 170 132 247t303 77t284.5 -95t79.5 -296l-60 -633h-196q-2 33 -2 65.5t-2 67.5q-106 -162 -279 -162q-176 0 -264 97q-82 90 -70 228zM291 1268 l420 329l358 -329l-156 -125l-227 205l-266 -205zM375 293q-4 -53 33.5 -92t102 -39t102.5 17.5t69 47.5q64 64 76 160q-98 33 -185 33q-186 0 -198 -127z" />
<glyph unicode="&#xe3;" horiz-adv-x="1083" d="M135 296q12 138 117.5 213t279.5 75q111 0 240 -37l10 94q10 104 -21.5 152.5t-116.5 48.5t-133 -38t-56 -104h-246q16 170 132 247t303 77t284.5 -95t79.5 -296l-60 -633h-196q-2 33 -2 65.5t-2 67.5q-106 -162 -279 -162q-176 0 -264 97q-82 90 -70 228zM358 1278 q35 129 95.5 198.5t132.5 69.5q49 0 109.5 -38t84 -50t47.5 -12q59 0 107 100l86 -69q-45 -170 -152 -240q-31 -18 -63 -18q-45 0 -114.5 40.5t-88.5 51t-37 10.5q-68 0 -125 -102zM375 293q-4 -53 33.5 -92t102 -39t102.5 17.5t69 47.5q64 64 76 160q-98 33 -185 33 q-186 0 -198 -127z" />
<glyph unicode="&#xe4;" horiz-adv-x="1083" d="M135 296q12 138 117.5 213t279.5 75q111 0 240 -37l10 94q10 104 -21.5 152.5t-116.5 48.5t-133 -38t-56 -104h-246q16 170 132 247t303 77t284.5 -95t79.5 -296l-60 -633h-196q-2 33 -2 65.5t-2 67.5q-106 -162 -279 -162q-176 0 -264 97q-82 90 -70 228zM375 293 q-4 -53 33.5 -92t102 -39t102.5 17.5t69 47.5q64 64 76 160q-98 33 -185 33q-186 0 -198 -127zM378 1393.5q5 60.5 46 100.5t98.5 40t92 -40t29.5 -100.5t-48 -98.5t-100.5 -38t-90 38t-27.5 98.5zM739 1395q4 59 46 100t100.5 41t90.5 -41t26.5 -100.5t-44 -97t-97 -37.5 t-93.5 38t-29 97z" />
<glyph unicode="&#xe8;" horiz-adv-x="978" d="M158 498q25 244 159 387q131 139 312 139q186 0 276 -147q104 -168 45 -441h-577q-10 -117 34 -190.5t142 -73.5q59 0 104 30.5t62 94.5h227q-33 -143 -147 -234q-115 -92 -265 -92q-176 0 -284 144q-113 152 -88 383zM356 1378l101 215l473 -270l-74 -158zM389 594h375 q14 158 -72 213q-33 18 -82 18q-88 0 -145 -65.5t-76 -165.5z" />
<glyph unicode="&#xe9;" horiz-adv-x="978" d="M158 498q-25 -231 88 -383q109 -143 284 -144q150 0 265 92q115 90 147 234h-227q-16 -63 -61.5 -94t-104.5 -31q-98 0 -142.5 73.5t-33.5 190.5h577q10 45 19 107q18 203 -64 334q-90 147 -276 147q-180 0 -312 -139q-135 -143 -159 -387zM350 1323l524 270l56 -215 l-541 -213zM389 594q18 100 75.5 165.5t147.5 65.5t126 -66.5t26 -164.5h-375z" />
<glyph unicode="&#xea;" horiz-adv-x="978" d="M170 498q25 244 160 387q131 139 311 139q188 0 279 -147q102 -164 43 -441h-578q-10 -117 34 -190.5t142 -73.5q131 0 168 125h225q-33 -141 -145 -234q-115 -92 -266 -92q-176 0 -285 144q-113 152 -88 383zM258 1288l418 332l360 -332l-157 -125l-226 207l-266 -207z M401 594h375q14 160 -71 213q-31 18 -80 18q-90 0 -147.5 -65.5t-76.5 -165.5z" />
<glyph unicode="&#xeb;" horiz-adv-x="978" d="M158 498q25 244 159 387q131 139 312 139q186 0 276 -147q104 -168 45 -441h-577q-10 -117 34 -190.5t142 -73.5q59 0 104 30.5t62 94.5h227q-33 -143 -147 -234q-115 -92 -265 -92q-176 0 -284 144q-113 152 -88 383zM331 1393.5q5 60.5 46 100.5t99.5 40t92 -40 t28.5 -100.5t-48 -98.5t-99.5 -38t-90 38t-28.5 98.5zM389 594h375q14 158 -72 213q-33 18 -82 18q-88 0 -145 -65.5t-76 -165.5zM692 1395q4 59 46 100t100.5 41t90.5 -41t26.5 -100.5t-44.5 -97t-97 -37.5t-93 38t-29 97z" />
<glyph unicode="&#xec;" horiz-adv-x="610" d="M141 1356l101 215l473 -271l-74 -155zM190 0l95 999h223l-94 -999h-224z" />
<glyph unicode="&#xed;" horiz-adv-x="610" d="M135 1300l524 271l56 -215l-541 -211zM190 0h224l94 999h-223z" />
<glyph unicode="&#xee;" horiz-adv-x="610" d="M31 1268l420 329l358 -329l-156 -125l-227 205l-266 -205zM190 0l95 999h223l-94 -999h-224z" />
<glyph unicode="&#xef;" horiz-adv-x="610" d="M122 1393.5q5 60.5 46 100.5t100 40t92 -40t28 -100.5t-47 -98.5t-100.5 -38t-91 38t-27.5 98.5zM195 0l94 999h223l-94 -999h-223zM483 1395q4 59 46 100t100.5 41t91.5 -41t27.5 -100.5t-45 -97t-98 -37.5t-93.5 38t-29 97z" />
<glyph unicode="&#xf1;" horiz-adv-x="1153" d="M170 0h225l41 442q16 180 86 268.5t156 88.5t127 -54.5t31 -162.5l-54 -582h226l53 582q27 317 -150 409q-59 33 -143 33q-193 0 -301 -195l-8 168h-195zM377 1278q35 129 95 198.5t132 69.5q49 0 110.5 -38t85 -50t46.5 -12q59 0 106 100l86 -69q-45 -174 -149 -240 q-33 -18 -64.5 -18t-62.5 14t-76 41q-75 47 -102 47q-66 0 -123 -102z" />
<glyph unicode="&#xf2;" horiz-adv-x="1046" d="M158 496q23 258 164 399q128 129 321 129q92 0 169 -31.5t130 -97.5q115 -139 90 -399q-23 -250 -166 -394q-131 -131 -319 -131q-195 0 -301 131q-113 141 -88 394zM383 497.5q-16 -155.5 33 -232.5t143 -77t163 77t84 232.5t-32 232.5t-142 77t-164 -77t-85 -232.5z M387 1356l100 215l474 -271l-74 -155z" />
<glyph unicode="&#xf3;" horiz-adv-x="1046" d="M158 496q-25 -252 88 -394q106 -131 301 -131q188 0 319 131q143 143 166 394q25 260 -90 399q-104 129 -299 129q-90 0 -173 -31.5t-148 -97.5q-141 -141 -164 -399zM381 1300l524 271l58 -215l-541 -211zM383 497.5q16 155.5 85 232.5t164 77t142 -77t32 -232.5 t-84 -232.5t-163 -77t-143 77t-33 232.5z" />
<glyph unicode="&#xf4;" horiz-adv-x="1046" d="M158 496q23 258 164 399q128 129 321 129q92 0 169 -31.5t130 -97.5q115 -139 90 -399q-23 -250 -166 -394q-131 -131 -319 -131q-195 0 -301 131q-113 141 -88 394zM279 1268l417 329l361 -329l-158 -125l-225 205l-266 -205zM383 497.5q-16 -155.5 33 -232.5t143 -77 t163 77t84 232.5t-32 232.5t-142 77t-164 -77t-85 -232.5z" />
<glyph unicode="&#xf5;" horiz-adv-x="1046" d="M158 496q-25 -252 88 -394q106 -131 301 -131q190 0 321 131q141 143 164 394q25 260 -90 399q-104 129 -299 129q-90 0 -173 -31.5t-148 -97.5q-141 -141 -164 -399zM344 1278q35 129 95.5 198.5t131.5 69.5q49 0 110.5 -38t85.5 -50t46 -12q59 0 107 100l86 -69 q-45 -174 -150 -240q-33 -18 -64.5 -18t-62.5 14t-76 41q-75 47 -102 47q-66 0 -123 -102zM383 497.5q16 155.5 85 232.5t164 77t142 -77t32 -232.5t-84 -232.5t-163 -77t-143 77t-33 232.5z" />
<glyph unicode="&#xf6;" horiz-adv-x="1046" d="M158 496q23 258 164 399q128 129 321 129q92 0 169 -31.5t130 -97.5q115 -139 90 -399q-23 -250 -164 -394q-131 -131 -321 -131q-195 0 -301 131q-113 141 -88 394zM363.5 1393.5q5.5 60.5 46.5 100.5t100 40t92 -40t28 -100.5t-46 -98.5t-99.5 -38t-92.5 38t-28.5 98.5 zM383 497.5q-16 -155.5 33 -232.5t143 -77t163 77t84 232.5t-32 232.5t-142 77t-164 -77t-85 -232.5zM727 1395q4 59 45 100t99.5 41t92 -41t28.5 -100.5t-46 -97t-99.5 -37.5t-93 38t-26.5 97z" />
<glyph unicode="&#xf9;" horiz-adv-x="1159" d="M197 362l61 637h223l-59 -610q-8 -96 29.5 -143t120.5 -47t159 80.5t92 244.5l45 475h226l-93 -999h-227l17 176q-102 -195 -289 -194q-240 0 -295 204q-20 72 -10 176zM430 1393l100 215l474 -269l-74 -157z" />
<glyph unicode="&#xfa;" horiz-adv-x="1159" d="M205 362q-18 -195 71 -292q78 -88 234 -88q186 0 289 194l-17 -176h228l92 999h-225l-46 -475q-16 -164 -91.5 -244.5t-159.5 -80.5q-166 0 -150 190l59 610h-223zM432 1339l524 269l58 -215l-541 -211z" />
<glyph unicode="&#xfb;" horiz-adv-x="1159" d="M197 362l61 637h223l-59 -610q-8 -96 29.5 -143t120.5 -47t159 80.5t92 244.5l45 475h226l-93 -999h-227l17 176q-102 -195 -289 -194q-240 0 -295 204q-20 72 -10 176zM322 1305l417 331l361 -331l-158 -125l-225 204l-266 -204z" />
<glyph unicode="&#xfc;" horiz-adv-x="1159" d="M197 362l61 637h223l-59 -610q-8 -96 29.5 -143t120.5 -47t159 80.5t92 244.5l45 475h226l-93 -999h-227l17 176q-102 -195 -289 -194q-240 0 -295 204q-20 72 -10 176zM402.5 1393.5q5.5 60.5 46 100.5t100.5 40q59 0 93 -40t30 -101q-8 -59 -49 -97.5t-99.5 -38.5 t-92.5 38t-28.5 98.5zM766 1395q4 59 46 100t100.5 41t91 -41t27.5 -100.5t-46 -97t-99.5 -37.5t-92 38t-27.5 97z" />
<glyph unicode="&#x2c6;" horiz-adv-x="866" d="M190 1548l420 330l361 -330l-158 -125l-225 205l-269 -205z" />
<glyph unicode="&#x2dc;" horiz-adv-x="733" d="M188 1559q35 127 95.5 196.5t132.5 69.5q45 0 129 -47q78 -51 112 -52q59 0 107 99l86 -70q-43 -168 -152 -235q-31 -20 -62.5 -20.5t-62 14t-76.5 42t-65 37t-37 9.5q-68 0 -125 -103z" />
<glyph unicode="&#x2000;" horiz-adv-x="939" />
<glyph unicode="&#x2001;" horiz-adv-x="1878" />
<glyph unicode="&#x2002;" horiz-adv-x="939" />
<glyph unicode="&#x2003;" horiz-adv-x="1878" />
<glyph unicode="&#x2004;" horiz-adv-x="626" />
<glyph unicode="&#x2005;" horiz-adv-x="469" />
<glyph unicode="&#x2006;" horiz-adv-x="313" />
<glyph unicode="&#x2007;" horiz-adv-x="313" />
<glyph unicode="&#x2008;" horiz-adv-x="234" />
<glyph unicode="&#x2009;" horiz-adv-x="375" />
<glyph unicode="&#x200a;" horiz-adv-x="104" />
<glyph unicode="&#x2010;" horiz-adv-x="692" d="M135 510l21 219h520l-23 -219h-518z" />
<glyph unicode="&#x2011;" horiz-adv-x="692" d="M135 510l21 219h520l-23 -219h-518z" />
<glyph unicode="&#x2012;" horiz-adv-x="692" d="M135 510l21 219h520l-23 -219h-518z" />
<glyph unicode="&#x2013;" horiz-adv-x="974" d="M150 510l20 219h774l-22 -219h-772z" />
<glyph unicode="&#x2014;" horiz-adv-x="1423" d="M150 510l20 219h1223l-21 -219h-1222z" />
<glyph unicode="&#x2018;" horiz-adv-x="509" d="M170 996.5q10 97.5 79.5 192.5t178.5 152l147 -98q-154 -76 -192 -180q51 -10 85 -46t27.5 -98.5t-53.5 -106.5t-122.5 -44t-117.5 65.5t-32 163z" />
<glyph unicode="&#x2019;" horiz-adv-x="509" d="M137 864q152 80 191 183q-53 10 -87 46.5t-27 99t54 105.5t122 43t118 -66.5t32.5 -164.5t-82 -191.5t-175.5 -150.5z" />
<glyph unicode="&#x202f;" horiz-adv-x="375" />
<glyph unicode="&#x205f;" horiz-adv-x="469" />
<glyph unicode="&#x25fc;" horiz-adv-x="1003" d="M0 0v1004h1004v-1004h-1004z" />
</font>
</defs>
</svg>
