<?xml version="1.0" standalone="no"?>
<!DOCTYPE svg PUBLIC "-//W3C//DTD SVG 1.1//EN" "http://www.w3.org/Graphics/SVG/1.1/DTD/svg11.dtd" >
<svg xmlns="http://www.w3.org/2000/svg">
<metadata></metadata>
<defs>
<font id="karlaregular" horiz-adv-x="573" >
<font-face units-per-em="2048" ascent="1638" descent="-410" />
<missing-glyph horiz-adv-x="487" />
<glyph horiz-adv-x="0" />
<glyph unicode="&#xd;" horiz-adv-x="1132" />
<glyph unicode=" "  horiz-adv-x="487" />
<glyph unicode="&#x09;" horiz-adv-x="487" />
<glyph unicode="&#xa0;" horiz-adv-x="487" />
<glyph unicode="!" horiz-adv-x="569" d="M168 97q0 48 34 82t86 34t88 -34t36 -82t-36 -81.5t-88 -33.5t-86 33.5t-34 81.5zM203 1284h170l-19 -924h-131z" />
<glyph unicode="&#x22;" horiz-adv-x="626" d="M57 1395h168l-22 -451h-123zM401 1395h168l-22 -451h-123z" />
<glyph unicode="#" horiz-adv-x="1284" d="M109 348l10 111h205l38 364h-206l12 109h205l30 282h152l-31 -282h316l30 282h150l-31 -282h211l-12 -109h-209l-39 -364h211l-12 -111h-211l-29 -285h-151l30 285h-315l-29 -285h-151l28 285h-202zM475 459h313l39 364h-313z" />
<glyph unicode="$" horiz-adv-x="1294" d="M141 387h158q0 -231 285 -258v481l-66 25q-170 53 -257 127t-87 211t103.5 228t306.5 106v153h127v-155q178 -14 274 -102.5t119 -227.5h-160q-35 164 -233 188v-440l143 -47q141 -47 220 -126t79 -215t-116.5 -239.5t-325.5 -115.5v-166h-127v168q-195 16 -319 121.5 t-124 283.5zM348 967.5q0 -74.5 41 -116.5t133 -71l62 -22v407q-117 -12 -176.5 -67.5t-59.5 -130zM711 127q129 10 195.5 73.5t66.5 141.5q0 152 -189 211l-73 25v-451z" />
<glyph unicode="%" horiz-adv-x="1486" d="M125 1016q0 137 75.5 216t184.5 79t186.5 -78t77.5 -217t-76.5 -216t-187.5 -77t-185.5 78t-74.5 215zM229 0l865 1288h168l-867 -1288h-166zM252 1016q0 -96 37 -139t96 -43t96 43t37 139t-37 141t-96 45t-96 -45t-37 -141zM842 271.5q0 138.5 74.5 216t185.5 77.5 t187.5 -76.5t76.5 -217t-77 -217.5t-187 -77q-111 0 -185.5 78t-74.5 216.5zM969 270q0 -96 36.5 -139t96.5 -43q59 0 96 43t37 139t-37 141.5t-96 45.5t-96 -45t-37 -142z" />
<glyph unicode="&#x26;" horiz-adv-x="1875" d="M182 344.5q0 151.5 97.5 228t285.5 107.5l-28 27q-158 137 -158 301q0 129 107.5 215t284.5 86t282.5 -86t105.5 -208t-80 -210t-260 -166l324 -285q139 168 229 424l113 -61q-92 -281 -236 -455l88 -76q41 -35 73 -51t82 -16t90 38t46 130h152q-8 -147 -77 -228.5 t-200 -81.5q-80 0 -147.5 33t-147.5 105l-53 45q-205 -182 -467 -183q-215 0 -360.5 108t-145.5 259.5zM358 360.5q0 -98.5 85 -169t261.5 -70.5t342.5 135l-381 334q-158 -21 -233 -76t-75 -153.5zM555 993.5q0 -65.5 26.5 -117t88.5 -104.5l55 -51q213 98 246 205 q12 34 12 73q0 74 -56.5 123t-157.5 49t-157.5 -56t-56.5 -121.5z" />
<glyph unicode="'" horiz-adv-x="278" d="M55 1386h168l-22 -450h-123z" />
<glyph unicode="(" horiz-adv-x="729" d="M150 629.5q0 236.5 102 457t303 404.5l117 -84q-355 -358 -355 -778t355 -779l-117 -81q-201 182 -303 403t-102 457.5z" />
<glyph unicode=")" horiz-adv-x="729" d="M57 -150q355 359 355 779t-355 778l117 84q201 -184 303.5 -404.5t102.5 -457t-102.5 -457.5t-303.5 -403z" />
<glyph unicode="*" horiz-adv-x="843" d="M115 1139l49 110l217 -110l-21 262h127l-20 -262l217 110l49 -110l-237 -82l184 -183l-90 -79l-164 213l-164 -213l-92 79l184 183z" />
<glyph unicode="+" horiz-adv-x="1079" d="M37 434v137h422v435h162v-435h421v-137h-421v-434h-162v434h-422z" />
<glyph unicode="," horiz-adv-x="430" d="M61 -164q127 61 154 154q-47 4 -78 30.5t-31 71.5t32 76t90.5 31t97.5 -46.5t39 -116t-45.5 -142t-137.5 -117.5z" />
<glyph unicode="-" horiz-adv-x="714" d="M78 526v140h557v-140h-557z" />
<glyph unicode="." horiz-adv-x="366" d="M61 97q0 48 34 82t86 34t87 -34t35 -82t-35 -81.5t-87 -33.5t-86 33.5t-34 81.5z" />
<glyph unicode="/" horiz-adv-x="884" d="M117 -150l514 1647h164l-516 -1647h-162z" />
<glyph unicode="0" horiz-adv-x="1216" d="M104 644q0 327 136.5 497t370 170t368.5 -172t135 -494.5t-135 -495t-368.5 -172.5t-370 170t-136.5 497zM272 644q0 -251 86 -385t251 -134t251 134t86 385t-86 385t-251 134t-251 -134t-86 -385z" />
<glyph unicode="1" horiz-adv-x="677" d="M100 1028v160q137 18 240 104h131v-1292h-160v1100q-102 -66 -211 -72z" />
<glyph unicode="2" horiz-adv-x="1187" d="M131 0v190q0 227 172 334q55 35 123 62l254 102q197 78 197 256q0 98 -68 160.5t-189.5 62.5t-198.5 -51t-89 -153h-178q10 168 135 258t320.5 90t318.5 -106.5t123 -263.5t-81 -249t-222 -147l-261 -105q-98 -41 -146 -93t-48 -136v-61h747v-150h-909z" />
<glyph unicode="3" horiz-adv-x="1210" d="M106 395h168q4 -131 97.5 -200.5t237 -69.5t222 68.5t78.5 170t-75.5 166t-245.5 64.5h-148v129h101q147 0 233 58.5t86 156.5t-69.5 161.5t-184 63.5t-191.5 -40t-104 -148h-168q23 170 141.5 253t306 83t315.5 -99.5t128 -253.5q0 -205 -225 -284q123 -35 198.5 -115 t75.5 -205q0 -170 -129 -273.5t-340 -103.5t-359.5 110t-148.5 308z" />
<glyph unicode="4" horiz-adv-x="1144" d="M53 311v125l674 871h150v-856h223v-140h-223v-311h-158v311h-666zM246 436h477v615z" />
<glyph unicode="5" horiz-adv-x="1157" d="M133 358h162q0 -168 172 -219q53 -14 117 -14q131 0 210.5 83t79.5 210q0 244 -317 244h-346l55 626h715v-147h-559l-35 -371q106 18 203 18q211 0 331.5 -93t120.5 -281.5t-127 -312.5t-327.5 -124t-327.5 101.5t-127 279.5z" />
<glyph unicode="6" horiz-adv-x="1173" d="M104 644q0 300 143.5 483.5t391.5 183.5q172 0 280.5 -96.5t124.5 -251.5h-174q-35 201 -219 200.5t-283.5 -152t-99.5 -413.5q0 -109 11 -180q12 188 115.5 273t265 85t278.5 -113.5t117 -290.5t-121 -287t-318 -110q-229 0 -370.5 184.5t-141.5 484.5zM348 374.5 q0 -112.5 76 -181t192.5 -68.5t193.5 67.5t77 186.5t-77 186.5t-192.5 67.5t-192.5 -73t-77 -185.5z" />
<glyph unicode="7" horiz-adv-x="962" d="M49 1133v155h877v-149l-590 -1139h-217l618 1133h-688z" />
<glyph unicode="8" horiz-adv-x="1259" d="M113 344q0 127 83 207t216 100q-256 117 -256 318q0 154 127 248t336.5 94t345 -100.5t135.5 -258.5q0 -106 -71 -190t-208 -105l35 -12q141 -53 217 -126t76 -197q0 -156 -138.5 -250.5t-373 -94.5t-379.5 104.5t-145 262.5zM281 346q0 -98 98 -159.5t257 -61.5t252 53 t93 129t-49 122t-135 77l-232 86q-129 -14 -206.5 -81t-77.5 -165zM326 948q0 -55 45 -95t129 -73l149 -57q123 4 203 64.5t80 157.5t-84 157.5t-217 60.5t-219 -58.5t-86 -156.5z" />
<glyph unicode="9" horiz-adv-x="1189" d="M135 915q0 178 121 287t322 109q104 0 198 -45t162 -129q147 -180 147 -469q0 -502 -278 -643q-96 -47 -209 -48q-211 0 -334 115t-123 289h170q4 -117 74 -186.5t176.5 -69.5t171.5 39q186 117 187 526q0 84 -11 152q-20 -166 -119.5 -248t-260 -82t-277.5 113.5 t-117 289.5zM303 907q0 -119 77 -186.5t192.5 -67.5t192.5 73t77 185.5t-77 181t-193.5 68.5t-192.5 -67.5t-76 -186.5z" />
<glyph unicode=":" horiz-adv-x="473" d="M115 163q0 48 33.5 82t86 34t87 -34t34.5 -82t-34.5 -82t-87 -34t-86 34t-33.5 82zM115 789.5q0 48.5 33.5 82t86 33.5t87 -33.5t34.5 -82t-34.5 -82t-87 -33.5t-86 33.5t-33.5 82z" />
<glyph unicode=";" horiz-adv-x="536" d="M117 -164q127 61 153 154q-47 4 -77.5 30.5t-30.5 71.5t31.5 76t90 31t97.5 -46.5t39 -116t-45 -142t-137 -117.5zM168 789.5q0 48.5 34 82t86 33.5t87 -33.5t35 -82t-35 -82t-87 -33.5t-86 33.5t-34 82z" />
<glyph unicode="&#x3c;" horiz-adv-x="929" d="M82 555v141l647 475l107 -122l-590 -424l590 -418l-107 -125z" />
<glyph unicode="=" horiz-adv-x="999" d="M162 240v139h676v-139h-676zM162 631v141h676v-141h-676z" />
<glyph unicode="&#x3e;" horiz-adv-x="929" d="M96 207l586 418l-586 424l105 122l647 -475v-141l-647 -473z" />
<glyph unicode="?" horiz-adv-x="1021" d="M61 975q14 152 125 244t310.5 92t315.5 -98.5t116 -239.5q0 -106 -53.5 -177t-172.5 -137q-51 -29 -85.5 -51t-55.5 -51q-39 -51 -39 -147v-80h-160v92q0 129 43.5 197.5t156 130t151.5 107.5t39 124t-64.5 130t-179.5 52q-240 0 -275 -188h-172zM326 91q0 48 32.5 83 t85.5 35t88 -35t35 -83t-34.5 -81t-88.5 -33q-53 0 -85.5 33t-32.5 81z" />
<glyph unicode="@" horiz-adv-x="1925" d="M137 463q0 182 67.5 337.5t188.5 269.5t288 177.5t353.5 63.5t331.5 -55.5t247.5 -150.5t160 -224t57.5 -267q0 -250 -132 -403.5t-308 -153.5q-88 0 -141.5 37t-63.5 107l-6 32q-37 -78 -98.5 -127t-143.5 -49q-152 0 -249 100.5t-97 254.5q0 203 135 341t322 138 q123 0 193.5 -74t70.5 -223v-311q0 -104 80 -105q41 0 89 27.5t87 81.5q94 125 94 319q0 244 -166 401.5t-450 157.5q-168 0 -305.5 -57t-233.5 -154q-205 -205 -205 -510t217 -494.5t596 -189.5v-131q-436 0 -710 236q-129 111 -199 263.5t-70 334.5zM743 414 q0 -109 56.5 -168.5t140.5 -59.5t137 48.5t101 140.5v217q0 172 -121 172t-217.5 -99.5t-96.5 -250.5z" />
<glyph unicode="A" horiz-adv-x="1177" d="M53 0l443 1288h196l432 -1288h-168l-110 328h-512l-111 -328h-170zM377 455h428l-213 635z" />
<glyph unicode="B" horiz-adv-x="1273" d="M207 0v1288h481q203 0 312.5 -96t109.5 -242q0 -111 -60.5 -192.5t-183.5 -110.5q121 -20 194 -104t73 -191q0 -238 -232 -321q-86 -31 -211 -31h-483zM369 141h317q147 0 211 59.5t64 157.5t-70 156.5t-205 58.5h-317v-432zM369 713h315q119 0 189.5 58t70.5 160.5 t-68.5 160t-191.5 57.5h-315v-436z" />
<glyph unicode="C" horiz-adv-x="1255" d="M104 655.5q0 309.5 153.5 482.5t395.5 173q207 0 333 -103.5t173 -269.5l-174 -35q-41 121 -128 191.5t-204 70.5q-162 0 -268 -135t-106 -375.5t95 -386t279 -145.5q154 0 243 81t89 214h174q0 -203 -138 -322t-379 -119t-389.5 184.5t-148.5 494z" />
<glyph unicode="D" horiz-adv-x="1353" d="M205 0v1288h379q291 0 466 -175t175 -469t-175.5 -469t-465.5 -175h-379zM367 141h217q215 0 342 142.5t127 361.5t-128 359.5t-341 140.5h-217v-1004z" />
<glyph unicode="E" horiz-adv-x="1150" d="M205 0v1288h792v-139h-630v-432h594v-137h-594v-439h630v-141h-792z" />
<glyph unicode="F" horiz-adv-x="1073" d="M207 0v1288h782v-139h-620v-428h577v-139h-577v-582h-162z" />
<glyph unicode="G" horiz-adv-x="1320" d="M104 643q0 305 173.5 485.5t431.5 180.5q152 0 265 -61.5t195 -196.5l-155 -54q-133 166 -311.5 166t-302.5 -145.5t-124 -377.5t106.5 -373.5t287.5 -141.5q147 0 237 98.5t90 290.5v4l-323 12v107h481v-637h-131l-20 221q-86 -244 -334 -244t-407 180.5t-159 485.5z " />
<glyph unicode="H" horiz-adv-x="1370" d="M207 0v1288h162v-567h632v567h162v-1288h-162v582h-632v-582h-162z" />
<glyph unicode="I" d="M207 0v1288h162v-1288h-162z" />
<glyph unicode="J" horiz-adv-x="827" d="M16 63v168q143 -98 269.5 -98t171.5 61.5t45 178.5v915h162v-915q0 -211 -95.5 -303.5t-243 -92.5t-309.5 86z" />
<glyph unicode="K" horiz-adv-x="1247" d="M207 0v1288h164v-596l575 596h223l-563 -579l598 -709h-209l-497 596l-127 -131v-465h-164z" />
<glyph unicode="L" horiz-adv-x="958" d="M207 0v1288h162v-1147h573v-141h-735z" />
<glyph unicode="M" horiz-adv-x="1736" d="M207 0v1288h231l434 -872l431 872h227v-1288h-162v1059l-442 -897h-109l-448 911v-1073h-162z" />
<glyph unicode="N" horiz-adv-x="1402" d="M203 0v1288h192l639 -1034v1034h162v-1288h-180l-649 1049v-1049h-164z" />
<glyph unicode="O" horiz-adv-x="1323" d="M104 643q0 326 153 497t405 171q250 0 404.5 -171t154.5 -498t-154 -496t-405 -169q-252 0 -405 171t-153 495zM272 641q0 -254 104.5 -385t285.5 -131q180 0 285.5 131t105.5 385t-105.5 389t-285.5 135t-285 -135t-105 -389z" />
<glyph unicode="P" horiz-adv-x="1134" d="M203 0v1288h415q213 0 325 -107.5t112 -289.5t-112 -287.5t-325 -105.5h-253v-498h-162zM365 637h253q133 0 202 67.5t69 185.5t-68.5 188.5t-202.5 70.5h-253v-512z" />
<glyph unicode="Q" horiz-adv-x="1335" d="M104 645.5q0 323.5 153 494.5t405 171q250 0 404.5 -171t154.5 -497q0 -270 -108.5 -435t-295.5 -212l64 -90q59 -80 141 -84q88 0 199 51v-176q-82 -39 -172 -39q-174 0 -299 182l-97 137q-248 4 -398.5 174.5t-150.5 494zM272 641q0 -254 104.5 -385t285.5 -131 q180 0 285.5 131t105.5 385t-105.5 389t-285.5 135t-285 -135t-105 -389z" />
<glyph unicode="R" horiz-adv-x="1255" d="M207 0v1288h448q217 0 333 -104.5t116 -264t-85 -258t-251 -126.5l369 -535h-209l-334 526h-225v-526h-162zM369 639h274q145 0 220 70.5t75 186.5t-72.5 184.5t-210.5 68.5h-286v-510z" />
<glyph unicode="S" horiz-adv-x="1239" d="M141 387h158q0 -127 89 -194.5t229.5 -67.5t222.5 62.5t82 147.5t-50.5 134t-148.5 82l-227 84q-160 53 -242 127t-82 216t114.5 237.5t321.5 95.5t316.5 -91.5t126.5 -244.5h-158q-35 188 -277 188q-129 0 -198.5 -56t-69.5 -135t43 -120t139 -72l269 -92 q137 -47 218 -129t81 -230.5t-127 -250t-340 -101.5t-349.5 108t-140.5 302z" />
<glyph unicode="T" horiz-adv-x="1026" d="M12 1149v139h1002v-139h-420v-1149h-162v1149h-420z" />
<glyph unicode="U" horiz-adv-x="1339" d="M178 465v823h162v-823q0 -180 90 -260t238 -80q147 0 237 80t90 260v823h162v-823q0 -242 -133 -365t-357.5 -123t-356.5 123t-132 365z" />
<glyph unicode="V" horiz-adv-x="1153" d="M37 1288h170l368 -1083l371 1083h170l-457 -1288h-167z" />
<glyph unicode="W" horiz-adv-x="1832" d="M29 1288h180l313 -1071l318 938h108l316 -938l360 1071h178l-454 -1288h-170l-281 825l-291 -825h-170z" />
<glyph unicode="X" horiz-adv-x="1314" d="M96 1288h195l368 -526l340 526h195l-444 -647l464 -641h-200l-373 514l-346 -514h-197l455 639z" />
<glyph unicode="Y" horiz-adv-x="1124" d="M20 1288h193l346 -592l354 592h191l-463 -760v-528h-164v528z" />
<glyph unicode="Z" horiz-adv-x="1212" d="M150 0v145l743 990l-743 6v147h946v-145l-744 -989l744 -7v-147h-946z" />
<glyph unicode="[" horiz-adv-x="649" d="M207 -209v1706h405v-143h-243v-1420h243v-143h-405z" />
<glyph unicode="\" horiz-adv-x="884" d="M92 1497h162l516 -1647h-164z" />
<glyph unicode="]" horiz-adv-x="583" d="M-29 -66h244v1420h-244v143h406v-1706h-406v143z" />
<glyph unicode="^" horiz-adv-x="917" d="M43 502l360 698h125l361 -698h-180l-244 504l-240 -504h-182z" />
<glyph unicode="_" horiz-adv-x="1486" d="M113 -115h1261v-139h-1261v139z" />
<glyph unicode="`" horiz-adv-x="645" d="M49 1618l68 143l481 -272l-47 -103z" />
<glyph unicode="a" horiz-adv-x="1146" d="M143 285q0 131 105.5 204.5t263.5 73.5t301 -53v125q0 133 -55.5 190.5t-160.5 57.5t-170 -42t-65 -132h-178q0 225 242 278q74 16 160 17q182 0 284.5 -92.5t102.5 -280.5v-631h-139l-17 164q-90 -186 -325 -187q-158 0 -253.5 88.5t-95.5 219.5zM315 287 q0 -184 209 -185q119 0 204 85.5t85 220.5q-145 41 -253.5 41t-176.5 -39t-68 -123z" />
<glyph unicode="b" horiz-adv-x="1196" d="M207 0v1395h162v-561q98 170 286.5 170t313.5 -140.5t125 -371t-127 -373t-310 -142.5q-98 0 -177 49.5t-124 145.5l-37 -172h-112zM369 418q0 -135 80.5 -216t195.5 -81t199 101.5t84 269t-83 268t-200 100.5t-194.5 -74.5t-81.5 -207.5v-160z" />
<glyph unicode="c" horiz-adv-x="1054" d="M102 494.5q0 234.5 129 372t302.5 137.5t275.5 -89.5t133 -222.5l-164 -14q-27 86 -86 134t-131 48q-131 0 -212 -98t-81 -267t79 -271.5t197 -102.5t176 54t58 155h166q0 -158 -109.5 -255.5t-285.5 -97.5q-186 0 -316.5 141.5t-130.5 376z" />
<glyph unicode="d" horiz-adv-x="1216" d="M123 494.5q0 230.5 124 370t313.5 139.5t287.5 -170v561h160v-1395h-131l-21 164q-47 -92 -125 -139.5t-170 -47.5q-186 0 -312 143.5t-126 374zM289 491.5q0 -167.5 82 -269t196.5 -101.5t195.5 76.5t85 205.5v160q0 137 -80 217t-198.5 80t-199.5 -100.5t-81 -268z" />
<glyph unicode="e" horiz-adv-x="1054" d="M102 491.5q0 233.5 124 373t330 139.5t308 -160q78 -123 77 -286q0 -50 -7 -103h-670q0 -152 74 -249t207 -97q203 0 231 178h166q-23 -147 -130 -228.5t-267 -81.5q-197 0 -320 140.5t-123 374zM266 578h522q1 204 -124 272q-45 24 -110 24h-5q-125 0 -197.5 -84.5 t-85.5 -211.5z" />
<glyph unicode="f" horiz-adv-x="702" d="M100 868v111h162v149q0 145 80 214t184.5 69t184.5 -27l-29 -127q-68 27 -107 27q-72 0 -112.5 -35t-40.5 -123v-147h203v-111h-203v-868h-160v868h-162z" />
<glyph unicode="g" horiz-adv-x="1157" d="M57 -190q0 88 52.5 143t138.5 78q-123 59 -123 182q0 63 48 111.5t120 64.5q-111 98 -111 258t114 258.5t269.5 98.5t263.5 -74q14 109 87 174t192 65l-14 -159q-180 0 -189 -152q72 -88 72 -211q0 -158 -113.5 -259t-283.5 -101q-117 0 -207 47q-41 -8 -74 -38t-33 -81 q0 -109 180 -109h381q137 0 217 -58t80 -163q0 -156 -156.5 -272.5t-396 -116.5t-377 89t-137.5 225zM217 -184q0 -78 85 -134.5t258 -56.5t289 75t116 175q0 47 -34 81t-104 34h-395q-104 -4 -159.5 -50t-55.5 -124zM342 647q0 -106 64.5 -175t175.5 -69t174 70t63 175.5 t-63.5 172t-175 66.5t-175 -66.5t-63.5 -173.5z" />
<glyph unicode="h" horiz-adv-x="1236" d="M207 0v1395h162v-596q98 205 325 205q174 0 271.5 -115t97.5 -314v-575h-160v575q0 141 -66.5 213t-191.5 72t-200.5 -105.5t-75.5 -291.5v-463h-162z" />
<glyph unicode="i" horiz-adv-x="612" d="M193 1312q0 46 27.5 73.5t76.5 27.5t79 -27.5t30 -73.5t-30 -74t-79 -28t-76.5 28t-27.5 74zM217 0v981h162v-981h-162z" />
<glyph unicode="j" horiz-adv-x="643" d="M-176 -428l8 141q130 -75 236 -75q180 0 180 225v1120h162v-1120q0 -281 -185 -346q-57 -20 -127 -21q-127 0 -274 76zM223 1312q0 46 28 73.5t77 27.5t78.5 -27.5t29.5 -73.5t-29.5 -74t-78.5 -28t-77 28t-28 74z" />
<glyph unicode="k" horiz-adv-x="1155" d="M207 0v1395h162v-811l473 395h225l-451 -367l474 -612h-199l-391 518l-131 -106v-412h-162z" />
<glyph unicode="l" d="M207 0v1395h162v-1395h-162z" />
<glyph unicode="m" horiz-adv-x="1914" d="M205 0v979h139l18 -188q96 213 330 213q127 0 213 -62.5t125 -173.5q92 236 342 236q176 0 272.5 -115t96.5 -314v-575h-160v575q0 141 -66.5 213t-191.5 72t-193.5 -102.5t-68.5 -282.5v-475h-160v575q0 141 -66.5 213t-189.5 72t-198.5 -100.5t-79.5 -278.5v-481h-162z " />
<glyph unicode="n" horiz-adv-x="1234" d="M205 0v979h139l18 -188q96 213 330 213q174 0 271.5 -115t97.5 -314v-575h-160v575q0 141 -66.5 213t-189.5 72t-198.5 -100.5t-79.5 -278.5v-481h-162z" />
<glyph unicode="o" horiz-adv-x="1118" d="M102 489q0 248 126 381.5t331 133.5t331 -133.5t126 -381.5q0 -246 -126 -379t-331 -133t-331 133.5t-126 378.5zM268 490.5q0 -175.5 72 -274.5t214 -99t220 99t78 274.5t-73.5 274.5t-216 99t-218.5 -99t-76 -274.5z" />
<glyph unicode="p" horiz-adv-x="1216" d="M207 -481v1460h133l18 -150q96 174 288 175h1q191 0 319 -142q128 -141 128 -372.5t-129 -372t-317.5 -140.5t-278.5 142v-600h-162zM369 397q0 -129 77.5 -202.5t192.5 -73.5t202 98t87 269t-83 271.5t-202 100.5t-194.5 -74.5t-79.5 -201.5v-187z" />
<glyph unicode="q" horiz-adv-x="1198" d="M104 489.5q0 231.5 128.5 373t308.5 141.5q209 0 303 -185l35 160h110v-1145q0 -100 23.5 -134t53.5 -49.5t73 -29.5l-54 -125q-139 37 -197.5 117t-58.5 231v312q-84 -178 -275 -178q-1 -1 -2 -1q-190 0 -319 141q-129 140 -129 371.5zM270 488q0 -171 88 -269t205 -98 q168 0 240 149q25 47 26 113v186q0 135 -77.5 213t-196.5 78t-202 -100.5t-83 -271.5z" />
<glyph unicode="r" horiz-adv-x="780" d="M205 0v981h162v-188q74 204 258 204h2q59 0 112 -18l-8 -158q-62 21 -125 21q-231 0 -239 -365v-477h-162z" />
<glyph unicode="s" horiz-adv-x="1077" d="M123 289h156q4 -92 74.5 -138.5t177 -46.5t176 45.5t69.5 107.5t-41 95t-133 58l-190 63q-256 76 -256 266q0 121 103 193t279.5 72t275.5 -74t104 -187h-158q-18 133 -225 134q-100 0 -154.5 -45.5t-54.5 -97.5t41 -88t131 -62l196 -66q125 -39 191.5 -99.5t66.5 -166 t-108.5 -190.5t-303 -85t-303 87.5t-114.5 224.5z" />
<glyph unicode="t" horiz-adv-x="770" d="M70 856v123h157v272h160v-272h307v-123h-307v-600q0 -150 139 -150q76 0 170 37l23 -114q-112 -52 -212 -52q-57 0 -110 17q-104 33 -147 137q-23 51 -23 123v602h-157z" />
<glyph unicode="u" horiz-adv-x="1241" d="M178 358v623h162v-610q0 -248 229 -248q133 0 216 102.5t87 261.5v494h162v-981h-162v195q-100 -213 -325 -213q-166 0 -267.5 92t-101.5 284z" />
<glyph unicode="v" horiz-adv-x="1030" d="M37 979h182l295 -809l297 809h182l-389 -979h-178z" />
<glyph unicode="w" horiz-adv-x="1484" d="M37 979h168l237 -780l234 733h135l231 -742l240 789h160l-320 -979h-157l-226 686l-221 -686h-156z" />
<glyph unicode="x" horiz-adv-x="1048" d="M53 0l371 489l-371 492h197l280 -369l269 369h196l-374 -492l372 -489h-196l-281 371l-266 -371h-197z" />
<glyph unicode="y" horiz-adv-x="991" d="M10 -285q99 -77 208 -77h3q82 0 141 81q43 59 78 181l29 100l-401 979h180l297 -780l231 780h164l-367 -1174q-47 -150 -123.5 -229.5t-194.5 -79.5t-245 72v147z" />
<glyph unicode="z" horiz-adv-x="972" d="M109 0v131l575 717h-575v131h757v-131l-567 -717h567v-131h-757z" />
<glyph unicode="{" horiz-adv-x="714" d="M154 547v155h34q39 0 56.5 36t17.5 126v187q0 344 234 444q82 37 202 37v-141q-152 0 -214 -87t-62 -255v-189q0 -176 -107 -231v-8q106 -51 107 -232v-190q0 -166 62.5 -253t213.5 -87v-142q-436 0 -436 480v188q0 88 -17.5 125t-56.5 37h-34z" />
<glyph unicode="|" d="M207 -250v1786h162v-1786h-162z" />
<glyph unicode="}" horiz-adv-x="714" d="M16 -141q152 0 214.5 87t62.5 253v190q0 180 106 232v8q-106 55 -106 231v189q0 168 -62.5 255t-214.5 87v141q436 0 437 -481v-187q0 -90 17 -126t56 -36h35v-155h-35q-39 0 -56 -37t-17 -125v-188q0 -344 -234 -443q-84 -37 -203 -37v142z" />
<glyph unicode="~" horiz-adv-x="1054" d="M109 504q68 227 219 227q70 0 207 -56.5t190 -56.5q82 0 133 117l88 -55q-72 -217 -231 -217q-47 0 -145.5 37t-127.5 49q-79 29 -118 29q-76 0 -125 -121z" />
<glyph unicode="&#xa3;" horiz-adv-x="1157" d="M41 0v141h57q78 0 114 45t36 140v221h-187v115h187v223q0 203 95 314.5t282 111.5q145 0 237 -78t115 -229h-158q-33 160 -209 159q-86 0 -144 -65.5t-58 -212.5v-223h372v-115h-372v-213q0 -139 -76 -193h375q100 0 146 42t58 132h172q-12 -158 -98 -236.5t-278 -78.5 h-666z" />
<glyph unicode="&#xa8;" horiz-adv-x="661" d="M49 1698q0 43 30 72.5t77 29.5t78.5 -29.5t31.5 -72.5t-31.5 -73t-78.5 -30t-77 30t-30 73zM393 1698q0 43 31 72.5t77 29.5t77.5 -29.5t31.5 -72.5t-31.5 -73t-77.5 -30t-77 30t-31 73z" />
<glyph unicode="&#xad;" horiz-adv-x="714" d="M78 526v140h557v-140h-557z" />
<glyph unicode="&#xb4;" horiz-adv-x="645" d="M47 1489l481 272l66 -143l-500 -232z" />
<glyph unicode="&#xc0;" horiz-adv-x="1177" d="M53 0l443 1288h196l432 -1288h-168l-110 328h-512l-111 -328h-170zM322 1618l67 143l481 -272l-47 -103zM377 455h428l-213 635z" />
<glyph unicode="&#xc1;" horiz-adv-x="1177" d="M53 0l443 1288h196l432 -1288h-168l-110 328h-512l-111 -328h-170zM319 1489l482 272l65 -143l-499 -232zM377 455h428l-213 635z" />
<glyph unicode="&#xc2;" horiz-adv-x="1177" d="M53 0l443 1288h196l432 -1288h-168l-110 328h-512l-111 -328h-170zM225 1466l369 320l367 -320l-103 -80l-264 222l-266 -222zM377 455h428l-213 635z" />
<glyph unicode="&#xc3;" horiz-adv-x="1177" d="M53 0l443 1288h196l432 -1288h-168l-110 328h-512l-111 -328h-170zM270 1511q25 104 72 158.5t100.5 54.5t122.5 -34q94 -47 122 -59.5t54.5 -12.5t55 25.5t49.5 80.5l72 -47q-23 -98 -73 -151t-92 -53t-77 12t-96.5 44t-82.5 40t-44 8q-66 0 -117 -104zM377 455h428 l-213 635z" />
<glyph unicode="&#xc4;" horiz-adv-x="1177" d="M53 0l443 1288h196l432 -1288h-168l-110 328h-512l-111 -328h-170zM356 1608q0 43 30 72.5t77 29.5t78.5 -29.5t31.5 -72.5t-31.5 -73t-78.5 -30t-77 30t-30 73zM377 455h428l-213 635zM700 1608q0 43 31 72.5t77 29.5t78 -29.5t32 -72.5t-32 -73t-78 -30t-77 30t-31 73z " />
<glyph unicode="&#xc8;" horiz-adv-x="1155" d="M205 0v1288h792v-139h-630v-432h594v-137h-594v-439h630v-141h-792zM330 1618l67 143l482 -272l-48 -103z" />
<glyph unicode="&#xc9;" horiz-adv-x="1155" d="M205 0h792v141h-630v439h594v137h-594v432h630v139h-792v-1288zM328 1489l481 272l65 -143l-499 -232z" />
<glyph unicode="&#xca;" horiz-adv-x="1155" d="M215 0v1288h793v-139h-631v-432h594v-137h-594v-439h631v-141h-793zM246 1466l368 320l367 -320l-102 -80l-265 222l-266 -222z" />
<glyph unicode="&#xcb;" horiz-adv-x="1155" d="M205 0v1288h792v-139h-630v-432h594v-137h-594v-439h630v-141h-792zM324 1608q0 43 29.5 72.5t76.5 29.5t79 -29.5t32 -72.5t-32 -73t-79 -30t-76.5 30t-29.5 73zM668 1608q0 43 30.5 72.5t76.5 29.5t78 -29.5t32 -72.5t-32 -73t-78 -30t-76.5 30t-30.5 73z" />
<glyph unicode="&#xcc;" d="M14 1618l68 143l481 -272l-47 -103zM207 0v1288h162v-1288h-162z" />
<glyph unicode="&#xcd;" d="M12 1489l482 272l65 -143l-500 -232zM207 0h162v1288h-162v-1288z" />
<glyph unicode="&#xce;" d="M-80 1466l369 320l366 -320l-102 -80l-264 222l-266 -222zM207 0v1288h162v-1288h-162z" />
<glyph unicode="&#xcf;" d="M8 1608q0 43 30 72.5t77 29.5t78.5 -29.5t31.5 -72.5t-31.5 -73t-78.5 -30t-77 30t-30 73zM207 0v1288h162v-1288h-162zM352 1608q0 43 31 72.5t77 29.5t77.5 -29.5t31.5 -72.5t-31.5 -73t-77.5 -30t-77 30t-31 73z" />
<glyph unicode="&#xd1;" horiz-adv-x="1404" d="M203 0h164v1049l649 -1049h180v1288h-162v-1034l-639 1034h-192v-1288zM379 1511q25 104 72 158.5t100 54.5t121 -34q96 -47 123.5 -59.5t54.5 -12.5t55.5 25.5t48.5 80.5l72 -47q-23 -98 -73 -151t-92 -53t-76.5 12t-96 44t-83 40t-44.5 8q-66 0 -117 -104z" />
<glyph unicode="&#xd2;" horiz-adv-x="1323" d="M104 643q0 326 153 497t405 171q250 0 404.5 -171t154.5 -498t-154 -496t-405 -169q-252 0 -405 171t-153 495zM272 641q0 -254 104.5 -385t285.5 -131q180 0 285.5 131t105.5 385t-105.5 389t-285.5 135t-285 -135t-105 -389zM389 1618l68 143l481 -272l-47 -103z" />
<glyph unicode="&#xd3;" horiz-adv-x="1323" d="M104 643q0 -324 153 -495t405 -171t405.5 169t153.5 496t-154.5 498t-404.5 171q-252 0 -405 -171t-153 -497zM272 641q0 254 105 389t285 135t285.5 -135t105.5 -389t-105.5 -385t-285.5 -131t-285 131t-105 385zM387 1489l481 272l66 -143l-500 -232z" />
<glyph unicode="&#xd4;" horiz-adv-x="1323" d="M104 643q0 326 153 497t405 171q250 0 404.5 -171t154.5 -498t-154 -496t-405 -169q-252 0 -405 171t-153 495zM272 641q0 -254 104.5 -385t285.5 -131q180 0 285.5 131t105.5 385t-105.5 389t-285.5 135t-285 -135t-105 -389zM293 1466l369 320l366 -320l-102 -80 l-264 222l-267 -222z" />
<glyph unicode="&#xd5;" horiz-adv-x="1323" d="M104 643q0 -324 153 -495t405 -171t405.5 169t153.5 496t-154.5 498t-404.5 171q-252 0 -405 -171t-153 -497zM272 641q0 254 105 389t285 135t285.5 -135t105.5 -389t-105.5 -385t-285.5 -131t-285 131t-105 385zM338 1511q25 104 72 158.5t100 54.5t121 -34 q96 -47 123.5 -59.5t54.5 -12.5t55.5 25.5t48.5 80.5l72 -47q-23 -98 -73 -151t-92 -53t-76.5 12t-96 44t-83 40t-44.5 8q-66 0 -117 -104z" />
<glyph unicode="&#xd6;" horiz-adv-x="1323" d="M104 643q0 326 153 497t405 171q250 0 404.5 -171t154.5 -498t-154 -496t-405 -169q-252 0 -405 171t-153 495zM272 641q0 -254 104.5 -385t285.5 -131q180 0 285.5 131t105.5 385t-105.5 389t-285.5 135t-285 -135t-105 -389zM381 1608q0 43 29.5 72.5t76.5 29.5 t79 -29.5t32 -72.5t-31.5 -73t-79.5 -30q-47 0 -76.5 30t-29.5 73zM725 1608q0 43 30.5 72.5t77 29.5t78 -29.5t31.5 -72.5t-31.5 -73t-78 -30t-77 30t-30.5 73z" />
<glyph unicode="&#xd9;" horiz-adv-x="1339" d="M178 465v823h162v-823q0 -180 90 -260t238 -80q147 0 237 80t90 260v823h162v-823q0 -242 -133 -365t-357.5 -123t-356.5 123t-132 365zM395 1618l68 143l481 -272l-47 -103z" />
<glyph unicode="&#xda;" horiz-adv-x="1339" d="M178 465q0 -242 132 -365t356.5 -123t357.5 123t133 365v823h-162v-823q0 -180 -90 -260t-237 -80t-237.5 80t-90.5 260v823h-162v-823zM393 1489l481 272l66 -143l-500 -232z" />
<glyph unicode="&#xdb;" horiz-adv-x="1339" d="M178 465v823h162v-823q0 -180 90 -260t238 -80q147 0 237 80t90 260v823h162v-823q0 -242 -133 -365t-357.5 -123t-356.5 123t-132 365zM299 1466l369 320l366 -320l-102 -80l-264 222l-267 -222z" />
<glyph unicode="&#xdc;" horiz-adv-x="1339" d="M178 465v823h162v-823q0 -180 90 -260t238 -80q147 0 237 80t90 260v823h162v-823q0 -242 -133 -365t-357.5 -123t-356.5 123t-132 365zM387 1608q0 43 29.5 72.5t77.5 29.5q47 0 78.5 -29.5t31.5 -72.5t-31.5 -73t-78.5 -30q-48 0 -77.5 30t-29.5 73zM731 1608 q0 43 31 72.5t77 29.5t77.5 -29.5t31.5 -72.5t-31.5 -73t-77.5 -30t-77 30t-31 73z" />
<glyph unicode="&#xe0;" horiz-adv-x="1128" d="M123 285q0 131 105.5 204.5t263 73.5t301.5 -53v125q0 133 -55.5 190.5t-161 57.5t-170 -42t-64.5 -132h-178q0 225 242 278q74 16 159 17q182 0 284.5 -92.5t102.5 -280.5v-631h-139l-16 164q-90 -186 -326 -187q-158 0 -253 88.5t-95 219.5zM295 287q0 -184 209 -185 q119 0 204 85.5t85 220.5q-145 41 -254 41t-176.5 -39t-67.5 -123zM305 1354l68 143l481 -272l-47 -103z" />
<glyph unicode="&#xe1;" horiz-adv-x="1128" d="M123 285q0 131 105.5 204.5t263 73.5t301.5 -53v125q0 133 -55.5 190.5t-161 57.5t-170 -42t-64.5 -132h-178q0 225 242 278q74 16 159 17q182 0 284.5 -92.5t102.5 -280.5v-631h-139l-16 164q-90 -186 -326 -187q-158 0 -253 88.5t-95 219.5zM295 287q0 -184 209 -185 q117 0 200.5 82t88.5 211v13q-145 41 -254 41t-176.5 -39t-67.5 -123zM303 1225l481 272l66 -143l-500 -232z" />
<glyph unicode="&#xe2;" horiz-adv-x="1128" d="M123 285q0 131 105.5 204.5t263 73.5t301.5 -53v125q0 133 -55.5 190.5t-161 57.5t-170 -42t-64.5 -132h-178q0 225 242 278q74 16 159 17q182 0 284.5 -92.5t102.5 -280.5v-631h-139l-16 164q-90 -186 -326 -187q-158 0 -253 88.5t-95 219.5zM209 1202l369 320l366 -320 l-102 -80l-264 221l-267 -221zM295 287q0 -184 209 -185q119 0 204 85.5t85 220.5q-145 41 -254 41t-176.5 -39t-67.5 -123z" />
<glyph unicode="&#xe3;" horiz-adv-x="1128" d="M123 285q0 131 105.5 204.5t263 73.5t301.5 -53v125q0 133 -55.5 190.5t-161 57.5t-170 -42t-64.5 -132h-178q0 225 242 278q74 16 159 17q182 0 284.5 -92.5t102.5 -280.5v-631h-139l-16 164q-90 -186 -326 -187q-158 0 -253 88.5t-95 219.5zM254 1247q25 104 72 158.5 t100 54.5t123 -35q94 -47 121.5 -59t54.5 -12t55.5 25.5t48.5 80.5l72 -47q-23 -98 -73 -151.5t-92 -53.5t-76.5 12.5t-96 44t-83 40t-44.5 8.5q-66 0 -117 -105zM295 287q0 -184 209 -185q117 0 200.5 82t88.5 211v13q-145 41 -254 41t-176.5 -39t-67.5 -123z" />
<glyph unicode="&#xe4;" horiz-adv-x="1128" d="M123 285q0 131 105.5 204.5t263 73.5t301.5 -53v125q0 133 -55.5 190.5t-161 57.5t-170 -42t-64.5 -132h-178q0 225 242 278q74 16 159 17q182 0 284.5 -92.5t102.5 -280.5v-631h-139l-16 164q-90 -186 -326 -187q-158 0 -253 88.5t-95 219.5zM295 287q0 -184 209 -185 q119 0 204 85.5t85 220.5q-145 41 -254 41t-176.5 -39t-67.5 -123zM297 1341q0 43 29.5 73t76.5 30t79 -30t32 -73t-31.5 -72.5t-79.5 -29.5q-47 0 -76.5 29.5t-29.5 72.5zM641 1341q0 43 30.5 73t77 30t78 -30t31.5 -73t-31.5 -72.5t-78 -29.5t-77 29.5t-30.5 72.5z" />
<glyph unicode="&#xe8;" horiz-adv-x="1052" d="M104 491.5q0 233.5 124 373t330 139.5t307.5 -160t70.5 -389h-670q0 -152 74 -249t207 -97q203 0 231 178h166q-23 -147 -130 -228.5t-267 -81.5q-197 0 -320 140.5t-123 374zM258 1364l68 143l481 -272l-47 -102zM268 578h523q0 204 -127 272q-45 25 -111 24 q-127 0 -199.5 -84.5t-85.5 -211.5z" />
<glyph unicode="&#xe9;" horiz-adv-x="1052" d="M104 491.5q0 -233.5 123 -374t320 -140.5q160 0 267.5 81t129.5 229h-166q-29 -178 -231 -178q-133 0 -207 97t-74 249h670q31 229 -70.5 389t-307.5 160t-330 -139.5t-124 -373zM256 1235l481 272l66 -143l-500 -231zM268 578q12 127 85 211.5t199 84.5t182.5 -84.5 t56.5 -211.5h-523z" />
<glyph unicode="&#xea;" horiz-adv-x="1052" d="M111 491.5q0 233.5 123.5 373t329.5 139.5t307.5 -160t70.5 -389h-670q0 -152 74 -249t207 -97q203 0 231 178h166q-23 -147 -130 -228.5t-267 -81.5q-197 0 -319.5 140.5t-122.5 374zM170 1212l369 320l366 -320l-102 -79l-264 221l-267 -221zM274 578h523 q0 204 -125 272q-47 25 -115 24q-125 0 -197.5 -84.5t-85.5 -211.5z" />
<glyph unicode="&#xeb;" horiz-adv-x="1052" d="M104 491.5q0 233.5 124 373t330 139.5t307.5 -160t70.5 -389h-670q0 -152 74 -249t207 -97q203 0 231 178h166q-23 -147 -130 -228.5t-267 -81.5q-197 0 -320 140.5t-123 374zM252 1341q0 43 29.5 73t76.5 30t79 -30t32 -73t-31.5 -72.5t-79.5 -29.5q-47 0 -76.5 29.5 t-29.5 72.5zM268 578h523q0 204 -127 272q-45 25 -111 24q-127 0 -199.5 -84.5t-85.5 -211.5zM596 1341q0 43 30.5 73t77 30t78 -30t31.5 -73t-31.5 -72.5t-78 -29.5t-77 29.5t-30.5 72.5z" />
<glyph unicode="&#xec;" horiz-adv-x="612" d="M25 1354l67 143l481 -272l-47 -103zM217 0v981h162v-981h-162z" />
<glyph unicode="&#xed;" horiz-adv-x="612" d="M23 1225l481 272l65 -143l-499 -232zM217 0h162v981h-162v-981z" />
<glyph unicode="&#xee;" horiz-adv-x="612" d="M-70 1202l369 320l367 -320l-103 -80l-264 221l-266 -221zM217 0v981h162v-981h-162z" />
<glyph unicode="&#xef;" horiz-adv-x="612" d="M18 1341q0 43 30 73t77 30t79 -30t32 -73t-32 -72.5t-79 -29.5t-77 29.5t-30 72.5zM217 0v981h162v-981h-162zM362 1341q0 43 31 73t77 30t78 -30t32 -73t-32 -72.5t-78 -29.5t-77 29.5t-31 72.5z" />
<glyph unicode="&#xf1;" horiz-adv-x="1236" d="M207 0h162v481q4 178 79.5 278.5t198.5 100.5t189.5 -71.5t66.5 -213.5v-575h160v575q0 199 -97.5 314t-271.5 115q-233 0 -329 -213l-19 188h-139v-979zM303 1247q25 104 72 158.5t100 54.5t123 -35q94 -47 122 -59t54.5 -12t55 25.5t49.5 80.5l71 -47 q-23 -98 -73 -151.5t-92 -53.5t-76.5 12.5t-96 44t-83 40t-44.5 8.5q-66 0 -116 -105z" />
<glyph unicode="&#xf2;" horiz-adv-x="1120" d="M104 489q0 248 126 381.5t331 133.5t331 -133.5t126 -381.5q0 -246 -126 -379t-331 -133t-331 133.5t-126 378.5zM270 490.5q0 -175.5 72 -274.5t214 -99t220 99t78 274.5t-73.5 274.5t-216 99t-218.5 -99t-76 -274.5zM289 1354l67 143l482 -272l-47 -103z" />
<glyph unicode="&#xf3;" horiz-adv-x="1120" d="M104 489q0 -246 126 -379t331 -133t331 133.5t126 378.5q0 248 -126 381.5t-331 133.5t-331 -133.5t-126 -381.5zM270 490.5q0 175.5 76 274.5t218.5 99t216 -99t73.5 -274.5t-78 -274.5t-220 -99t-214 99t-72 274.5zM287 1225l481 272l66 -143l-500 -232z" />
<glyph unicode="&#xf4;" horiz-adv-x="1120" d="M104 489q0 248 126 381.5t331 133.5t331 -133.5t126 -381.5q0 -246 -126 -379t-331 -133t-331 133.5t-126 378.5zM193 1202l368 320l367 -320l-103 -80l-264 221l-266 -221zM270 490.5q0 -175.5 72 -274.5t214 -99t220 99t78 274.5t-73.5 274.5t-216 99t-218.5 -99 t-76 -274.5z" />
<glyph unicode="&#xf5;" horiz-adv-x="1120" d="M104 489q0 -246 126 -379t331 -133t331 133.5t126 378.5q0 248 -126 381.5t-331 133.5t-331 -133.5t-126 -381.5zM240 1247q25 104 71.5 158.5t100 54.5t120.5 -35q96 -47 124 -59t54.5 -12t55.5 25.5t49 80.5l72 -47q-23 -98 -73 -151.5t-92 -53.5t-77 12.5t-96.5 44 t-82.5 40t-44 8.5q-66 0 -117 -105zM270 490.5q0 175.5 76 274.5t218.5 99t216 -99t73.5 -274.5t-78 -274.5t-220 -99t-214 99t-72 274.5z" />
<glyph unicode="&#xf6;" horiz-adv-x="1120" d="M104 489q0 248 126 381.5t331 133.5t331 -133.5t126 -381.5q0 -246 -126 -379t-331 -133t-331 133.5t-126 378.5zM270 490.5q0 -175.5 72 -274.5t214 -99t220 99t78 274.5t-73.5 274.5t-216 99t-218.5 -99t-76 -274.5zM283 1341q0 43 29.5 73t76.5 30t79 -30t32 -73 t-32 -72.5t-79 -29.5t-76.5 29.5t-29.5 72.5zM627 1341q0 43 30.5 73t76.5 30t78 -30t32 -73t-32 -72.5t-78 -29.5t-76.5 29.5t-30.5 72.5z" />
<glyph unicode="&#xf9;" horiz-adv-x="1241" d="M178 358v623h162v-610q0 -248 229 -248q133 0 216 102.5t87 261.5v494h162v-981h-162v195q-100 -213 -325 -213q-166 0 -267.5 92t-101.5 284zM342 1432l68 143l481 -272l-47 -103z" />
<glyph unicode="&#xfa;" horiz-adv-x="1241" d="M178 358q0 -193 101.5 -284.5t267.5 -91.5q225 0 325 213v-195h162v981h-162v-477q0 -170 -83.5 -275.5t-219.5 -105.5q-229 0 -229 248v610h-162v-623zM340 1303l481 272l66 -143l-500 -232z" />
<glyph unicode="&#xfb;" horiz-adv-x="1241" d="M178 358v623h162v-610q0 -248 229 -248q133 0 216 102.5t87 261.5v494h162v-981h-162v195q-100 -213 -325 -213q-166 0 -267.5 92t-101.5 284zM248 1280l368 319l367 -319l-102 -80l-265 221l-266 -221z" />
<glyph unicode="&#xfc;" horiz-adv-x="1241" d="M178 358v623h162v-610q0 -248 229 -248q133 0 216 102.5t87 261.5v494h162v-981h-162v195q-100 -213 -325 -213q-166 0 -267.5 92t-101.5 284zM336 1341q0 43 29.5 73t76.5 30t79 -30t32 -73t-32 -72.5t-79 -29.5t-76.5 29.5t-29.5 72.5zM680 1341q0 43 30.5 73t77 30 t78 -30t31.5 -73t-31.5 -72.5t-78 -29.5t-77 29.5t-30.5 72.5z" />
<glyph unicode="&#x2c6;" horiz-adv-x="833" d="M49 1466l369 320l366 -320l-102 -80l-264 222l-266 -222z" />
<glyph unicode="&#x2dc;" horiz-adv-x="749" d="M47 1511q25 104 72 158.5t100 54.5t121 -34q96 -47 124 -59.5t54.5 -12.5t55 25.5t49.5 80.5l71 -47q-23 -98 -73 -151t-92 -53t-76.5 12t-96 44t-83 40t-44.5 8q-66 0 -116 -104z" />
<glyph unicode="&#x2000;" horiz-adv-x="900" />
<glyph unicode="&#x2001;" horiz-adv-x="1800" />
<glyph unicode="&#x2002;" horiz-adv-x="900" />
<glyph unicode="&#x2003;" horiz-adv-x="1800" />
<glyph unicode="&#x2004;" horiz-adv-x="600" />
<glyph unicode="&#x2005;" horiz-adv-x="450" />
<glyph unicode="&#x2006;" horiz-adv-x="300" />
<glyph unicode="&#x2007;" horiz-adv-x="300" />
<glyph unicode="&#x2008;" horiz-adv-x="225" />
<glyph unicode="&#x2009;" horiz-adv-x="360" />
<glyph unicode="&#x200a;" horiz-adv-x="100" />
<glyph unicode="&#x2010;" horiz-adv-x="714" d="M78 526v140h557v-140h-557z" />
<glyph unicode="&#x2011;" horiz-adv-x="714" d="M78 526v140h557v-140h-557z" />
<glyph unicode="&#x2012;" horiz-adv-x="714" d="M78 526v140h557v-140h-557z" />
<glyph unicode="&#x2013;" horiz-adv-x="970" d="M113 526v140h745v-140h-745z" />
<glyph unicode="&#x2014;" horiz-adv-x="1486" d="M113 526v140h1261v-140h-1261z" />
<glyph unicode="&#x2018;" horiz-adv-x="438" d="M74 1021q0 71 48 143.5t140 117.5l115 -59q-127 -66 -154 -156q47 -4 78 -30.5t31 -71.5t-32 -77t-89 -32t-97 47t-40 118z" />
<glyph unicode="&#x2019;" horiz-adv-x="438" d="M31 918q127 66 153 155q-47 4 -78.5 30.5t-31.5 72.5q0 45 32.5 75.5t91 30.5t96.5 -45t38 -117t-48 -144.5t-139 -119.5z" />
<glyph unicode="&#x202f;" horiz-adv-x="360" />
<glyph unicode="&#x205f;" horiz-adv-x="450" />
<glyph unicode="&#x25fc;" horiz-adv-x="983" d="M0 0v983h983v-983h-983z" />
</font>
</defs>
</svg>
