<?xml version="1.0" standalone="no"?>
<!DOCTYPE svg PUBLIC "-//W3C//DTD SVG 1.1//EN" "http://www.w3.org/Graphics/SVG/1.1/DTD/svg11.dtd" >
<svg xmlns="http://www.w3.org/2000/svg">
<metadata></metadata>
<defs>
<font id="minion_proregular" horiz-adv-x="983" >
<font-face units-per-em="2048" ascent="1489" descent="-559" />
<missing-glyph horiz-adv-x="464" />
<glyph unicode="&#xfb03;" horiz-adv-x="1634" d="M53 836l53 59h97v41q0 70 22 147q42 134 174 234q119 89 254 102q89 -3 150 -33.5t90 -74.5q70 67 151.5 105.5t151.5 43.5q143 -2 221 -98q26 -39 10 -72q-15 -33 -45 -53q-39 -22 -67 6q-26 30 -37.5 41.5t-40 35.5t-59 34t-66.5 10q-82 0 -137 -74q-64 -86 -64 -313 v-82h164q255 0 383 27v-717q0 -96 21.5 -119.5t119.5 -32.5v-53h-432v53q47 5 68.5 10.5t37.5 22t19.5 42.5t3.5 77v502q0 71 -15.5 88.5t-88.5 17.5h-281v-608q0 -95 22 -119t116 -33v-53h-431v53q49 5 71.5 10t38.5 22.5t19 42.5t3 77v608h-385v-600q0 -55 3 -81t19 -45 t40 -24.5t75 -11.5v-51h-434v53q34 3 52.5 6t36 10t24.5 16t13.5 27.5t7.5 41t1 59.5v600h-144zM365 895h385v53q0 74 18 148q17 62 43 106q-36 55 -94 93t-133 38q-102 0 -158 -90q-61 -91 -61 -293v-55z" />
<glyph unicode="&#xfb04;" horiz-adv-x="1640" d="M57 836l54 59h96v37q0 71 24 145q40 129 166 228q124 97 265 108q149 -5 237 -98q60 62 133.5 99.5t145.5 43.5q109 0 180 -49q13 5 26 11.5t33 19t27 16.5l18 -12v-1241q0 -95 23 -118t123 -32v-53h-437v53q48 4 70.5 9t37.5 22.5t18 42.5t3 76v1071q-26 40 -74 67 t-104 27q-91 0 -143 -70q-64 -83 -64 -311v-92h240q10 -13 4.5 -42.5t-22.5 -39.5h-219l-3 -608q0 -96 21.5 -119.5t116.5 -32.5v-53h-432v53q90 9 111.5 33t21.5 119v608h-385v-602q0 -53 3.5 -79.5t20 -44t39 -23t72.5 -11.5v-53h-434v53q50 5 73 10.5t40 23t20.5 44.5 t3.5 82v600h-144zM369 895h385v39q0 102 22 174q11 38 41 96q-32 51 -91.5 86t-133.5 35q-109 0 -166 -90q-57 -92 -57 -289v-51z" />
<glyph horiz-adv-x="2048" />
<glyph horiz-adv-x="2048" />
<glyph unicode="&#xd;" horiz-adv-x="2048" />
<glyph unicode=" "  horiz-adv-x="464" />
<glyph unicode="&#x09;" horiz-adv-x="464" />
<glyph unicode="&#xa0;" horiz-adv-x="464" />
<glyph unicode="!" horiz-adv-x="565" d="M166 96q0 51 33 85t82 34q51 0 83.5 -34t32.5 -85q0 -55 -32.5 -88t-85.5 -33q-48 0 -80.5 33.5t-32.5 87.5zM168 1300q0 33 27.5 47.5t85.5 14.5q55 0 80.5 -14.5t25.5 -47.5q0 -46 -14 -161q-24 -206 -60 -736q-7 -11 -35 -11t-34 11q-5 62 -17 235t-21.5 283.5 t-21.5 217.5q-16 131 -16 161z" />
<glyph unicode="&#x22;" horiz-adv-x="651" d="M86 1399l158 55l12 -10q-2 -13 -23 -195t-30 -254l-58 -24q-14 132 -33 268t-26 160zM391 1399l158 55l12 -10q-2 -15 -12 -105t-22 -190t-19 -154l-57 -24q-45 375 -60 428z" />
<glyph unicode="#" d="M49 412l23 118h202l60 279h-191l19 119h198l70 317h78l-70 -317h221l68 317h80l-68 -317h179l-19 -119h-186l-62 -279h176l-18 -118h-184l-78 -357h-78l76 357h-221l-78 -357h-78l78 357h-197zM354 530h219l62 279h-221z" />
<glyph unicode="$" d="M92 373l62 16q85 -276 315 -303v496l-74 32q-258 110 -258 314q0 127 87 220.5t245 111.5v159h72v-155q99 0 182 -27q13 -3 35.5 -8.5t34.5 -7.5q5 -37 19.5 -120t23.5 -136l-58 -15q-12 42 -22.5 69.5t-29.5 60.5t-42 53.5t-59.5 38t-83.5 24.5v-453l59 -22 q289 -105 289 -342q0 -145 -93 -240.5t-255 -115.5v-179h-72v174q-189 0 -319 84q-25 77 -58 271zM279 991q0 -148 190 -221v426q-92 -8 -141 -68t-49 -137zM541 88q91 12 142.5 72.5t51.5 146.5q0 81 -36 138.5t-134 101.5l-24 10v-469z" />
<glyph unicode="%" horiz-adv-x="1548" d="M100 928q0 65 17.5 128.5t52 119t93.5 90t134 34.5q60 0 110 -23t83.5 -60t57 -86t34 -99.5t10.5 -101.5t-10.5 -102t-34 -100t-57.5 -87t-84.5 -61t-110.5 -23t-110 23t-83.5 61t-57 86.5t-34 99.5t-10.5 101zM250 930q0 -47 6 -94t20.5 -99.5t45.5 -85.5t75 -33 q45 0 76.5 33t45.5 86.5t19 99t5 91.5q0 37 -2.5 73t-12 81t-24.5 78t-43.5 56t-65.5 23q-43 0 -74 -32.5t-45 -84.5t-20 -98.5t-6 -93.5zM326 -18l823 1353l68 -47l-828 -1354zM862 346q0 51 11 102.5t34.5 100.5t57.5 86.5t85 60.5t111 23q73 0 131.5 -34.5t92.5 -90 t51.5 -119t17.5 -127.5q0 -51 -10.5 -102t-34 -100t-57 -87t-83.5 -61t-110 -23q-74 0 -133 34.5t-93.5 90.5t-52.5 119t-18 127zM1012 348q0 -46 6 -93.5t21 -99.5t46.5 -85t75.5 -33q36 0 63 23t42 57t24 78.5t12 80t3 70.5q0 48 -5.5 95t-19.5 100t-45 85.5t-76 32.5 q-43 0 -74 -32t-46 -83.5t-21 -99.5t-6 -96z" />
<glyph unicode="&#x26;" horiz-adv-x="1456" d="M111 342q0 64 19 116t60.5 97t83.5 78.5t111 82.5q22 15 33 23q-148 138 -148 285q0 136 99.5 230t236.5 94q126 0 214.5 -81t88.5 -202q0 -106 -86 -180q-82 -69 -166 -125q190 -159 344 -318q63 98 123 236q31 72 7 99t-132 40v57h469v-57q-53 -6 -86.5 -15t-61 -31 t-43 -41.5t-46.5 -65.5q-32 -46 -93 -141t-85 -132q82 -80 187 -204.5t146 -204.5l-14 -19q-79 7 -154 34t-96 50q-90 105 -178 195q-107 -144 -211.5 -207.5t-218.5 -63.5q-93 0 -171 33t-127.5 86t-77 118.5t-27.5 133.5zM285 401q0 -71 25 -128t66.5 -91.5t91 -52.5 t101.5 -18q96 0 184 54t144 132q-167 185 -426 397q-186 -132 -186 -293zM418 1073q0 -76 44 -136.5t142 -135.5q76 57 114 119.5t38 142.5q0 90 -48.5 152.5t-123.5 62.5q-72 0 -119 -57t-47 -148z" />
<glyph unicode="'" horiz-adv-x="346" d="M86 1399l158 55l12 -10q-2 -16 -23 -196t-30 -253l-58 -24q-14 133 -33 268t-26 160z" />
<glyph unicode="(" horiz-adv-x="708" d="M143 555v2q0 284 108.5 516.5t326.5 380.5l36 -49q-152 -127 -236.5 -355.5t-84.5 -496.5q0 -267 85 -496.5t236 -357.5l-36 -45q-218 147 -326.5 380.5t-108.5 520.5z" />
<glyph unicode=")" horiz-adv-x="708" d="M92 -301q154 127 239 356t85 498q0 267 -86 497.5t-238 354.5l39 49q220 -150 326 -381t106 -518v-4q0 -288 -105.5 -517.5t-326.5 -381.5z" />
<glyph unicode="*" horiz-adv-x="827" d="M82 1212l31 43l247 -163l119 270l49 -12l-55 -285l272 -4v-51l-270 -52l80 -282l-47 -19l-143 267l-250 -158l-29 45l209 193z" />
<glyph unicode="+" horiz-adv-x="1187" d="M106 471v102h431v424h118v-424h428v-102h-428v-471h-118v471h-431z" />
<glyph unicode="," horiz-adv-x="466" d="M90 -180q158 65 158 174q0 53 -35.5 88t-91.5 49q-9 0 -18 13.5t-9 35.5q0 37 30.5 61.5t70.5 24.5q64 0 125 -62t61 -159q0 -57 -23.5 -105.5t-63.5 -83t-84.5 -57.5t-96.5 -39z" />
<glyph unicode="-" horiz-adv-x="729" d="M117 406l28 112h469l-28 -112h-469z" />
<glyph unicode="." horiz-adv-x="466" d="M119 94q0 50 32.5 83.5t81.5 33.5t82 -33.5t33 -83.5q0 -54 -33 -86.5t-84 -32.5q-48 0 -80 33t-32 86z" />
<glyph unicode="/" horiz-adv-x="677" d="M51 -90l443 1452h116l-444 -1452h-115z" />
<glyph unicode="0" d="M72 639q0 93 13.5 183t45.5 177.5t79.5 153.5t120.5 106.5t163 40.5q88 0 159.5 -39t118 -103t77.5 -150.5t44.5 -178.5t13.5 -190q0 -77 -9.5 -153t-29.5 -151.5t-53.5 -139.5t-78 -114t-107.5 -78t-137 -28q-111 0 -195 57t-131.5 154t-70.5 211t-23 242zM254 641 q0 -114 12.5 -215t38.5 -189.5t74 -140t113 -51.5q66 0 113.5 51t72.5 140t36 188t11 215q0 92 -6.5 174t-23.5 160.5t-43.5 134.5t-68.5 90.5t-96 34.5q-66 0 -113.5 -50.5t-72.5 -139t-36 -187.5t-11 -215z" />
<glyph unicode="1" d="M223 0v55q50 4 79 7.5t53.5 12.5t35.5 18.5t18.5 31.5t9 44.5t1.5 63.5v789q0 78 -15.5 97t-82.5 22l-99 4v49q179 32 365 106v-1067q0 -41 1.5 -63.5t9 -44.5t18.5 -31.5t35.5 -18.5t54 -12.5t79.5 -7.5v-55h-563z" />
<glyph unicode="2" d="M66 0v47q229 229 329 348q57 69 95 119.5t79 117t61.5 131.5t20.5 128q0 129 -63 200.5t-176 71.5q-155 0 -281 -190l-45 41l117 166q111 120 276 120q91 0 168.5 -41t126.5 -121t49 -184q0 -127 -60 -233t-210 -266l-289 -305h381q61 0 89.5 7.5t53.5 35.5t56 94l57 -19 q-16 -51 -42 -151.5t-30 -116.5h-763z" />
<glyph unicode="3" d="M94 119q2 32 47 67q26 20 49 0q117 -104 254 -104q112 0 180 82t68 229q0 67 -24 120t-62.5 83t-83 45.5t-90.5 15.5q-58 0 -131 -22l-12 59q75 25 130 50.5t101.5 60t70 80t23.5 100.5q0 92 -54.5 142.5t-139.5 50.5q-137 0 -246 -162l-41 41l88 129q46 50 114 82 t146 32h2q135 0 219 -76t84 -194q0 -85 -63 -145q-45 -48 -139 -111v-4q133 -26 208.5 -111t75.5 -200q0 -79 -29.5 -150.5t-77 -123t-106 -93t-119.5 -66.5t-113.5 -38t-90.5 -13q-63 0 -121 23t-84 47q-39 36 -33 74z" />
<glyph unicode="4" d="M41 365v57q376 558 614 872h82v-833h197v-96h-197v-148q0 -29 0.5 -46t3.5 -35t7 -27t14 -19t20.5 -14t31.5 -9t42 -7t55 -5v-55h-524v55q49 4 76 7t50.5 11.5t33.5 16.5t17 28.5t8 40t1 58.5v148h-532zM168 461h405v604h-4q-216 -300 -401 -604z" />
<glyph unicode="5" d="M100 117q3 34 45 67q30 20 54 -2q124 -102 254 -102q122 0 190 89t68 214q0 140 -85.5 224.5t-248.5 84.5q-107 0 -209 -41l78 625h585l13 -16l-53 -134h-478l-53 -381q161 64 227 64q95 0 172 -30t125 -80t73.5 -111.5t25.5 -126.5q0 -191 -183 -340 q-82 -67 -177.5 -105.5t-176.5 -40.5q-65 0 -125.5 23.5t-85.5 48.5q-38 35 -35 70z" />
<glyph unicode="6" d="M76 487q0 129 34.5 243.5t88.5 195.5t126 147.5t140.5 106.5t138.5 65q130 46 262 68l13 -66q-117 -21 -222 -71q-43 -20 -82 -44.5t-86.5 -66t-85.5 -90.5t-71.5 -120t-50.5 -153l137 68q79 35 129 35q162 0 265 -109t103 -268q0 -188 -119 -320.5t-300 -132.5 q-183 0 -301.5 140t-118.5 372zM258 492q0 -124 32 -225t94 -161.5t144 -60.5q57 0 100 28t66 75t34 98.5t11 107.5q0 88 -28.5 162.5t-92.5 124t-153 49.5q-99 0 -195 -55q-12 -47 -12 -143z" />
<glyph unicode="7" d="M96 973q22 138 37 303h782l17 -25q-102 -218 -294.5 -637.5t-285.5 -617.5l-151 -21l-15 23q357 582 609 1128h-443q-36 0 -58 -1.5t-42 -8.5t-30.5 -15t-23 -28.5t-20.5 -40.5t-22 -59h-60z" />
<glyph unicode="8" d="M92 322q0 106 92 194q60 56 183 131q-224 128 -224 318q0 134 103.5 234.5t263.5 100.5q144 0 238 -87.5t94 -215.5q0 -92 -58 -163q-50 -56 -163 -132q60 -34 103 -65.5t84 -74.5t62 -97.5t21 -118.5q0 -86 -38.5 -158.5t-99.5 -117.5t-131 -70t-137 -25 q-170 0 -281.5 93.5t-111.5 253.5zM256 334q0 -136 73.5 -214.5t178.5 -78.5q95 0 157 68t62 184q0 55 -23.5 102t-70.5 86.5t-94 68.5t-117 64q-76 -51 -121 -124.5t-45 -155.5zM297 1024q0 -44 15 -82t36.5 -65t61 -55t71 -45.5t84.5 -43.5q125 98 125 254 q0 121 -61 184.5t-142 63.5q-86 0 -138 -63t-52 -148z" />
<glyph unicode="9" d="M78 864q0 76 29 152.5t81.5 140t134 103.5t177.5 40q123 0 215.5 -70t139 -184.5t46.5 -254.5q0 -273 -133.5 -470t-349.5 -286q-76 -31 -159 -48.5t-128 -17.5l-10 62q223 37 378.5 186t207.5 381l-140 -74q-58 -32 -123 -32q-162 0 -264 105t-102 267zM254 938 q0 -141 74.5 -236.5t199.5 -95.5q109 0 185 58q8 63 8 135q0 75 -12 145.5t-39 138.5t-79.5 109t-123.5 41q-56 0 -99 -28.5t-66.5 -74t-35.5 -94.5t-12 -98z" />
<glyph unicode=":" horiz-adv-x="466" d="M121 727q0 51 33 84t84 33q47 0 78.5 -33t31.5 -84q0 -53 -31.5 -86t-80.5 -33q-50 0 -82.5 33.5t-32.5 85.5zM123 94q0 49 33 83t80 34q49 0 81.5 -33.5t32.5 -83.5q0 -54 -33 -86.5t-84 -32.5q-47 0 -78.5 33t-31.5 86z" />
<glyph unicode=";" horiz-adv-x="466" d="M92 -180q156 65 156 174q0 53 -35.5 88.5t-91.5 48.5q-10 2 -18.5 14.5t-8.5 34.5q0 38 30.5 62t70.5 24q64 0 125 -62t61 -159q0 -57 -23.5 -106t-63.5 -83.5t-84 -58t-95 -39.5zM119 727q0 51 31.5 84t82.5 33q48 0 80.5 -33t32.5 -84q0 -52 -32.5 -85.5t-82.5 -33.5 q-49 0 -80.5 33t-31.5 86z" />
<glyph unicode="&#x3c;" horiz-adv-x="1130" d="M123 471v96l885 471v-114l-764 -404v-4l764 -401v-115z" />
<glyph unicode="=" horiz-adv-x="1187" d="M106 283v102h977v-102h-977zM106 657v103h977v-103h-977z" />
<glyph unicode="&#x3e;" horiz-adv-x="1130" d="M123 0v115l766 401v4l-766 404v114l885 -471v-96z" />
<glyph unicode="?" horiz-adv-x="776" d="M119 1210q0 39 43 74q42 37 98 57.5t88 20.5h2q128 0 229 -101t101 -227q0 -54 -22.5 -95.5t-75.5 -84.5q-13 -11 -62 -47t-80 -61.5t-59.5 -64.5t-28.5 -73q0 -49 23 -85.5t74 -80.5l-37 -47q-73 27 -150.5 105t-77.5 162q0 53 38.5 104.5t133.5 124.5q3 2 34 25 t40.5 30.5t36 29.5t37.5 35.5t27 33t22 37.5t6 36q0 54 -33 83.5t-90 29.5q-44 0 -87 -17.5t-69.5 -38t-48 -38t-28.5 -17.5q-23 0 -53.5 28t-30.5 62zM266 94q0 49 33 83t80 34t80 -34t33 -83q0 -53 -32.5 -86t-82.5 -33q-47 0 -79 33t-32 86z" />
<glyph unicode="@" horiz-adv-x="1542" d="M106 426q1 140 44.5 262.5t118.5 212.5t174 155t212.5 97.5t231.5 32.5q134 0 244 -42.5t181 -115.5t109.5 -168t38.5 -201q0 -138 -63 -254.5t-174.5 -184.5t-245.5 -68q-52 0 -76 19t-23.5 51t7.5 75l22 119l-4 2q-57 -84 -169.5 -175t-178.5 -91q-40 0 -69 44t-29 128 q0 95 40.5 200t123.5 185q159 148 329 151q31 0 103 -16q39 -8 69 -8q-48 -192 -98 -465q-15 -82 -7 -108.5t46 -24.5q54 2 106 29.5t95.5 78t70.5 132.5t27 181q0 208 -134.5 327.5t-350.5 119.5q-188 0 -334.5 -85.5t-225.5 -235.5t-79 -339q0 -84 17.5 -161t59 -149.5 t103 -125t157 -84.5t213.5 -32q84 0 182.5 25.5t145.5 51.5l23 -57q-192 -113 -418 -113q-98 0 -188 24.5t-168 76t-135.5 124.5t-90.5 175.5t-33 224.5zM612 375q0 -92 43 -92q33 0 110 64.5t161 180.5q31 105 51 228q-50 22 -113 22q-75 0 -133 -61q-47 -53 -83 -150.5 t-36 -191.5z" />
<glyph unicode="A" horiz-adv-x="1415" d="M41 0v57q55 8 82 15t54.5 30t46.5 60t46 108l424 1073l64 19q49 -135 185.5 -517t209.5 -581q25 -69 42.5 -105.5t44.5 -59.5t55 -30t83 -12v-57h-501v57q97 13 119 33q11 11 11 31t-10 49q-21 62 -112 315h-436q-65 -181 -91 -264q-11 -34 -16.5 -56t-3.5 -40.5 t10 -28.5t27 -18.5t45 -12.5t67 -8v-57h-446zM479 573h377l-180 523h-4q-36 -94 -100.5 -271.5t-92.5 -251.5z" />
<glyph unicode="B" horiz-adv-x="1204" d="M74 0v57q49 3 75.5 6t51 12.5t34 19.5t17.5 34t9 50t1 73v827q0 48 -1 73t-7.5 50t-15.5 34.5t-31 19t-47 12.5t-70 6v57h526q211 0 308 -69q53 -36 83.5 -99.5t30.5 -134.5q0 -56 -18.5 -103.5t-46 -79.5t-66 -58t-73 -40.5t-72.5 -25.5v-4q360 -55 360 -326 q0 -101 -50.5 -179.5t-143.5 -129.5q-150 -82 -402 -82h-452zM436 256q0 -110 35 -148t135 -38q65 1 120 18t100 52t70.5 94t25.5 137q0 301 -394 301h-92v-416zM436 741h96q164 0 241 66t77 197q0 114 -67 188t-205 74q-84 0 -115 -21q-15 -9 -21 -30.5t-6 -71.5v-402z" />
<glyph unicode="C" horiz-adv-x="1361" d="M90 647q0 212 101.5 375.5t281 251.5t406.5 88q74 0 147 -10.5t141 -27t74 -17.5q34 -244 41 -308l-59 -16q-41 161 -137 233t-263 72q-124 0 -225.5 -50t-165.5 -134t-98.5 -191t-34.5 -225q0 -141 40.5 -262t111.5 -204.5t170.5 -131t214.5 -47.5q149 0 244.5 76.5 t176.5 238.5l60 -20q-69 -225 -117 -315q-2 0 -36.5 -7.5t-55 -12t-62.5 -12t-74 -11.5t-73 -7.5t-76 -3.5q-148 0 -271.5 39.5t-207.5 105.5t-142.5 154t-85 183.5t-26.5 195.5z" />
<glyph unicode="D" horiz-adv-x="1505" d="M70 0v55q49 3 76 6.5t51.5 12.5t35 19.5t18.5 34.5t9.5 51t1.5 75v823q0 48 -1.5 75.5t-9 51t-16.5 34t-32.5 19t-46.5 11.5t-68 6v57h574q397 0 577 -174q81 -77 127.5 -189t46.5 -251q0 -355 -252 -547q-220 -170 -608 -170h-483zM436 268q0 -113 49.5 -153.5 t167.5 -40.5q138 0 247 49.5t176 135t101.5 194.5t34.5 235q0 164 -60.5 293t-180.5 199q-136 84 -348 84q-126 0 -160 -27q-14 -10 -20.5 -34.5t-6.5 -82.5v-852z" />
<glyph unicode="E" horiz-adv-x="1163" d="M59 0v57q51 4 80 7.5t54.5 13t37 20.5t20 35t10 50.5t1.5 72.5v815q0 49 -1.5 77.5t-9.5 53t-16.5 35t-32.5 19.5t-47 12t-69 6v57h913l17 -295l-60 -8q-22 106 -65 174q-22 34 -72 47t-160 13h-155q-47 0 -57.5 -10.5t-10.5 -55.5v-467h193q50 0 79.5 1.5t54.5 8.5 t37 15t22.5 29t15.5 40.5t12 59.5h59v-391h-59q-8 40 -13 62t-16.5 42.5t-23 28.5t-37 15t-53 8t-76.5 1h-195v-387q0 -73 11 -110t38 -56q18 -13 53.5 -19t63.5 -6.5t96 -0.5q116 0 170 14.5t88 54.5q57 67 103 193l59 -8q-35 -197 -71 -324h-988z" />
<glyph unicode="F" horiz-adv-x="1083" d="M82 0v57q46 3 71 6.5t48 12.5t33 20t17.5 35t9 51.5t1.5 75.5v817q0 48 -1.5 75.5t-9 51.5t-16.5 34.5t-32 19.5t-46.5 12t-68.5 6v57h901q2 -65 21 -301l-60 -8q-14 65 -26 100t-31 64q-27 44 -73.5 60t-160.5 16h-155q-46 0 -57 -11t-11 -55v-487h211q59 0 92.5 4 t57.5 10.5t36.5 27t19 42t15.5 67.5h60v-395h-60q-7 41 -12 61.5t-15.5 43t-22.5 31t-36.5 16.5t-55 10t-79.5 2h-211v-371q0 -48 1.5 -75.5t10.5 -52t19.5 -35t37 -19.5t54.5 -12.5t80 -6.5v-57h-557z" />
<glyph unicode="G" horiz-adv-x="1464" d="M90 657q0 138 43 254.5t117 198.5t173.5 139.5t213 85t235.5 27.5q60 0 127.5 -8t107 -15.5t97.5 -21t64 -14.5q13 -156 30 -320l-57 -12q-18 92 -54.5 156t-90 98.5t-115 49.5t-139.5 15q-239 0 -391 -165t-152 -443q0 -91 21 -180.5t66.5 -173.5t110.5 -147t161 -101.5 t210 -38.5q111 0 179 35q34 19 49.5 47t15.5 88v174q0 41 -1.5 63.5t-9.5 44t-19.5 30.5t-39 18t-59 12.5t-86.5 7.5v57h520v-57q-92 -12 -111.5 -34t-19.5 -113v-176q0 -128 14 -195l-65 -15t-75.5 -17.5t-73 -15t-83 -14t-78 -8.5t-83.5 -4q-337 0 -544.5 190.5 t-207.5 497.5z" />
<glyph unicode="H" horiz-adv-x="1568" d="M78 1274v57h530v-57q-43 -3 -67 -6.5t-46.5 -12t-31.5 -19.5t-16.5 -34t-9 -50t-1.5 -73v-331h699v331q0 46 -1.5 73t-9.5 50t-17 33.5t-32.5 19.5t-47.5 12t-69 7v57h535v-57q-47 -4 -72.5 -7t-49.5 -12t-33.5 -19.5t-17.5 -34t-9.5 -50t-1.5 -72.5v-827q0 -47 1.5 -74 t9.5 -50t17.5 -33.5t33.5 -19.5t48.5 -12t71.5 -6v-57h-549v57q50 3 76 6t51.5 12t35.5 19.5t18.5 33.5t10 50t1.5 74v407h-699v-407q0 -46 1.5 -73t9.5 -50t18 -34t34 -19.5t49.5 -12t72.5 -6.5v-57h-539v57q46 3 70.5 6t48.5 12t33 19.5t17 33.5t9.5 50t1.5 74v827 q0 47 -1.5 73.5t-9.5 50t-17.5 34t-33.5 19.5t-49.5 12t-72.5 6z" />
<glyph unicode="I" horiz-adv-x="698" d="M78 0v57q47 3 72.5 6.5t49.5 12.5t33.5 19.5t17.5 34.5t9.5 51.5t1.5 74.5v819q0 47 -1.5 74.5t-9.5 51.5t-17.5 34.5t-33.5 19.5t-49.5 12.5t-72.5 6.5v57h543v-57q-47 -3 -72.5 -6.5t-49.5 -12.5t-34 -19.5t-18 -34.5t-9.5 -51.5t-1.5 -74.5v-819q0 -48 1.5 -75.5 t9.5 -51.5t18 -34.5t34 -19.5t49.5 -12t72.5 -6v-57h-543z" />
<glyph unicode="J" horiz-adv-x="673" d="M55 -279q160 76 197 267q20 122 20 391v696q0 70 -4 103t-25.5 56t-53 29t-99.5 11v57h531v-57q-65 -5 -95 -11t-51 -29t-25 -56.5t-4 -102.5v-764q0 -202 -38 -320t-138 -210q-103 -93 -190 -119z" />
<glyph unicode="K" horiz-adv-x="1378" d="M84 1274v57h528v-57q-44 -3 -68.5 -6.5t-47.5 -13t-33 -21t-17.5 -36t-9.5 -54t-2 -78.5v-358q59 13 144 92q213 205 342 364q42 49 42 71q0 4 -1 6q-6 22 -74 28l-47 6v57h491v-57q-117 -11 -176.5 -38.5t-155.5 -115.5q-81 -73 -362 -358q189 -239 481 -557 q79 -85 125.5 -112t122.5 -36v-57h-313q-121 135 -508 596q-35 39 -58.5 49.5t-52.5 5.5v-389q0 -48 1.5 -76.5t10 -53t19 -36t34.5 -20.5t50.5 -12.5t73.5 -6.5v-57h-533v57q43 3 67 6.5t46.5 13t31.5 20.5t16.5 35.5t9 53t1.5 76.5v803q0 51 -1.5 80t-9.5 54t-17 36 t-32.5 20.5t-47.5 12.5t-70 6z" />
<glyph unicode="L" horiz-adv-x="1101" d="M74 0v57q48 3 74.5 6.5t50.5 12.5t34 20t18 35.5t9.5 51.5t1.5 75v819q0 48 -1 74.5t-8.5 51t-17 34.5t-33 19t-48.5 12t-72 6v57h534v-57q-46 -3 -70 -6t-48 -11.5t-33 -19t-17.5 -34t-10 -51.5t-1.5 -75v-809q0 -84 10 -120.5t37 -51.5q46 -26 197 -26q92 0 144 12.5 t85 50.5q61 68 105 201l61 -12q-36 -189 -74 -322h-927z" />
<glyph unicode="M" horiz-adv-x="1824" d="M53 0v57q92 9 128 34t46 89q24 144 39 375l29 426q5 75 7 113v19q0 29 -4 57q-6 37 -14.5 51t-34.5 27.5t-52 17t-80 8.5v57h336l467 -1026l475 1026h348v-57q-33 -3 -50 -4.5t-39.5 -5.5t-33 -7t-24 -11t-18.5 -15t-12 -21t-8.5 -27.5t-3.5 -37t-1.5 -46t1.5 -57.5 l19 -741q2 -63 3.5 -93.5t9.5 -62.5t17 -43t33.5 -23t50.5 -15t76 -7v-57h-538v57q47 4 71.5 7t47.5 15t31.5 23t15.5 43t7.5 62.5t0.5 93.5l-8 836h-9l-499 -1123h-41l-459 1094h-4l-31 -584q-7 -150 -7 -266q0 -39 1 -74q3 -70 41 -93t147 -34v-57h-477z" />
<glyph unicode="N" horiz-adv-x="1521" d="M41 1274v57h301l856 -1028h6v504q0 240 -14 340q-7 70 -50 96t-151 31v57h484v-57q-89 -5 -128 -31t-45 -90q-12 -95 -12 -346v-825h-63l-873 1073h-4v-514q0 -228 12 -346q7 -76 48.5 -104t148.5 -34v-57h-485v57q91 5 132 33t48 100q12 126 12 351v450 q0 110 -6.5 140.5t-34.5 66.5q-32 38 -70.5 54t-111.5 22z" />
<glyph unicode="O" horiz-adv-x="1529" d="M90 651q0 139 48 267t134.5 227t218.5 158t289 59q130 0 249.5 -49t210.5 -136t145.5 -216t54.5 -279q0 -162 -54 -297.5t-147 -225.5t-217.5 -140t-265.5 -50q-184 0 -336 87.5t-241 244t-89 350.5zM299 709q0 -190 64.5 -342.5t178.5 -238t257 -85.5q87 0 164 36.5 t137.5 107t95.5 184t35 256.5q0 158 -39.5 285t-107.5 208t-157.5 124.5t-191.5 43.5q-87 0 -164.5 -37t-138.5 -107.5t-97 -182.5t-36 -252z" />
<glyph unicode="P" horiz-adv-x="1153" d="M82 0v57q67 5 98.5 11.5t52.5 29.5t25 56t4 102v819q0 49 -1.5 77t-9 52t-16 34.5t-31 19t-44.5 11t-66 5.5v57h506q229 0 346 -84q131 -100 131 -289q0 -96 -33.5 -173.5t-91 -127t-127 -79t-147.5 -39.5q-28 -4 -55 -4l-37 2l-152 38v-321q0 -47 1.5 -74.5t10.5 -51 t19.5 -34t37.5 -19.5t54.5 -12t79.5 -6v-57h-555zM434 643q68 -25 150 -25q43 0 82.5 9t79.5 33t69 60.5t47.5 95.5t18.5 134q0 157 -87.5 236.5t-222.5 79.5q-89 0 -114 -25q-23 -17 -23 -96v-502z" />
<glyph unicode="Q" horiz-adv-x="1525" d="M90 645q0 142 48 271t135 228.5t220.5 158.5t292.5 59q129 0 247.5 -49.5t208.5 -137t144 -217.5t54 -280q0 -132 -38 -247.5t-104 -198.5t-148 -141t-175 -87q253 -175 500 -287l-17 -43h-22q-121 0 -240 31q-56 15 -178 81.5t-291 184.5q-104 5 -220 48.5t-206 130.5 q-96 90 -153.5 218.5t-57.5 276.5zM299 700q0 -257 115.5 -434.5t298.5 -214.5l139 45q9 -6 27.5 -19.5t27.5 -19.5q63 18 120 62t103.5 112t73.5 168t27 219q0 156 -37.5 283.5t-104 211.5t-156.5 129.5t-196 45.5q-87 0 -164.5 -37.5t-139 -109t-98 -185.5t-36.5 -256z " />
<glyph unicode="R" horiz-adv-x="1271" d="M78 0v57q47 3 72.5 6.5t49.5 12.5t33.5 19.5t17.5 34.5t9.5 51.5t1.5 74.5v823q0 47 -1.5 74t-9.5 50.5t-16.5 33.5t-32.5 18.5t-46.5 11.5t-69.5 7v57h508q223 0 326 -69q65 -41 101 -110t36 -159q0 -234 -260 -352q54 -102 182 -295q103 -148 166 -213q64 -74 147 -96 l-8 -53q-49 0 -72 2q-118 6 -190 46.5t-141 139.5q-25 35 -55.5 82t-50.5 79t-55 90.5t-46 76.5q-28 45 -63.5 63.5t-110.5 18.5h-66v-326q0 -35 1 -58t4.5 -44.5t8 -34t16 -23.5t22.5 -16.5t32 -10.5t41.5 -7t54.5 -5v-57h-536zM434 647h98q151 0 222 60q112 85 112 254 q0 80 -24.5 140t-67.5 94.5t-95 51.5t-112 17q-82 0 -110 -21q-23 -14 -23 -90v-506z" />
<glyph unicode="S" horiz-adv-x="970" d="M84 360l61 15q10 -42 26 -83t44.5 -87.5t64 -81t88 -57.5t113.5 -23q116 0 181 66t65 180q0 44 -14 82.5t-34.5 66.5t-58 57.5t-71.5 49.5t-88 49q-124 68 -171 103q-167 124 -167 300q0 153 115 259t307 106q111 0 258 -47q1 -8 35 -283l-60 -10q-12 45 -24 78t-34 72 t-49 63t-68.5 40.5t-92.5 16.5q-111 0 -169 -65.5t-58 -157.5q0 -55 17 -98.5t53.5 -79.5t79.5 -63.5t110 -61.5q144 -75 203 -121q151 -117 151 -289q0 -164 -127 -275.5t-328 -111.5q-92 0 -200 31q-46 14 -103 43q-17 53 -55 317z" />
<glyph unicode="T" horiz-adv-x="1263" d="M57 1014q21 261 25 368h41q20 -33 43 -42t70 -9h808q40 0 59.5 10t43.5 41h43q4 -182 22 -362l-61 -6q-26 128 -64 182q-28 39 -69.5 52.5t-153.5 13.5h-143v-1010q0 -45 1.5 -70.5t10 -49t20.5 -34.5t37.5 -20.5t56.5 -13.5t83 -7v-57h-586v57q50 3 80 7t55 13.5 t36.5 20.5t19.5 34.5t10 49.5t2 70v1010h-127q-122 0 -169.5 -14t-68.5 -50q-23 -32 -59 -163q-1 -5 -2 -7.5t-2 -6.5t-2 -7h-60z" />
<glyph unicode="U" horiz-adv-x="1507" d="M68 1274v57h528v-57q-45 -3 -69 -6t-47 -12t-32.5 -20t-17 -36t-9 -54t-1.5 -79v-465q0 -250 98 -385t287 -135q108 0 184.5 43t120 124t63 183.5t19.5 235.5v153q0 228 -14 338q-7 60 -48.5 83.5t-150.5 31.5v57h487v-57q-94 -6 -133 -32t-45 -89q-12 -110 -12 -332 v-168q0 -190 -35 -320t-119 -220q-70 -71 -166 -106.5t-202 -35.5q-201 0 -328 99q-93 71 -136.5 188.5t-43.5 298.5v510q0 37 -1 61.5t-5 46.5t-8 35t-15.5 24.5t-21.5 16.5t-32 10.5t-41 7.5t-54 5z" />
<glyph unicode="V" horiz-adv-x="1439" d="M35 1274v57h502v-57q-106 -10 -126 -32q-9 -9 -9 -27q0 -24 16 -62q109 -311 340 -895h4q245 620 323 862q17 51 17 81q0 22 -10 33q-22 25 -146 40v57h461v-57q-57 -7 -86.5 -14.5t-58 -32t-48.5 -61.5t-51 -109q-296 -725 -426 -1080h-63q-243 666 -424 1117 q-43 110 -81 140.5t-134 39.5z" />
<glyph unicode="W" horiz-adv-x="1988" d="M33 1274v57h497v-57q-110 -13 -129 -37q-8 -10 -8 -30q0 -27 15 -72q180 -619 249 -844h5q45 141 159 489t172 533h60q95 -278 358 -1024h4q67 213 138 464.5t94 356.5q12 46 12 77q1 31 -11 45q-24 30 -141 42v57h451v-57q-39 -5 -61.5 -9.5t-44.5 -14.5t-34.5 -21.5 t-27.5 -35.5t-25.5 -51t-27.5 -73q-122 -354 -338 -1092h-64q-50 146 -113.5 327t-137 390t-107.5 305h-4q-52 -163 -165 -504t-169 -518h-64q-80 273 -335 1096q-20 65 -35.5 100.5t-40.5 57.5t-52.5 29.5t-78.5 13.5z" />
<glyph unicode="X" horiz-adv-x="1339" d="M14 0v57q90 9 143.5 34.5t96.5 82.5q98 121 336 490q-64 101 -275 438q-67 102 -110.5 131t-151.5 41v57h504v-57q-89 -10 -106.5 -28.5t10.5 -57.5q75 -128 233 -373q137 211 203 332q26 46 26 72q0 12 -5 19q-17 24 -117 36v57h467v-57q-80 -8 -123 -22t-77.5 -43.5 t-82.5 -92.5q-95 -130 -248 -366q203 -321 322 -504q71 -108 123 -143.5t159 -45.5v-57h-538v57q94 10 113 30q7 8 7 20q0 20 -18 51q-166 273 -270 438q-141 -215 -250 -414q-26 -45 -26 -70q-1 -12 5 -20q18 -24 119 -35v-57h-469z" />
<glyph unicode="Y" horiz-adv-x="1298" d="M31 1274v57h489v-57q-55 -7 -84 -15t-37 -22.5t-3.5 -29.5t20.5 -44q39 -73 85 -154t105.5 -183t85.5 -148q178 316 244 461q24 50 24 78q0 14 -6 21q-19 24 -137 36v57h453v-57q-73 -8 -110.5 -23t-64.5 -43.5t-69 -95.5q-146 -238 -258 -448q-22 -40 -28.5 -64.5 t-6.5 -64.5v-279q0 -47 1.5 -74t10 -51t20 -35t37.5 -20t55 -12.5t81 -6.5v-57h-578v57q51 3 78.5 6.5t53.5 12.5t36.5 19.5t19 34.5t10 51t1.5 75v272q0 30 -8 52t-35 71q-3 5 -97.5 170.5t-160.5 278.5q-45 77 -70.5 108t-59 46t-97.5 20z" />
<glyph unicode="Z" horiz-adv-x="1234" d="M59 31q58 81 208.5 294t230 325.5t201 286.5t221.5 320h-355q-110 0 -166.5 -7.5t-80 -21.5t-42.5 -44q-37 -54 -71 -178l-60 2q20 257 25 374h49q18 -33 39 -42t70 -9h817l14 -28q-534 -755 -846 -1217q99 -12 334 -12q192 0 269 15t120 61q58 60 113 210l59 -12 q-50 -263 -73 -348h-1059z" />
<glyph unicode="[" horiz-adv-x="706" d="M246 -334v1774h348v-58q-61 -4 -92.5 -7.5t-61 -13t-40 -18t-19 -32.5t-9.5 -46t-1 -69v-1286q0 -47 0.5 -68.5t9.5 -46t19 -32.5t39.5 -18t61 -13t93.5 -8v-58h-348z" />
<glyph unicode="\" horiz-adv-x="681" d="M74 1362h114l424 -1452h-116z" />
<glyph unicode="]" horiz-adv-x="706" d="M115 -279q46 4 72.5 7t53.5 9t40 10t26.5 16.5t17.5 22t8 31.5t4.5 40.5t0.5 54.5v1284q0 47 -1 69t-9.5 46t-19 32.5t-40 18.5t-61 13.5t-92.5 8.5v56h348v-1774h-348v55z" />
<glyph unicode="^" horiz-adv-x="1159" d="M143 432l392 844h88l393 -844h-121l-317 709l-322 -709h-113z" />
<glyph unicode="_" horiz-adv-x="1024" d="M0 -154h1024v-102h-1024v102z" />
<glyph unicode="`" horiz-adv-x="819" d="M211 1333l6 17q15 8 76.5 19t83.5 7q20 -48 65 -172.5t64 -171.5l-55 -26q-78 109 -240 327z" />
<glyph unicode="a" horiz-adv-x="899" d="M80 225q0 146 166 203q261 87 317 133v35q0 110 -47 170.5t-127 60.5q-56 0 -92 -39q-34 -39 -59 -135q-14 -47 -60 -47q-30 0 -59 26.5t-29 61.5q0 34 64 82q52 39 140 83t167 61q100 0 168 -56q51 -44 71.5 -104.5t20.5 -147.5v-379q0 -64 21 -93t51 -29q36 0 73 22 l21 -53l-174 -105q-23 0 -51.5 12t-45.5 29q-33 33 -49 90q-12 -8 -49 -33.5t-55.5 -37.5t-47.5 -29t-50.5 -24t-38.5 -7q-106 0 -176 75t-70 175zM254 254q0 -72 45.5 -114t99.5 -42q39 0 86.5 22t77.5 52v320q-6 -3 -184 -86q-64 -30 -94.5 -64t-30.5 -88z" />
<glyph unicode="b" horiz-adv-x="1040" d="M14 1339v47q161 20 297 72v-631l166 72q49 21 84 21q166 0 285 -126t119 -307q0 -145 -72 -264t-189 -183.5t-253 -64.5q-143 0 -301 74v1137q0 37 -0.5 55.5t-6 38t-12.5 27t-24 15.5t-37 11t-56 6zM311 238q0 -40 13 -72q14 -39 61.5 -76t118.5 -37q129 0 203.5 102.5 t74.5 280.5q0 168 -89.5 268.5t-221.5 100.5q-88 0 -160 -39v-528z" />
<glyph unicode="c" horiz-adv-x="866" d="M76 403q0 243 207 400q74 57 158 87t147 30h2q59 0 108 -16t76 -40q33 -28 33 -61q0 -30 -24.5 -59t-43.5 -29q-17 0 -39 22q-90 84 -206 84q-107 0 -179.5 -86.5t-72.5 -240.5q0 -82 21 -148.5t54 -108.5t75 -70.5t82 -40t77 -11.5q69 0 124.5 24t123.5 88l35 -43 q-70 -92 -164.5 -150.5t-182.5 -58.5q-124 0 -219.5 62t-143.5 158.5t-48 207.5z" />
<glyph unicode="d" horiz-adv-x="1081" d="M78 412q0 139 73 256.5t194 184.5t259 67q72 0 137 -25v293q0 37 -1 57t-7.5 38.5t-14 25.5t-29 14t-42.5 9t-63 5v52q167 19 319 69v-1222q0 -78 15.5 -98.5t74.5 -26.5l66 -7v-51q-201 -36 -318 -78v134l-125 -74q-105 -60 -159 -60q-63 0 -128.5 28.5t-122 81.5 t-92.5 138.5t-36 188.5zM262 467q0 -88 25.5 -159t66.5 -114.5t90.5 -66.5t100.5 -23q103 0 196 70v563q-35 51 -92.5 78t-118.5 27q-32 0 -65 -10t-70.5 -37t-66 -67.5t-47.5 -108t-19 -152.5z" />
<glyph unicode="e" horiz-adv-x="870" d="M76 412q0 210 135 358q64 70 143 110t156 40h2q125 0 216 -95.5t91 -216.5q0 -32 -9.5 -45.5t-37.5 -19.5q-31 -6 -200.5 -18t-335.5 -17q1 -100 28.5 -178.5t72.5 -123.5t97.5 -68t108.5 -23q124 0 235 102l31 -45q-86 -106 -178 -151.5t-156 -45.5q-122 0 -214.5 61.5 t-138.5 160t-46 215.5zM246 592q170 0 348 6q28 0 38.5 9t10.5 32v6q-1 79 -49 138q-50 61 -133 61q-72 0 -132.5 -66t-82.5 -186z" />
<glyph unicode="f" horiz-adv-x="606" d="M55 836l56 59h96v43q0 99 22 170q46 147 158 242q114 94 225 108q109 -6 162 -69q16 -20 16 -43q0 -14 -6 -29q-10 -25 -39 -49q-29 -23 -55 6q-76 76 -166 76q-69 0 -108 -60q-47 -72 -47 -287v-26v-82h241q10 -13 3.5 -42.5t-23.5 -39.5h-221v-588q0 -42 1 -65t9 -44 t16.5 -29.5t32.5 -16.5t47 -11t70 -8v-51h-484v53q54 5 79 10.5t42.5 23t21 44t3.5 80.5v602h-144z" />
<glyph unicode="g" horiz-adv-x="958" d="M59 -276q0 64 50 114q43 43 170 144q-101 32 -152 112q-24 38 -24 75q0 6 1 11q58 22 106 56.5t75 68.5q-76 32 -128.5 104.5t-52.5 170.5q0 83 34.5 150t90 107t118 61.5t124.5 21.5h2q105 0 197 -56q133 8 278 31l10 -16q-15 -28 -42 -60.5t-50 -44.5l-116 6 q61 -71 61 -180q0 -80 -31 -144t-83 -103.5t-114.5 -60t-129.5 -20.5q-44 0 -105 11q-22 -15 -41.5 -40.5t-19.5 -45.5q0 -32 32.5 -55t96.5 -23q39 0 111 1t106 1q54 0 100.5 -10t92.5 -35t73 -75t27 -122q0 -76 -42 -150.5t-110.5 -130t-163.5 -90t-194 -34.5 q-161 0 -258 77t-99 173zM221 -225q0 -84 78 -140.5t193 -56.5q141 0 217.5 63.5t76.5 163.5q0 106 -92 146q-66 26 -200 26q-128 0 -179 -43q-94 -80 -94 -159zM281 612q0 -120 53.5 -197t138.5 -77q72 2 121 65t49 179q0 121 -53 197.5t-141 76.5q-69 0 -118.5 -65.5 t-49.5 -178.5z" />
<glyph unicode="h" horiz-adv-x="1093" d="M37 0l2 53q51 4 74.5 9.5t40.5 23t20.5 44.5t3.5 81v977q0 38 -0.5 55.5t-6 37t-12 26.5t-25 14.5t-38 10t-57.5 5.5v49q130 19 301 72v-688q150 150 293 150q131 0 206.5 -86.5t75.5 -264.5v-358q0 -43 3 -67.5t10 -43t24.5 -27t38.5 -13t60 -7.5v-53h-433v53 q91 9 113.5 34.5t22.5 123.5v340q0 252 -201 252q-122 0 -213 -105v-487q0 -99 20.5 -124t112.5 -34v-53h-436z" />
<glyph unicode="i" horiz-adv-x="548" d="M66 0v53q36 3 56 6.5t38 11t26 16.5t14 28.5t7.5 41.5t1.5 60v422q0 36 -0.5 54.5t-5.5 38t-12 27t-23.5 16t-35 12t-52.5 8.5v49q159 24 291 80v-707q0 -104 23 -129.5t122 -34.5v-53h-450zM174 1202q0 45 31.5 76t73.5 31q43 0 72.5 -30.5t29.5 -76.5q0 -42 -30.5 -73 t-74.5 -31q-40 0 -71 31.5t-31 72.5z" />
<glyph unicode="j" horiz-adv-x="524" d="M-53 -436q0 38 43 47q108 25 149 78q33 41 51 147q17 125 17 395v400q0 38 -1 59.5t-7 41t-12.5 28t-25 17t-37 12t-54.5 8.5v47q170 26 299 80v-697q0 -106 -9.5 -178.5t-37.5 -150.5q-48 -136 -123 -247.5t-125 -154.5q-31 -22 -54 -22q-22 0 -47.5 28t-25.5 62z M174 1202q0 45 31 76t74 31q42 0 71 -31t29 -76q0 -42 -30.5 -73t-72.5 -31q-41 0 -71.5 31.5t-30.5 72.5z" />
<glyph unicode="k" horiz-adv-x="1015" d="M29 0v53q44 4 68.5 9.5t42.5 14t25 27.5t10 42.5t3 66.5v967q0 101 -20.5 125.5t-114.5 31.5v49q117 12 295 72v-964q76 15 129 71q60 60 145 180q25 35 25 54q-1 5 -3 11q-12 18 -83 26v53l418 18v-51q-104 -17 -153.5 -40t-110.5 -81q-70 -70 -177 -194 q28 -43 144.5 -179.5t173.5 -195.5q54 -59 100.5 -84.5t104.5 -28.5v-53l-281 -4q-42 47 -96.5 112t-130.5 159t-109 134q-40 45 -63 45q-15 0 -33 -6v-227q0 -71 10.5 -100.5t38.5 -41.5t98 -18v-53h-456z" />
<glyph unicode="l" horiz-adv-x="518" d="M31 0v53q53 5 78 10.5t43 23.5t22 45t4 81v969q0 38 -1 59t-7.5 40t-13 26.5t-26.5 14.5t-37.5 9t-55.5 6v49q148 17 303 72v-1245q0 -71 10.5 -100.5t38.5 -41.5t98 -18v-53h-456z" />
<glyph unicode="m" horiz-adv-x="1677" d="M55 0v53q37 3 58.5 6.5t41 10.5t28.5 16.5t16 27.5t8.5 40t1.5 57v424q0 99 -18 123t-107 37v47q161 29 285 84v-166q4 2 57.5 41t91.5 61q93 58 166 58q74 0 135.5 -45.5t93.5 -124.5q40 32 170 116q80 54 156 54q120 0 190 -82.5t70 -231.5v-395q0 -55 3 -81.5 t19.5 -44t38.5 -22.5t72 -10v-53h-438v53q35 3 53 6t37 10t27 17t15.5 28.5t9 42.5t1.5 62v342q0 238 -180 238q-97 0 -229 -107q6 -37 6 -86v-399q0 -95 22 -120t109 -34v-53h-438v53q43 4 64.5 8.5t40.5 13t26 26.5t10.5 42.5t3.5 67.5v352q0 236 -180 236 q-95 0 -223 -107v-481q0 -68 9.5 -98.5t32 -41.5t76.5 -18v-53h-432z" />
<glyph unicode="n" horiz-adv-x="1120" d="M59 0v53q39 4 60 7t40.5 11t27 16.5t14 27.5t7.5 40t1 58v422q0 97 -19 121t-104 39v47q166 31 285 82v-162q28 21 137 96q96 62 170 62q123 0 193.5 -82.5t70.5 -229.5v-395q0 -38 1 -59.5t7 -40.5t12.5 -27.5t24 -16t35 -10.5t51.5 -6v-53h-428v53q91 9 113 36.5 t22 133.5v342q0 234 -186 234q-102 0 -223 -105v-481q0 -38 1 -59.5t7 -40.5t13 -27.5t24.5 -16t35.5 -10.5t52 -6v-53h-445z" />
<glyph unicode="o" horiz-adv-x="1044" d="M76 428q0 121 43.5 218.5t111.5 155t144.5 88t150.5 30.5q124 0 226.5 -61.5t159.5 -166t57 -229.5q0 -96 -27 -177.5t-71.5 -137.5t-102.5 -96t-120 -58.5t-124 -18.5q-102 0 -188 38.5t-142 102.5t-87 145t-31 167zM266 494q0 -196 77.5 -323.5t203.5 -127.5 q104 0 167.5 88.5t63.5 286.5q0 187 -73.5 310.5t-204.5 123.5q-97 0 -165.5 -96t-68.5 -262z" />
<glyph unicode="p" horiz-adv-x="1073" d="M35 -436q100 9 124.5 34.5t24.5 125.5v925q0 28 -0.5 44.5t-3 33.5t-5 25.5t-11.5 17.5t-16.5 12.5t-24.5 8t-31.5 6.5t-42.5 6v49q134 22 297 88v-162l189 109q53 33 100 33q109 0 193.5 -55.5t126.5 -143t42 -189.5q0 -112 -42 -209.5t-113.5 -167t-162 -115.5 t-192.5 -65q-74 2 -141 37v-268q0 -43 1.5 -67t8.5 -46t16 -31.5t31.5 -18t46.5 -11.5t68 -6v-56h-483v56zM346 156q34 -36 87 -58t106 -22q129 0 207.5 103t78.5 274q0 160 -79 252t-195 92q-46 0 -102.5 -26t-102.5 -62v-553z" />
<glyph unicode="q" horiz-adv-x="1046" d="M78 403q0 143 78 263.5t204 187.5q124 66 263 66h4q94 -10 141 -29q37 -10 55 -8q27 0 72 22l8 -6q-6 -129 -6 -219v-950q0 -39 1.5 -61.5t8.5 -42t15 -28.5t29 -16.5t42 -10.5t62 -7v-56h-494v56q45 3 70 6t47 11.5t31 17.5t16.5 29.5t8.5 43t1 62.5v327l-217 -86 q-107 0 -193.5 39t-138.5 101.5t-80 137t-28 150.5zM262 471q0 -89 28.5 -163.5t75.5 -120.5t103.5 -71.5t114.5 -25.5q80 0 151 33v627q-34 39 -90.5 62.5t-107.5 23.5q-112 0 -193.5 -96.5t-81.5 -268.5z" />
<glyph unicode="r" horiz-adv-x="759" d="M68 0v53q96 9 118.5 34t22.5 126v424q0 38 -1 58t-6 39.5t-11.5 27.5t-23 15.5t-34.5 10.5t-51 7v47q151 24 289 82v-224h4q129 220 248 220q50 0 84 -32.5t34 -70.5q0 -31 -18 -59t-47 -41q-35 -14 -53 4q-44 41 -88 41q-42 0 -87 -45.5t-77 -128.5v-375q0 -38 1 -58.5 t7.5 -40t15.5 -28t30.5 -16.5t46 -11t67.5 -6v-53h-471z" />
<glyph unicode="s" horiz-adv-x="751" d="M84 287l55 10q28 -108 95 -181t155 -73q59 0 102.5 39.5t43.5 103.5t-40 106.5t-122 80.5q-57 25 -94 46t-78.5 55t-62.5 78.5t-21 100.5q0 111 87 189t224 78q96 0 180 -37q13 -32 27.5 -104.5t17.5 -112.5l-51 -15q-68 203 -211 203q-60 0 -96.5 -39.5t-36.5 -101.5 q0 -61 45 -101t127 -75q128 -52 194 -116t66 -163q0 -89 -51 -155t-126.5 -97t-160.5 -31q-72 0 -137.5 22t-95.5 48q-11 22 -23 104.5t-12 137.5z" />
<glyph unicode="t" horiz-adv-x="624" d="M35 836l57 59h92v147l133 138l29 -4v-281h232q15 -17 11 -43.5t-24 -38.5h-219v-524q0 -197 121 -197q57 0 125 35l18 -53l-139 -72q-53 -27 -86 -27q-98 0 -149.5 61.5t-51.5 182.5v594h-141z" />
<glyph unicode="u" horiz-adv-x="1087" d="M59 825v47q26 1 148 15q120 17 145 22q-6 -63 -6 -297v-276q0 -126 50.5 -179t129.5 -53q120 0 222 99v479q0 79 -16 101t-70 30l-74 12v47q80 3 184 17q74 8 137 20v-684q0 -75 17.5 -95.5t79.5 -25.5l55 -2v-53q-60 -8 -158 -33q-27 -7 -75.5 -21.5t-67.5 -19.5l-12 13 v145q-105 -78 -152 -106q-88 -52 -158 -52q-112 0 -183 75t-71 231v401q0 54 -7 80t-19 35t-41 16z" />
<glyph unicode="v" horiz-adv-x="948" d="M-4 842v53h420v-53q-81 -9 -95 -30q-5 -7 -5 -20q0 -24 18 -67q84 -237 194 -506q89 210 183 488q15 43 15 70q0 19 -7 29q-18 26 -105 36v53h365v-53q-80 -10 -109 -35.5t-71 -118.5q-134 -296 -291 -711h-57q-84 230 -283 717q-36 89 -63 112.5t-109 35.5z" />
<glyph unicode="w" horiz-adv-x="1402" d="M18 842v53h424v-53q-92 -13 -109 -34q-7 -9 -7 -28q0 -24 12 -63q84 -268 151 -475h5q73 190 237 643h53q85 -239 246 -652h4q104 326 142 474q11 42 12.5 63.5t-13.5 36.5t-39.5 21.5t-78.5 13.5v53h368v-53q-74 -10 -101.5 -37t-59.5 -115q-80 -216 -246 -713h-60 q-36 98 -77.5 204t-92.5 233t-79 200q-26 -69 -111.5 -288t-132.5 -349h-57q-146 470 -238 732q-28 80 -53.5 102t-98.5 31z" />
<glyph unicode="x" horiz-adv-x="966" d="M8 0v53q94 12 131.5 34.5t98.5 100.5q67 85 174 246l-179 279q-48 74 -82 96.5t-118 32.5v53h407v-53q-64 -9 -74 -26q-3 -4 -3 -11q0 -18 22 -49l121 -191q73 109 119 193q18 32 18 49q-1 9 -5 13q-12 14 -81 22v53h375v-53q-95 -9 -132.5 -27t-92.5 -82 q-43 -53 -160 -225l198 -303q57 -88 95.5 -114t130.5 -38v-53h-439v53q66 8 80.5 24.5t-10.5 57.5l-151 240q-87 -131 -132 -217q-23 -37 -23 -58q0 -8 4 -14q12 -20 89 -33v-53h-381z" />
<glyph unicode="y" horiz-adv-x="940" d="M4 842v53h414l2 -53q-71 -10 -86 -32q-6 -9 -6 -24q0 -22 14 -57l184 -512q120 292 189 510q11 29 11 49t-10 32q-21 24 -108 34v53h371v-53q-80 -12 -109 -36t-71 -112q-24 -49 -54 -120.5t-91.5 -222t-112.5 -273.5q-105 -250 -147.5 -361.5t-63.5 -191.5 q-12 -51 -66 -51q-43 0 -78.5 30.5t-35.5 67.5q0 24 11.5 40t39.5 36q47 28 80.5 68.5t72.5 111.5q42 82 64 141q6 18 6 37q0 26 -10 55q-135 384 -234 627q-35 89 -64.5 116.5t-111.5 37.5z" />
<glyph unicode="z" horiz-adv-x="860" d="M63 31q224 330 510 794h-182q-74 0 -114 -13.5t-63 -41t-54 -90.5l-29 -55l-51 18q43 145 70 295h43q9 -24 32.5 -33.5t79.5 -9.5h471l12 -29q-222 -346 -499 -798h203q59 0 97.5 7.5t69.5 29.5t52.5 49t54.5 79l27 50l53 -27q-65 -179 -94 -256h-674z" />
<glyph unicode="{" horiz-adv-x="710" d="M131 584q43 3 76 12t52.5 24t32 30t17.5 37t6.5 37t1.5 38q0 63 -7.5 207t-6.5 213q0 270 297 270v-57q-55 -7 -91 -24.5t-53 -45.5t-22.5 -55t-5.5 -66q0 -66 13.5 -203.5t13.5 -205.5q0 -90 -41.5 -153.5t-128.5 -82.5v-8q86 -21 128 -85.5t42 -154.5 q0 -69 -13.5 -203.5t-13.5 -197.5q0 -41 5.5 -69t22.5 -57t53 -47.5t91 -25.5v-57q-43 0 -78 4t-78 20t-72 43t-49 77t-20 118q0 71 7.5 216.5t6.5 213.5q0 28 -2 46t-12 43.5t-28.5 42t-54.5 30t-87 16.5z" />
<glyph unicode="|" horiz-adv-x="538" d="M203 -512v2048h131v-2048h-131z" />
<glyph unicode="}" horiz-adv-x="710" d="M111 -289q103 14 138.5 63t35.5 130q0 67 -14 204.5t-15 200.5q0 197 172 240v8q-88 21 -130 84t-42 152q0 69 14 209t15 202q0 82 -35.5 129.5t-138.5 61.5v57q45 0 80.5 -4.5t78.5 -20.5t72 -43t48.5 -77.5t19.5 -118.5q0 -76 -8.5 -218t-8.5 -202q0 -30 2 -49t12 -46 t29 -43.5t55.5 -30.5t88.5 -17v-60q-52 -3 -88.5 -17t-55.5 -30.5t-29 -43.5t-12 -46t-2 -49q0 -58 8.5 -200t8.5 -220q0 -262 -299 -262v57z" />
<glyph unicode="~" horiz-adv-x="1187" d="M113 399q90 226 266 226q59 0 112 -18.5t127 -61.5q70 -41 117 -60.5t92 -19.5q61 0 101 39.5t73 126.5l74 -43q-33 -109 -99 -167.5t-161 -58.5q-105 0 -258 93q-59 35 -100.5 51t-85.5 16q-63 0 -108 -42t-79 -132z" />
<glyph unicode="&#xa1;" horiz-adv-x="565" d="M164 795q0 54 33 87t86 33q48 0 81 -33.5t33 -86.5q0 -51 -33 -85t-83 -34q-51 0 -84 34t-33 85zM174 -406q0 44 14 162q24 204 60 733q8 11 37 11t37 -11q5 -66 12.5 -188t12 -194t13.5 -170.5t19 -180.5q14 -147 14 -162q0 -61 -110 -61q-109 0 -109 61z" />
<glyph unicode="&#xa2;" d="M104 610q0 114 52 211.5t139 165.5q102 77 217 100v173h72v-162q14 2 37 2q128 0 206 -56q29 -20 29 -51q0 -30 -24.5 -58t-49.5 -30q-8 2 -30 19q-74 74 -168 88v-684q80 -3 142 26t128 95l35 -48q-61 -81 -145 -134.5t-160 -65.5v-201h-72v197q-118 3 -212.5 61.5 t-145 151.5t-50.5 200zM264 694q0 -85 23 -152.5t61.5 -109t79.5 -65.5t84 -33v678q-42 -1 -84 -19.5t-79.5 -55t-61 -100t-23.5 -143.5z" />
<glyph unicode="&#xa3;" d="M49.5 17q-11.5 27 11.5 71q16 29 97 119q86 93 86 276q0 34 -6 121h-181v78h170q-10 128 -10 168q0 221 170 358q46 38 108 65t105 27q64 0 121 -27.5t78 -55.5q22 -32 8 -64q-9 -21 -39 -47q-28 -19 -57 4q-46 40 -90 63t-101 23q-147 0 -147 -197q0 -89 41 -317h356 v-78h-352q2 -16 2 -45q0 -192 -178 -356q93 0 215 -56q166 -77 245 -77q57 0 88 25t31 69q0 37 -14 65q-9 21 6 45q35 54 74 54q21 0 34 -26t13 -58q0 -65 -47 -130.5t-111 -107.5q-99 -63 -186 -63q-38 0 -90.5 19t-87.5 37t-99 54q-81 49 -118 49q-51 0 -84 -88 q-9 -24 -25 -24q-25 0 -36.5 27z" />
<glyph unicode="&#xa4;" d="M57 276l142 136q-88 107 -88 254q0 144 88 249l-142 140l82 82l131 -154q97 78 217 78h2q52 0 110.5 -20t105.5 -58l129 154l84 -82l-142 -137q88 -106 88 -252q0 -145 -90 -252l144 -138l-84 -83l-132 155q-46 -38 -104 -59t-111 -21q-55 0 -114.5 20t-104.5 58 l-129 -153zM236 666q0 -132 72 -214.5t181 -82.5t180.5 82.5t71.5 214.5q0 130 -72.5 212.5t-181.5 82.5q-108 0 -179.5 -82t-71.5 -213z" />
<glyph unicode="&#xa5;" d="M14 1223v53h420v-53l-53 -11q-43 -8 -53 -20.5t2 -44.5q52 -129 180 -428q136 286 180 401q19 42 11 62t-56 30l-57 11v53h366v-53q-79 -10 -109.5 -35t-78.5 -111q-76 -133 -203 -399h264v-74h-278v-61v-76h278v-76h-278v-172q0 -38 1.5 -59.5t8.5 -41.5t17 -29t33 -17 t50.5 -11t73.5 -6v-55h-526v55q68 4 100.5 9.5t52.5 25.5t23.5 46t3.5 83v172h-268v76h268v63v74h-266v74h246q-65 159 -179 399q-40 89 -70 113t-104 33z" />
<glyph unicode="&#xa6;" horiz-adv-x="538" d="M203 -358v716h131v-716h-131zM203 666v716h131v-716h-131z" />
<glyph unicode="&#xa7;" horiz-adv-x="976" d="M111 756q0 180 161 352q79 87 148 134t162 69q37 0 75.5 -13.5t59.5 -31.5q24 -24 24 -47q0 -42 -36 -68q-23 -17 -41 -2q-23 18 -64 35.5t-90 17.5q-63 0 -97 -34t-34 -72q0 -74 76 -142q72 -65 225 -194q192 -166 192 -348q-1 -118 -60 -231.5t-142 -205.5 q-129 -140 -283 -188q-30 0 -72 12t-69 33q-41 30 -41 62q0 27 43 65q23 16 43 6q91 -57 162 -57q57 0 99.5 31.5t43.5 91.5q0 44 -30.5 92.5t-106.5 120.5q-29 28 -101.5 99.5t-101.5 100.5q-145 142 -145 312zM213 842q0 -84 42.5 -161t139.5 -169q204 -185 250 -260 q18 -29 30 -74.5t9 -83.5l4 -4q78 119 78 234q0 160 -164 303q-183 164 -227 211q-40 38 -64 92t-18 108l-6 2q-74 -100 -74 -194v-4z" />
<glyph unicode="&#xa8;" horiz-adv-x="819" d="M139 1202q0 42 29.5 71.5t69.5 29.5t68 -29t28 -72q0 -40 -28.5 -69t-69.5 -29q-38 0 -67.5 29t-29.5 69zM485 1202q0 42 29.5 71.5t69.5 29.5t68 -29t28 -72q0 -40 -28.5 -69t-69.5 -29q-38 0 -67.5 29t-29.5 69z" />
<glyph unicode="&#xa9;" horiz-adv-x="1437" d="M104 659q0 128 47 243t128.5 198.5t196.5 132.5t245 49q172 0 312.5 -83t220 -226t79.5 -314q0 -170 -79.5 -311.5t-220.5 -224t-314 -82.5t-314.5 82.5t-221 224t-79.5 311.5zM201 662q0 -235 148 -393t372 -158q147 0 265.5 72.5t184.5 198.5t66 280q0 155 -66 280.5 t-185 197.5t-267 72q-147 0 -266 -72t-185.5 -197.5t-66.5 -280.5zM375 655q0 164 116 262.5t281 98.5q120 0 213 -35q16 -109 23 -186l-43 -9q-26 88 -76 130t-131 42q-108 0 -171 -80.5t-63 -207.5q0 -135 68.5 -220t171.5 -85q81 0 133 44.5t88 129.5l45 -11 q-38 -149 -53 -184q-114 -39 -213 -39q-95 0 -171.5 30t-122.5 80.5t-70.5 112t-24.5 127.5z" />
<glyph unicode="&#xaa;" horiz-adv-x="624" d="M68 707q0 87 98 124q13 5 53.5 19.5t64 23.5t52.5 22.5t45 25.5v20q0 51 -27.5 82t-74.5 31q-66 0 -97 -109q-11 -31 -43 -31q-23 0 -43 17.5t-20 40.5q0 31 41 57q35 25 91 52t109 36q88 0 134.5 -46.5t46.5 -135.5v-221q0 -70 43 -70q22 0 49 12l14 -39l-129 -67 q-36 1 -59 24t-31 56q-5 -3 -18.5 -11.5t-19.5 -12.5t-19 -12t-20 -12t-18 -10t-18.5 -9t-16.5 -6.5t-16.5 -5t-13.5 -1.5q-67 0 -112 47.5t-45 108.5zM195 729q0 -41 27 -65.5t63 -24.5q27 0 53.5 12.5t42.5 28.5v186q-35 -18 -127 -55q-33 -18 -46 -35.5t-13 -46.5z" />
<glyph unicode="&#xab;" horiz-adv-x="909" d="M100 453q128 128 326 376l45 -30l-190 -346l190 -342l-47 -33q-212 269 -324 375zM440 453q148 153 324 376l47 -30l-190 -346l190 -342l-47 -33q-201 256 -324 375z" />
<glyph unicode="&#xac;" horiz-adv-x="1187" d="M106 651v103h977v-555h-118v452h-859z" />
<glyph unicode="&#xad;" horiz-adv-x="729" d="M117 406l28 112h469l-28 -112h-469z" />
<glyph unicode="&#xae;" horiz-adv-x="657" d="M66 1085q0 107 77.5 186t188.5 79q112 0 188 -78.5t76 -186.5q0 -106 -76.5 -184t-189.5 -78q-112 0 -188 75.5t-76 186.5zM125 1085q0 -92 59.5 -153.5t147.5 -61.5t147.5 61.5t59.5 153.5q0 91 -60 154.5t-149 63.5q-88 0 -146.5 -63t-58.5 -155zM203 948v31 q28 2 33.5 7t5.5 32v139q0 27 -5 32t-32 7v31h139q98 0 98 -72q0 -50 -55 -70q20 -38 68 -96q5 -4 26 -18l-6 -25q-37 0 -59.5 8.5t-40.5 32.5l-22.5 40t-14.5 26q-7 14 -27 14h-8v-49q0 -27 5.5 -32t31.5 -7v-31h-137zM303 1098h16q17 0 37 8q21 15 21 43q0 26 -15.5 36.5 t-33.5 10.5q-14 0 -19.5 -5t-5.5 -20v-73z" />
<glyph unicode="&#xaf;" horiz-adv-x="819" d="M184 1122v113h451v-113h-451z" />
<glyph unicode="&#xb0;" horiz-adv-x="702" d="M66 1079q0 124 84.5 202.5t203.5 78.5q115 0 200 -79t85 -202q0 -128 -84.5 -204t-202.5 -76q-119 0 -202.5 75.5t-83.5 204.5zM188 1079q0 -86 46 -139t120 -53q72 0 117 52.5t45 137.5q0 88 -45 141.5t-119 53.5q-72 0 -118 -53.5t-46 -139.5z" />
<glyph unicode="&#xb1;" horiz-adv-x="1187" d="M106 0v102h977v-102h-977zM106 637v102h431v391h118v-391h428v-102h-428v-418h-118v418h-431z" />
<glyph unicode="&#xb2;" horiz-adv-x="698" d="M82 821v45q136 111 186 160q163 160 164 279q0 73 -38.5 111t-98.5 38q-90 0 -174 -113l-35 37l66 88q35 44 87 68.5t111 24.5q92 0 158.5 -59.5t66.5 -160.5q0 -71 -48.5 -138.5t-168.5 -172.5l-106 -96v-4h186q62 0 88 15.5t56 74.5l45 -14q-30 -101 -47 -183h-498z " />
<glyph unicode="&#xb3;" horiz-adv-x="698" d="M94 907q8 27 37 49q19 16 43 -2q87 -67 156 -67q58 0 94.5 38t36.5 115q0 66 -47 102t-111 36q-37 0 -84 -15l-12 49q99 32 151 70t52 90q0 41 -28.5 67.5t-78.5 26.5q-45 0 -86 -31t-67 -71l-35 33l61 84q27 30 76 52.5t100 22.5h2q87 0 140 -45.5t53 -111.5 q0 -56 -39 -84q-48 -39 -88 -58l2 -4q84 -15 131 -59.5t47 -110.5q0 -67 -41 -122.5t-99.5 -87.5t-113 -49t-90.5 -17q-79 0 -139 43q-33 26 -23 57z" />
<glyph unicode="&#xb4;" horiz-adv-x="819" d="M342 1038q18 39 139 324q15 7 81 14.5t85 3.5l6 -18l-258 -350z" />
<glyph unicode="&#xb5;" horiz-adv-x="1048" d="M139 883l166 37q4 -47 4 -215v-351q0 -70 17 -122t46 -78.5t59.5 -39t64.5 -12.5q60 0 114 33t90 76v672l164 37v-687q0 -143 84 -143q34 0 72 21l20 -54q-27 -33 -75.5 -57.5t-98.5 -24.5q-64 0 -107 44.5t-52 115.5h-5q-142 -160 -274 -160q-53 0 -96 24t-70 62h-8v-32 q-1 -116 25 -290.5t51 -240.5l-27 -24q-32 3 -80 29t-73 51q-3 10 -4.5 46t-1.5 96v117t0.5 138.5t0.5 132.5v602q0 124 -6 197z" />
<glyph unicode="&#xb6;" horiz-adv-x="1017" d="M102 659q0 98 37.5 184t98.5 144q63 59 147 94t156 35h405l8 -24l-61 -56l-180 -20v-971q0 -125 -33 -214t-105 -165q-41 -42 -99.5 -72t-78.5 -30q-88 0 -135 47q-33 29 -20 61q8 28 41 56q18 15 39 0q67 -45 129 -45q32 0 58 13t49.5 46t36.5 99.5t13 162.5v307 l-137 -59q-12 -6 -35 -6q-35 0 -78.5 17.5t-88.5 54t-82.5 84.5t-61 115.5t-23.5 141.5z" />
<glyph unicode="&#xb7;" horiz-adv-x="462" d="M115 477q0 50 32.5 83.5t83.5 33.5q49 0 83 -34t34 -83q0 -53 -34 -87t-85 -34q-50 0 -82 33.5t-32 87.5z" />
<glyph unicode="&#xb8;" horiz-adv-x="819" d="M291 -436q123 53 123 123q0 33 -47 80q-40 37 -46 62t23 67l78 102h80l-43 -55q-21 -27 -18 -42.5t30 -41.5q43 -45 61.5 -76.5t18.5 -65.5q0 -64 -63 -119t-173 -87z" />
<glyph unicode="&#xb9;" horiz-adv-x="698" d="M154 1450v47q136 15 272 59v-565q0 -73 23.5 -92.5t109.5 -28.5v-47h-403v47q86 6 110.5 27t24.5 94v365q0 59 -12 73.5t-64 18.5z" />
<glyph unicode="&#xba;" horiz-adv-x="684" d="M55 825q0 70 27.5 128t71 92t93 52.5t97.5 18.5q123 0 203 -80t80 -194q0 -89 -44 -157t-107.5 -100t-131.5 -32q-131 0 -210 82t-79 190zM197 858q0 -109 45 -179.5t110 -70.5q60 0 96.5 50t36.5 153q0 110 -42 180t-117 70q-50 0 -89.5 -54.5t-39.5 -148.5z" />
<glyph unicode="&#xbb;" horiz-adv-x="911" d="M100 109l193 344l-193 346l47 30q192 -244 324 -376q-123 -119 -324 -375zM438 109l191 344l-191 346l47 30q192 -244 324 -376q-123 -119 -324 -375z" />
<glyph unicode="&#xbc;" horiz-adv-x="1560" d="M160 1194v45q142 19 272 61v-565q0 -73 23.5 -92.5t109.5 -28.5v-47l-403 -2v47q86 8 110.5 28.5t24.5 92.5v367q0 58 -12 72.5t-64 17.5zM340 -4l827 1345l68 -47l-832 -1347zM829 203v47q221 295 377 485h80v-456h121v-76h-121v-60q0 -59 20.5 -75t92.5 -21v-47h-371 v47q88 6 110.5 21t22.5 75v60h-332zM934 279h227v305h-6q-91 -115 -221 -305z" />
<glyph unicode="&#xbd;" horiz-adv-x="1560" d="M147 1194v45q144 19 271 61v-565q0 -73 23.5 -92.5t109.5 -28.5v-47l-401 -2v47q86 8 110.5 28.5t24.5 92.5v367q0 58 -12 72.5t-64 17.5zM311 -6l828 1347l67 -47l-831 -1349zM895 0v45q138 111 189 160q163 157 163 276q0 73 -38.5 111.5t-98.5 38.5q-90 0 -174 -113 l-37 37l68 88q34 44 86 68t112 24q92 0 158.5 -59t67.5 -160q0 -71 -48.5 -138t-168.5 -171l-109 -96v-5h188q60 0 87 16t57 75l45 -15q-36 -122 -49 -182h-498z" />
<glyph unicode="&#xbe;" horiz-adv-x="1560" d="M152 651q9 30 34 49q21 15 43 -2q85 -67 156 -67q58 0 94.5 37.5t36.5 113.5q0 68 -47 104t-113 36q-37 0 -84 -15l-12 49q101 34 152 71t51 91q0 40 -28 66t-77 26q-45 0 -86 -31t-67 -71l-33 33l59 84q27 30 76.5 52.5t100.5 22.5h2q87 0 140.5 -45t51.5 -110 q0 -51 -37 -84q-55 -43 -88 -60v-4q83 -13 130.5 -58.5t47.5 -111.5q0 -67 -41 -122.5t-99 -87.5t-112.5 -49t-89.5 -17q-81 0 -141 43q-31 24 -20 57zM346 -4l828 1345l67 -47l-831 -1347zM817 203v47q221 295 377 485h80v-456h121v-76h-121v-60q0 -60 20 -75.5t92 -20.5 v-47h-368v47q86 6 108.5 21t22.5 75v60h-332zM922 279h227v305h-6q-91 -115 -221 -305z" />
<glyph unicode="&#xbf;" horiz-adv-x="776" d="M94 -143q0 55 23 97.5t76 84.5q10 8 61 46.5t80 64t57.5 65.5t28.5 74q0 49 -22.5 83t-73.5 79l36 47q73 -25 151.5 -103t78.5 -162q0 -54 -39 -106t-135 -125q-37 -26 -51.5 -37.5t-49.5 -40.5t-51.5 -49t-31.5 -47.5t-15 -52.5q0 -54 32 -82.5t89 -28.5q44 0 87 17 t69 37.5t48 37.5t29 17q24 0 54 -27.5t30 -62.5q0 -34 -43 -74q-43 -36 -99 -56t-89 -20h-2q-128 0 -228 99t-100 225zM279 801q0 52 31 84.5t81 32.5q47 0 79 -32.5t32 -84.5q0 -49 -33 -83t-80 -34t-78.5 33.5t-31.5 83.5z" />
<glyph unicode="&#xc0;" horiz-adv-x="1415" d="M41 0v57q55 8 82 15t54.5 30t46.5 60t46 108l424 1073l64 19q49 -135 185.5 -517t209.5 -581q25 -69 42.5 -105.5t44.5 -59.5t55 -30t83 -12v-57h-501v57q97 12 118.5 32.5t1.5 80.5q-21 62 -112 315h-436q-65 -181 -91 -264q-11 -34 -16.5 -56t-3.5 -40.5t10 -28.5 t27 -18.5t45 -12.5t67 -8v-57h-446zM420 1546q6 23 38 67t50 50q262 -170 323 -211l-26 -51l-381 129zM479 573h377l-180 523h-4q-36 -94 -100.5 -271.5t-92.5 -251.5z" />
<glyph unicode="&#xc1;" horiz-adv-x="1415" d="M41 0v57q55 8 82 15t54.5 30t46.5 60t46 108l424 1073l64 19q49 -135 185.5 -517t209.5 -581q25 -69 42.5 -105.5t44.5 -59.5t55 -30t83 -12v-57h-501v57q97 12 118.5 32.5t1.5 80.5q-21 62 -112 315h-436q-65 -181 -91 -264q-11 -34 -16.5 -56t-3.5 -40.5t10 -28.5 t27 -18.5t45 -12.5t67 -8v-57h-446zM479 573h377l-180 523h-4q-36 -94 -100.5 -271.5t-92.5 -251.5zM623 1452q66 42 187.5 121.5t133.5 87.5q18 -3 50.5 -46.5t37.5 -66.5l-4 -16l-379 -131z" />
<glyph unicode="&#xc2;" horiz-adv-x="1415" d="M41 0v57q55 8 82 15t54.5 30t46.5 60t46 108l424 1073l64 19q49 -135 185.5 -517t209.5 -581q25 -69 42.5 -105.5t44.5 -59.5t55 -30t83 -12v-57h-501v57q97 12 118.5 32.5t1.5 80.5q-21 62 -112 315h-436q-65 -181 -91 -264q-11 -34 -16.5 -56t-3.5 -40.5t10 -28.5 t27 -18.5t45 -12.5t67 -8v-57h-446zM451 1452q8 6 43 33t47 36.5t41.5 33t46 38.5t39 36.5t41.5 41.5h45q14 -15 30.5 -31.5t29 -28t33.5 -29.5t30.5 -26t34.5 -28t31 -24.5t35 -27t32 -24.5l-33 -51q-103 44 -248 127q-162 -91 -246 -127zM479 573h377l-180 523h-4 q-36 -94 -100.5 -271.5t-92.5 -251.5z" />
<glyph unicode="&#xc3;" horiz-adv-x="1415" d="M41 0v57q55 8 82 15t54.5 30t46.5 60t46 108l424 1073l64 19q49 -135 185.5 -517t209.5 -581q25 -69 42.5 -105.5t44.5 -59.5t55 -30t83 -12v-57h-501v57q97 12 118.5 32.5t1.5 80.5q-21 62 -112 315h-436q-65 -181 -91 -264q-11 -34 -16.5 -56t-3.5 -40.5t10 -28.5 t27 -18.5t45 -12.5t67 -8v-57h-446zM459 1448q34 88 77.5 127t86.5 39t127 -37q62 -33 110 -33q30 0 51.5 20.5t42.5 65.5l52 -26q-29 -95 -74 -134.5t-94 -39.5q-46 0 -144 43q-54 28 -90 28q-26 0 -48.5 -22t-47.5 -68zM479 573h377l-180 523h-4q-36 -94 -100.5 -271.5 t-92.5 -251.5z" />
<glyph unicode="&#xc4;" horiz-adv-x="1415" d="M41 0v57q37 5 58 9t44 13.5t36 22t30 36.5t30.5 54t32.5 78l422 1073l64 19q49 -135 185.5 -517t209.5 -581q25 -69 42.5 -105.5t44.5 -59.5t55 -30t83 -12v-57h-504v57q97 12 119 32.5t2 80.5q-51 151 -110 315h-436q-33 -92 -91 -264q-11 -34 -16.5 -56t-3.5 -40.5 t10 -28.5t27 -18.5t45 -12.5t67 -8v-57h-446zM430 1524q0 42 29 72t69 30t68.5 -29.5t28.5 -72.5q0 -40 -29 -69.5t-70 -29.5q-38 0 -67 29.5t-29 69.5zM481 573h375l-180 523h-4q-26 -68 -191 -523zM821 1524q0 42 29.5 72t69.5 30t68 -29.5t28 -72.5q0 -40 -28.5 -69.5 t-69.5 -29.5q-38 0 -67.5 29.5t-29.5 69.5z" />
<glyph unicode="&#xc5;" horiz-adv-x="1415" d="M41 0v57q55 8 82 15t54.5 30t46.5 60t46 108l424 1073l64 19q49 -135 185.5 -517t209.5 -581q25 -69 42.5 -105.5t44.5 -59.5t55 -30t83 -12v-57h-501v57q96 12 117.5 32.5t2.5 80.5q-21 62 -112 315h-436q-65 -181 -91 -264q-17 -51 -20.5 -78.5t11 -46.5t45 -26 t91.5 -13v-57h-444zM479 573h377l-180 523h-4q-44 -112 -193 -523zM545 1581q0 76 54.5 123t127.5 47q72 0 126 -47t54 -123q0 -79 -54.5 -127.5t-127.5 -46.5q-72 0 -126 48t-54 126zM635 1581q0 -48 25.5 -80.5t64.5 -32.5q40 0 65 32.5t25 80.5q0 47 -25 77t-67 30 q-38 0 -63 -30.5t-25 -76.5z" />
<glyph unicode="&#xc6;" horiz-adv-x="1779" d="M-23 0v55q100 14 142.5 43.5t99.5 130.5q60 105 134 242.5t117.5 220t133.5 255.5t107 206q35 63 23.5 84.5t-87.5 30.5l-84 10v53h1051q6 -145 20 -291l-61 -8q-30 125 -66 170q-26 33 -69 45.5t-146 12.5h-170q-46 0 -55.5 -10t-9.5 -54v-510h182q49 0 79.5 1.5t55.5 9 t37.5 16t23.5 29.5t16 41.5t13 60.5h62v-400h-62q-8 41 -13.5 62.5t-17 43.5t-23.5 30t-37.5 15.5t-55 9t-78.5 1.5h-182v-340q0 -79 10.5 -116t38.5 -54q19 -12 55 -17.5t62.5 -6t91.5 -0.5q112 0 170 14.5t92 54.5q50 59 100 197l60 -14q-37 -195 -74 -324h-969v57 q48 3 76 7t52 14t35 22.5t19 38.5t9.5 55.5t1.5 79.5v332h-363q-121 -228 -196 -397q-39 -79 -18.5 -109t136.5 -45v-55h-469zM561 686h326v563q-26 0 -58 -39q-126 -236 -268 -524z" />
<glyph unicode="&#xc7;" horiz-adv-x="1353" d="M94 643q0 210 99 374t276 254.5t401 90.5q41 0 84 -3.5t74.5 -7.5t69 -11.5t55.5 -12l48 -12l34 -8.5q32 -231 41 -316l-62 -10q-47 166 -138.5 235.5t-262.5 69.5q-152 0 -268.5 -78.5t-178 -213.5t-61.5 -304q0 -185 63 -330.5t183 -229t278 -83.5q105 0 183 37.5 t132.5 103.5t110.5 177l58 -23q-55 -206 -111 -319q-212 -48 -338 -50l-22 -28q-19 -27 -16.5 -43t28.5 -43q42 -42 60 -73.5t18 -66.5q0 -61 -63 -117.5t-169 -90.5l-28 57q125 55 125 123q0 15 -8.5 31t-15 23t-23.5 24q-38 37 -43.5 63t20.5 64l55 75q-139 4 -255.5 45.5 t-195 107.5t-133 152.5t-79.5 178.5t-25 188z" />
<glyph unicode="&#xc8;" horiz-adv-x="1163" d="M59 0v57q51 3 80 6.5t54.5 13t37 20.5t20 35t10 50.5t1.5 73.5v815q0 49 -1.5 77.5t-9.5 53t-16.5 35t-32.5 19.5t-47 12t-69 6v57h913l17 -295l-60 -8q-22 106 -65 174q-22 34 -72 47t-160 13h-155q-47 0 -57.5 -10.5t-10.5 -55.5v-467h193q50 0 79.5 1.5t54.5 8.5 t37 15t22.5 29t15.5 40.5t12 59.5h59v-391h-59q-8 40 -13 62t-16.5 42.5t-23 28.5t-37 15t-53 8t-76.5 1h-195v-385q0 -73 11 -110.5t38 -57.5q27 -17 74 -21.5t139 -4.5q116 0 170 14.5t88 54.5q60 73 103 193l59 -8q-35 -197 -71 -324h-988zM303 1546q6 23 38 67t50 50 q229 -147 324 -211l-27 -51l-381 131z" />
<glyph unicode="&#xc9;" horiz-adv-x="1163" d="M59 0v57q51 3 80 6.5t54.5 13t37 20.5t20 35t10 50.5t1.5 73.5v815q0 49 -1.5 77.5t-9.5 53t-16.5 35t-32.5 19.5t-47 12t-69 6v57h913l17 -295l-60 -8q-22 106 -65 174q-22 34 -72 47t-160 13h-155q-47 0 -57.5 -10.5t-10.5 -55.5v-467h193q50 0 79.5 1.5t54.5 8.5 t37 15t22.5 29t15.5 40.5t12 59.5h59v-391h-59q-8 40 -13 62t-16.5 42.5t-23 28.5t-37 15t-53 8t-76.5 1h-195v-385q0 -73 11 -110.5t38 -57.5q27 -17 74 -21.5t139 -4.5q116 0 170 14.5t88 54.5q60 73 103 193l59 -8q-35 -197 -71 -324h-988zM473 1452q49 31 106 68 t121.5 79t94.5 62q18 -3 50.5 -46.5t37.5 -66.5l-4 -16l-379 -131z" />
<glyph unicode="&#xca;" horiz-adv-x="1163" d="M59 0v57q51 3 80 6.5t54.5 13t37 20.5t20 35t10 50.5t1.5 73.5v815q0 49 -1.5 77.5t-9.5 53t-16.5 35t-32.5 19.5t-47 12t-69 6v57h913l17 -295l-60 -8q-22 106 -65 174q-22 34 -72 47t-160 13h-155q-47 0 -57.5 -10.5t-10.5 -55.5v-467h193q50 0 79.5 1.5t54.5 8.5 t37 15t22.5 29t15.5 40.5t12 59.5h59v-391h-59q-8 40 -13 62t-16.5 42.5t-23 28.5t-37 15t-53 8t-76.5 1h-195v-385q0 -73 11 -110.5t38 -57.5q27 -17 74 -21.5t139 -4.5q116 0 170 14.5t88 54.5q60 73 103 193l59 -8q-35 -197 -71 -324h-988zM309 1452q188 145 258 219h45 q76 -80 256 -219l-32 -51q-103 44 -248 127q-162 -91 -246 -127z" />
<glyph unicode="&#xcb;" horiz-adv-x="1163" d="M59 0v57q51 3 80 6.5t54.5 13t37 20.5t20 35t10 50.5t1.5 73.5v815q0 49 -1.5 77.5t-9.5 53t-16.5 35t-32.5 19.5t-47 12t-69 6v57h913l17 -295l-60 -8q-22 106 -65 174q-22 34 -72 47t-160 13h-155q-47 0 -57.5 -10.5t-10.5 -55.5v-467h193q50 0 79.5 1.5t54.5 8.5 t37 15t22.5 29t15.5 40.5t12 59.5h59v-391h-59q-8 40 -13 62t-16.5 42.5t-23 28.5t-37 15t-53 8t-76.5 1h-195v-385q0 -73 11 -110.5t38 -57.5q27 -17 74 -21.5t139 -4.5q116 0 170 14.5t88 54.5q60 73 103 193l59 -8q-35 -197 -71 -324h-988zM301 1530q0 43 29.5 72.5 t70.5 29.5q40 0 68.5 -29.5t28.5 -72.5q0 -40 -29 -69t-70 -29q-40 0 -69 29t-29 69zM692 1532q0 42 29.5 71t69.5 29t68 -29t28 -71q0 -40 -29 -70t-70 -30q-38 0 -67 30t-29 70z" />
<glyph unicode="&#xcc;" horiz-adv-x="698" d="M72 1546q6 23 38 67t50 50q262 -170 323 -211l-26 -51l-381 129zM78 0v57q47 3 72.5 6.5t49.5 12.5t33.5 19.5t17.5 34.5t9.5 51.5t1.5 74.5v819q0 47 -1.5 74.5t-9.5 51.5t-17.5 34.5t-33.5 19.5t-49.5 12.5t-72.5 6.5v57h543v-57q-47 -3 -72.5 -6.5t-49.5 -12.5 t-34 -19.5t-18 -34.5t-9.5 -51.5t-1.5 -74.5v-819q0 -48 1.5 -75.5t9.5 -51.5t18 -34.5t34 -19.5t49.5 -12t72.5 -6v-57h-543z" />
<glyph unicode="&#xcd;" horiz-adv-x="698" d="M78 0v57q47 3 72.5 6.5t49.5 12.5t33.5 19.5t17.5 34.5t9.5 51.5t1.5 74.5v819q0 47 -1.5 74.5t-9.5 51.5t-17.5 34.5t-33.5 19.5t-49.5 12.5t-72.5 6.5v57h543v-57q-47 -3 -72.5 -6.5t-49.5 -12.5t-34 -19.5t-18 -34.5t-9.5 -51.5t-1.5 -74.5v-819q0 -48 1.5 -75.5 t9.5 -51.5t18 -34.5t34 -19.5t49.5 -12t72.5 -6v-57h-543zM229 1452q49 31 106 68t121.5 79t94.5 62q18 -3 50.5 -46.5t37.5 -66.5l-4 -16l-379 -131z" />
<glyph unicode="&#xce;" horiz-adv-x="698" d="M70 1452q8 6 43 33t47 36.5t41.5 33t46 38.5t39 36.5t41.5 41.5h45q14 -15 30.5 -31.5t29 -28t33.5 -29.5t30.5 -26t34.5 -28t31 -24.5t35 -27t32 -24.5l-33 -51q-104 44 -248 127q-162 -91 -246 -127zM78 0v57q47 3 72.5 6.5t49.5 12.5t33.5 19.5t17.5 34.5t9.5 51.5 t1.5 74.5v819q0 47 -1.5 74.5t-9.5 51.5t-17.5 34.5t-33.5 19.5t-49.5 12.5t-72.5 6.5v57h543v-57q-47 -3 -72.5 -6.5t-49.5 -12.5t-34 -19.5t-18 -34.5t-9.5 -51.5t-1.5 -74.5v-819q0 -48 1.5 -75.5t9.5 -51.5t18 -34.5t34 -19.5t49.5 -12t72.5 -6v-57h-543z" />
<glyph unicode="&#xcf;" horiz-adv-x="698" d="M57 1526q0 42 29.5 72t69.5 30t68 -29.5t28 -72.5q0 -40 -28.5 -69.5t-69.5 -29.5q-38 0 -67.5 29.5t-29.5 69.5zM78 0v57q47 3 72.5 6.5t49.5 12.5t33.5 19.5t17.5 34.5t9.5 51.5t1.5 74.5v819q0 47 -1.5 74.5t-9.5 51.5t-17.5 34.5t-33.5 19.5t-49.5 12.5t-72.5 6.5v57 h540v-57q-46 -3 -71.5 -6.5t-49 -12.5t-33 -19.5t-17.5 -34.5t-9.5 -51.5t-1.5 -74.5v-819q0 -48 1.5 -75.5t9.5 -51.5t17.5 -34.5t33.5 -19.5t48.5 -12t71.5 -6v-57h-540zM446 1526q0 42 29.5 72t69.5 30t68 -29.5t28 -72.5q0 -40 -28.5 -69.5t-69.5 -29.5 q-38 0 -67.5 29.5t-29.5 69.5z" />
<glyph unicode="&#xd0;" horiz-adv-x="1509" d="M76 655v84h209v312q0 54 -1.5 85t-9 58t-17 39t-32.5 21.5t-47 13t-69 6.5v57h565q385 0 567 -174q81 -77 128.5 -190t47.5 -250q0 -357 -256 -547q-226 -170 -600 -170h-469v57q49 3 76 6.5t51.5 14t35 22.5t19 39t10 58t1.5 84v374h-209zM459 270q0 -56 7 -89 t27.5 -58.5t60 -36t103.5 -10.5q112 0 204.5 32t156.5 88t108.5 133.5t65 167t20.5 189.5q0 169 -59 297.5t-176 200.5q-129 80 -332 80q-120 0 -162 -21q-24 -15 -24 -88v-416h321v-84h-321v-385z" />
<glyph unicode="&#xd1;" horiz-adv-x="1521" d="M41 1274v57h301l856 -1026h6v502q0 240 -14 340q-7 69 -49.5 95t-151.5 32v57h484v-57q-89 -5 -128 -31t-45 -90q-12 -95 -12 -346v-825h-63l-873 1073h-4v-514q0 -228 12 -346q7 -76 48.5 -104t148.5 -34v-57h-485v57q92 6 132.5 33.5t47.5 99.5q12 126 12 351v450 q0 110 -6.5 140.5t-34.5 66.5q-32 38 -70.5 54t-111.5 22zM498 1446q35 90 79 129t89 39q43 0 125 -39q71 -33 112 -33q28 0 49.5 21t44.5 67l50 -28q-30 -94 -75 -134.5t-93 -40.5q-47 0 -144 46q-58 28 -90 28q-50 0 -96 -90z" />
<glyph unicode="&#xd2;" horiz-adv-x="1529" d="M90 651q0 139 48 267t134.5 227t218.5 158t289 59q130 0 249.5 -49t210.5 -136t145.5 -216t54.5 -279q0 -162 -54 -297.5t-147 -225.5t-217.5 -140t-265.5 -50q-184 0 -336 87.5t-241 244t-89 350.5zM299 709q0 -190 64.5 -342.5t178.5 -238t257 -85.5q87 0 164 36.5 t137.5 107t95.5 184t35 256.5q0 158 -39.5 285t-107.5 208t-157.5 124.5t-191.5 43.5q-87 0 -164.5 -37t-138.5 -107.5t-97 -182.5t-36 -252zM500 1565q6 23 38 66.5t50 49.5q262 -170 323 -211l-26 -51l-381 129z" />
<glyph unicode="&#xd3;" horiz-adv-x="1529" d="M90 651q0 139 48 267t134.5 227t218.5 158t289 59q130 0 249.5 -49t210.5 -136t145.5 -216t54.5 -279q0 -162 -54 -297.5t-147 -225.5t-217.5 -140t-265.5 -50q-184 0 -336 87.5t-241 244t-89 350.5zM299 709q0 -190 64.5 -342.5t178.5 -238t257 -85.5q87 0 164 36.5 t137.5 107t95.5 184t35 256.5q0 158 -39.5 285t-107.5 208t-157.5 124.5t-191.5 43.5q-87 0 -164.5 -37t-138.5 -107.5t-97 -182.5t-36 -252zM621 1466q66 42 187.5 121.5t133.5 87.5q18 -3 50.5 -46t37.5 -66l-4 -17l-379 -131z" />
<glyph unicode="&#xd4;" horiz-adv-x="1529" d="M90 651q0 139 48 267t134.5 227t218.5 158t289 59q130 0 249.5 -49t210.5 -136t145.5 -216t54.5 -279q0 -162 -54 -297.5t-147 -225.5t-217.5 -140t-265.5 -50q-184 0 -336 87.5t-241 244t-89 350.5zM299 709q0 -190 64.5 -342.5t178.5 -238t257 -85.5q87 0 164 36.5 t137.5 107t95.5 184t35 256.5q0 158 -39.5 285t-107.5 208t-157.5 124.5t-191.5 43.5q-87 0 -164.5 -37t-138.5 -107.5t-97 -182.5t-36 -252zM483 1466q5 4 37 28.5t40.5 31t35.5 28t40 33t34 30t38 35.5t33 34h45q73 -79 256 -220l-32 -51q-103 44 -248 127 q-162 -91 -246 -127z" />
<glyph unicode="&#xd5;" horiz-adv-x="1529" d="M90 651q0 139 48 267t134.5 227t218.5 158t289 59q130 0 249.5 -49t210.5 -136t145.5 -216t54.5 -279q0 -162 -54 -297.5t-147 -225.5t-217.5 -140t-265.5 -50q-184 0 -336 87.5t-241 244t-89 350.5zM299 709q0 -190 64.5 -342.5t178.5 -238t257 -85.5q87 0 164 36.5 t137.5 107t95.5 184t35 256.5q0 158 -39.5 285t-107.5 208t-157.5 124.5t-191.5 43.5q-87 0 -164.5 -37t-138.5 -107.5t-97 -182.5t-36 -252zM494 1464q35 90 78.5 129t86.5 39q45 0 127 -39q69 -32 111 -32q29 0 51 21.5t43 66.5l51 -27q-29 -95 -74 -134.5t-94 -39.5 q-45 0 -143 43q-3 1 -13.5 6.5t-13 6.5t-11 5t-13 5t-12 3t-14 2.5t-13.5 0.5q-49 0 -98 -90z" />
<glyph unicode="&#xd6;" horiz-adv-x="1529" d="M90 651q0 139 48 267t135 227t219 158t288 59q130 0 249.5 -49t210.5 -136t145.5 -216t54.5 -279q0 -162 -54 -297.5t-147 -225.5t-217.5 -140t-265.5 -50q-184 0 -336 87.5t-241 244t-89 350.5zM299 709q0 -190 64.5 -342.5t179 -238t258.5 -85.5q87 0 163.5 37 t136.5 107t95 183.5t35 256.5q0 158 -39 285t-107 208.5t-157.5 124.5t-192.5 43q-68 0 -131.5 -23t-119 -70.5t-97 -115t-65 -163t-23.5 -207.5zM471 1534q0 42 29 72t69 30t68.5 -29.5t28.5 -72.5q0 -40 -29 -69t-70 -29q-38 0 -67 29t-29 69zM862 1534q0 42 29.5 72 t69.5 30t68 -29.5t28 -72.5q0 -40 -29 -69t-70 -29q-38 0 -67 29t-29 69z" />
<glyph unicode="&#xd7;" horiz-adv-x="1187" d="M123 96l395 408l-395 405l72 78l399 -407l399 409l76 -76l-399 -409l399 -408l-76 -78l-399 408l-399 -408z" />
<glyph unicode="&#xd8;" horiz-adv-x="1533" d="M102 653q0 139 49.5 266.5t137.5 226t221 157.5t289 59q191 0 334 -94l102 153l61 -41l-100 -151q116 -96 187 -237t71 -306q0 -161 -54 -297t-147 -227t-219 -142t-268 -51q-195 0 -354 103l-115 -164l-55 47l108 160q-114 97 -181 235.5t-67 302.5zM307 705 q0 -132 37 -250.5t100 -202.5l615 907q-120 129 -307 129q-88 0 -167 -37t-141.5 -107.5t-99.5 -184t-37 -254.5zM492 188q56 -71 137 -108t172 -37q112 0 199.5 46t141 126.5t80.5 184.5t27 225q0 281 -141 475z" />
<glyph unicode="&#xd9;" horiz-adv-x="1507" d="M68 1274v57h528v-57q-45 -3 -69 -6t-47 -12t-32.5 -20t-17 -36t-9 -54t-1.5 -79v-465q0 -250 98 -385t287 -135q108 0 184.5 43t120 124t63 183.5t19.5 235.5v153q0 228 -14 338q-7 60 -48.5 83.5t-150.5 31.5v57h487v-57q-94 -6 -133 -32t-45 -89q-12 -110 -12 -332 v-168q0 -190 -35 -320t-119 -220q-70 -71 -166 -106.5t-202 -35.5q-201 0 -328 99q-93 71 -136.5 188.5t-43.5 298.5v510q0 37 -1 61.5t-5 46.5t-8 35t-15.5 24.5t-21.5 16.5t-32 10.5t-41 7.5t-54 5zM485 1546q6 23 38 67t50 50q290 -188 324 -211l-27 -51l-381 129z" />
<glyph unicode="&#xda;" horiz-adv-x="1507" d="M68 1274v57h528v-57q-45 -3 -69 -6t-47 -12t-32.5 -20t-17 -36t-9 -54t-1.5 -79v-465q0 -250 98 -385t287 -135q108 0 184.5 43t120 124t63 183.5t19.5 235.5v153q0 228 -14 338q-7 60 -48.5 83.5t-150.5 31.5v57h487v-57q-94 -6 -133 -32t-45 -89q-12 -110 -12 -332 v-168q0 -190 -35 -320t-119 -220q-70 -71 -166 -106.5t-202 -35.5q-201 0 -328 99q-93 71 -136.5 188.5t-43.5 298.5v510q0 37 -1 61.5t-5 46.5t-8 35t-15.5 24.5t-21.5 16.5t-32 10.5t-41 7.5t-54 5zM653 1452q49 31 106 68t121.5 79t94.5 62q18 -3 50.5 -46.5t37.5 -66.5 l-4 -16l-379 -131z" />
<glyph unicode="&#xdb;" horiz-adv-x="1507" d="M68 1274v57h528v-57q-45 -3 -69 -6t-47 -12t-32.5 -20t-17 -36t-9 -54t-1.5 -79v-465q0 -250 98 -385t287 -135q108 0 184.5 43t120 124t63 183.5t19.5 235.5v153q0 228 -14 338q-7 60 -48.5 83.5t-150.5 31.5v57h487v-57q-94 -6 -133 -32t-45 -89q-12 -110 -12 -332 v-168q0 -190 -35 -320t-119 -220q-70 -71 -166 -106.5t-202 -35.5q-201 0 -328 99q-93 71 -136.5 188.5t-43.5 298.5v510q0 37 -1 61.5t-5 46.5t-8 35t-15.5 24.5t-21.5 16.5t-32 10.5t-41 7.5t-54 5zM500 1452q8 6 43 33t47 36.5t41.5 33t46 38.5t39 36.5t41.5 41.5h45 q14 -15 30.5 -31.5t29 -28t33.5 -29.5t30.5 -26t34.5 -28t31 -24.5t35 -27t32 -24.5l-33 -51q-104 44 -248 127q-162 -91 -246 -127z" />
<glyph unicode="&#xdc;" horiz-adv-x="1507" d="M68 1274v57h528v-57q-44 -3 -68 -6t-47 -11.5t-32.5 -20t-17.5 -36.5t-9.5 -54t-1.5 -79v-465q0 -250 98.5 -385t288.5 -135q86 0 152.5 29t110 79.5t71.5 125.5t39.5 161t11.5 191v153q0 228 -14 338q-9 60 -50 84t-149 31v57h487v-57q-94 -6 -133 -32t-45 -89 q-12 -110 -12 -332v-168q0 -191 -35 -320.5t-121 -219.5q-68 -71 -164 -106.5t-202 -35.5q-201 0 -328 99q-93 71 -136.5 188.5t-43.5 298.5v510q0 50 -1.5 78.5t-9.5 53.5t-16.5 35.5t-32.5 20t-47.5 12.5t-70.5 7zM479 1526q0 42 29.5 72t69.5 30t68 -29.5t28 -72.5 q0 -40 -29 -69.5t-70 -29.5q-38 0 -67 29.5t-29 69.5zM868 1526q0 42 29.5 72t69.5 30t68 -29.5t28 -72.5q0 -40 -28.5 -69.5t-69.5 -29.5q-38 0 -67.5 29.5t-29.5 69.5z" />
<glyph unicode="&#xdd;" horiz-adv-x="1298" d="M33 1274v57h487v-57q-54 -7 -82.5 -15t-36.5 -22.5t-3.5 -29.5t20.5 -44q65 -124 276 -485q189 345 242 461q37 76 18 99.5t-137 35.5v57h453v-57q-73 -8 -110.5 -23t-64.5 -43.5t-69 -95.5q-143 -234 -260 -448q-22 -40 -28.5 -64.5t-6.5 -64.5v-279q0 -47 2 -74 t10.5 -51t20 -35t38 -20t55.5 -12.5t81 -6.5v-57h-580v57q51 3 78.5 6.5t53.5 12.5t36.5 19.5t19 34.5t10 51t1.5 75v272q0 31 -7.5 53.5t-33.5 69.5q-17 30 -104 184.5t-152 264.5q-35 60 -53.5 86.5t-45 48.5t-53.5 28.5t-75 10.5zM555 1452q64 41 178 115.5t144 93.5 q18 -3 49.5 -46.5t36.5 -66.5l-2 -16l-379 -131z" />
<glyph unicode="&#xde;" horiz-adv-x="1124" d="M78 0v57q44 3 69 6.5t47.5 13t32 21.5t17 37.5t9 54.5t1.5 80v791q0 52 -1 80.5t-8 55t-16 37.5t-30.5 20.5t-45 13t-67.5 6.5v57h504v-57q-33 -3 -50.5 -4.5t-38 -7t-29.5 -11t-20 -19t-14 -28t-7 -41.5t-4.5 -55.5t-0.5 -73.5q122 4 180 4q209 0 323.5 -84.5 t114.5 -263.5q0 -92 -39.5 -165.5t-106 -119t-150 -69.5t-177.5 -25l-145 35v-86q0 -48 1.5 -76t10 -52t19 -35.5t35 -20.5t51.5 -12.5t75 -6.5v-57h-540zM426 418q62 -25 139 -25q124 0 203.5 76t79.5 215q0 142 -75.5 214.5t-213.5 72.5q-80 0 -110 -19q-12 -7 -17.5 -20 t-5.5 -45v-469z" />
<glyph unicode="&#xdf;" horiz-adv-x="1116" d="M57 827l58 68h96v25q0 94 25 174q11 39 23.5 69.5t50.5 84.5t93 100q119 99 263 110q143 -3 230 -83.5t91 -223.5q0 -49 -22 -86q-211 -164 -211 -279q0 -27 10 -52t35.5 -52.5t42.5 -43t55 -48.5q73 -62 118.5 -126t45.5 -145q0 -58 -25.5 -113.5t-66.5 -96.5 t-90.5 -72.5t-100.5 -47.5t-94 -16q-68 0 -113 27q-47 31 -41 70q3 12 15 28t24 25q22 18 41 2q77 -59 152 -59q55 0 101 42.5t46 127.5q0 62 -34.5 112.5t-106.5 112.5q-86 72 -127 131.5t-41 118.5q0 53 33 104t110 133q81 81 88 92q15 27 15 70q0 103 -70 182.5 t-174 79.5q-49 0 -87 -20t-62.5 -60t-41 -87.5t-24.5 -114.5t-11 -129t-3 -142v-606q0 -97 18 -124t90 -34v-55h-418v55q99 7 123.5 34t24.5 120v598h-143z" />
<glyph unicode="&#xe0;" horiz-adv-x="899" d="M80 225q0 146 166 203q261 87 317 133v35q0 110 -47 170.5t-127 60.5q-56 0 -92 -39q-34 -39 -59 -135q-14 -47 -60 -47q-30 0 -59 26.5t-29 61.5q0 34 64 82q52 39 140 83t167 61q100 0 168 -56q51 -44 71.5 -104.5t20.5 -147.5v-379q0 -64 21 -93t51 -29q36 0 73 22 l21 -53l-174 -105q-23 0 -51.5 12t-45.5 29q-33 33 -49 90q-12 -8 -49 -33.5t-55.5 -37.5t-47.5 -29t-50.5 -24t-38.5 -7q-106 0 -176 75t-70 175zM221 1333l6 17q15 8 76.5 19t83.5 7q20 -48 65 -172.5t64 -171.5l-55 -26q-78 109 -240 327zM254 254q0 -72 45.5 -114 t99.5 -42q39 0 86.5 22t77.5 52v320q-6 -3 -184 -86q-64 -30 -94.5 -64t-30.5 -88z" />
<glyph unicode="&#xe1;" horiz-adv-x="899" d="M80 225q0 146 166 203q261 87 317 133v35q0 110 -47 170.5t-127 60.5q-56 0 -92 -39q-34 -39 -59 -135q-14 -47 -60 -47q-30 0 -59 26.5t-29 61.5q0 34 64 82q52 39 140 83t167 61q100 0 168 -56q51 -44 71.5 -104.5t20.5 -147.5v-379q0 -64 21 -93t51 -29q36 0 73 22 l21 -53l-174 -105q-23 0 -51.5 12t-45.5 29q-33 33 -49 90q-12 -8 -49 -33.5t-55.5 -37.5t-47.5 -29t-50.5 -24t-38.5 -7q-106 0 -176 75t-70 175zM254 254q0 -72 45.5 -114t99.5 -42q39 0 86.5 22t77.5 52v320q-6 -3 -184 -86q-64 -30 -94.5 -64t-30.5 -88zM362 1038 q30 64 140 324q15 7 81 14.5t85 3.5l6 -18l-258 -350z" />
<glyph unicode="&#xe2;" horiz-adv-x="899" d="M80 225q0 146 166 203q261 87 317 133v35q0 110 -47 170.5t-127 60.5q-56 0 -92 -39q-34 -39 -59 -135q-14 -47 -60 -47q-30 0 -59 26.5t-29 61.5q0 34 64 82q52 39 140 83t167 61q100 0 168 -56q51 -44 71.5 -104.5t20.5 -147.5v-379q0 -64 21 -93t51 -29q36 0 73 22 l21 -53l-174 -105q-23 0 -51.5 12t-45.5 29q-33 33 -49 90q-12 -8 -49 -33.5t-55.5 -37.5t-47.5 -29t-50.5 -24t-38.5 -7q-106 0 -176 75t-70 175zM197 1042q102 142 206 334h52q88 -172 202 -334l-51 -34q-85 78 -178 198q-102 -127 -182 -198zM254 254q0 -72 45.5 -114 t99.5 -42q39 0 86.5 22t77.5 52v320q-6 -3 -184 -86q-64 -30 -94.5 -64t-30.5 -88z" />
<glyph unicode="&#xe3;" horiz-adv-x="899" d="M80 225q0 146 166 203q261 87 317 133v35q0 110 -47 170.5t-127 60.5q-56 0 -92 -39q-34 -39 -59 -135q-14 -47 -60 -47q-30 0 -59 26.5t-29 61.5q0 34 64 82q52 39 140 83t167 61q100 0 168 -56q51 -44 71.5 -104.5t20.5 -147.5v-379q0 -64 21 -93t51 -29q36 0 73 22 l21 -53l-174 -105q-23 0 -51.5 12t-45.5 29q-33 33 -49 90q-12 -8 -49 -33.5t-55.5 -37.5t-47.5 -29t-50.5 -24t-38.5 -7q-106 0 -176 75t-70 175zM168 1100q31 97 75.5 140.5t90.5 43.5q41 0 119 -41q73 -39 108 -39q25 0 45.5 23t42.5 69l51 -26q-57 -185 -163 -185 q-47 0 -134 48q-59 32 -94 32q-26 0 -47 -23.5t-43 -74.5zM254 254q0 -72 45.5 -114t99.5 -42q39 0 86.5 22t77.5 52v320q-6 -3 -184 -86q-64 -30 -94.5 -64t-30.5 -88z" />
<glyph unicode="&#xe4;" horiz-adv-x="899" d="M80 225q0 146 166 203q261 87 317 133v35q0 110 -47 170.5t-125 60.5q-61 0 -92 -39q-33 -35 -59 -135q-14 -47 -62 -47q-30 0 -59 26.5t-29 61.5t66 82q52 38 139.5 82.5t165.5 61.5q100 0 168 -56q51 -44 71.5 -104.5t20.5 -147.5v-379q0 -64 20.5 -93t51.5 -29 q36 0 73 22l21 -53l-174 -105q-23 0 -51.5 12t-45.5 29q-33 33 -49 90q-12 -8 -49 -33.5t-55.5 -37.5t-47.5 -29t-50.5 -24t-38.5 -7q-106 0 -176 75t-70 175zM160 1200q0 43 28.5 71.5t69.5 28.5q40 0 68 -29t28 -71q0 -40 -28.5 -69t-69.5 -29q-40 0 -68 29t-28 69z M254 254q0 -72 45.5 -114t99.5 -42q39 0 87.5 22t76.5 52v320q-6 -3 -184 -86q-64 -30 -94.5 -64t-30.5 -88zM504 1200q0 42 29 71t69 29t68 -29t28 -71q0 -40 -28.5 -69t-69.5 -29q-38 0 -67 29t-29 69z" />
<glyph unicode="&#xe5;" horiz-adv-x="899" d="M80 225q0 146 166 203q261 87 317 133v35q0 110 -47 170.5t-127 60.5q-56 0 -92 -39q-34 -39 -59 -135q-14 -47 -60 -47q-30 0 -59 26.5t-29 61.5q0 34 64 82q52 39 140 83t167 61q100 0 168 -56q51 -44 71.5 -104.5t20.5 -147.5v-379q0 -64 21 -93t51 -29q36 0 73 22 l21 -53l-174 -105q-23 0 -51.5 12t-45.5 29q-33 33 -49 90q-6 -4 -47.5 -33t-56 -38.5t-45.5 -28t-52 -25t-38 -6.5q-106 0 -177 75t-71 175zM248 1196q0 76 55.5 124t128.5 48q70 0 125 -48t55 -124q0 -78 -55 -126t-127 -48t-127 48t-55 126zM256 254q0 -73 45 -114.5 t100 -41.5q38 0 86 22t78 52v320q-50 -26 -186 -86q-64 -30 -93.5 -64t-29.5 -88zM340 1196q0 -48 26.5 -80.5t65.5 -32.5q40 0 65 32.5t25 80.5q0 47 -25 78t-67 31q-38 0 -64 -31.5t-26 -77.5z" />
<glyph unicode="&#xe6;" horiz-adv-x="1374" d="M82 221q0 77 39 125t123 78q19 7 88 31t103.5 37t79.5 33t67 36v49q0 95 -53 156t-128 61q-63 0 -96 -45q-30 -37 -55 -131q-15 -49 -57 -49q-28 0 -61.5 27.5t-33.5 58.5q0 43 64 88q60 40 146 83t163 61q93 0 152 -43q54 -39 82 -113q63 71 143 113.5t160 42.5 q129 0 221 -95t94 -215q0 -36 -9 -50.5t-38 -20.5t-201 -18t-344 -17q-1 -98 25.5 -175t73 -123t103 -69.5t118.5 -23.5q119 0 227 102l35 -43q-55 -74 -125.5 -121t-120 -61.5t-88.5 -14.5q-110 0 -194.5 48.5t-135.5 134.5l-71 -58q-69 -51 -138 -88t-110 -37 q-108 0 -178 75t-70 171zM256 260q0 -72 45.5 -114t106.5 -42q53 0 109.5 27t103.5 88q-41 83 -41 273q-23 -12 -201 -86q-67 -29 -95 -60.5t-28 -85.5zM743 586q40 1 112.5 1.5t133.5 1.5t115 3q23 0 33 10t10 35q0 84 -51 144.5t-138 60.5q-75 0 -138 -67t-77 -189z" />
<glyph unicode="&#xe7;" horiz-adv-x="862" d="M76 399q0 119 53 223t152 179q153 119 313 119q45 0 99.5 -16t84.5 -40q34 -27 31 -61q-1 -30 -26.5 -59t-47.5 -29q-17 0 -37 22q-95 82 -211 82q-44 0 -85.5 -18.5t-78 -55.5t-59 -101.5t-22.5 -147.5q0 -85 21.5 -153t55 -109.5t76 -69.5t81.5 -38.5t75 -10.5 q70 0 125 24t125 90l37 -45q-136 -165 -283 -198l-27 -39q-17 -28 -14 -42t29 -42q75 -72 75 -137q0 -61 -61.5 -116.5t-167.5 -90.5l-22 53q59 25 89.5 58t30.5 67q0 15 -8.5 31t-15 23t-23.5 24q-38 37 -43 61t21 62l59 77q-177 6 -289 126.5t-112 297.5z" />
<glyph unicode="&#xe8;" horiz-adv-x="870" d="M76 412q0 210 135 358q64 70 143 110t156 40h2q125 0 216 -95.5t91 -216.5q0 -32 -9.5 -45.5t-37.5 -19.5q-31 -6 -200.5 -18t-335.5 -17q1 -100 28.5 -178.5t72.5 -123.5t97.5 -68t108.5 -23q124 0 235 102l31 -45q-86 -106 -178 -151.5t-156 -45.5q-122 0 -214.5 61.5 t-138.5 160t-46 215.5zM246 592q170 0 348 6q28 0 38.5 9t10.5 32q2 83 -48.5 144t-133.5 61q-72 0 -132.5 -66t-82.5 -186zM248 1333l6 17q15 8 76.5 19t83.5 7q20 -48 65 -172.5t64 -171.5l-56 -26q-104 145 -239 327z" />
<glyph unicode="&#xe9;" horiz-adv-x="870" d="M76 412q0 210 135 358q64 70 143 110t156 40h2q125 0 216 -95.5t91 -216.5q0 -32 -9.5 -45.5t-37.5 -19.5q-31 -6 -200.5 -18t-335.5 -17q1 -100 28.5 -178.5t72.5 -123.5t97.5 -68t108.5 -23q124 0 235 102l31 -45q-86 -106 -178 -151.5t-156 -45.5q-122 0 -214.5 61.5 t-138.5 160t-46 215.5zM246 592q170 0 348 6q28 0 38.5 9t10.5 32q2 83 -48.5 144t-133.5 61q-72 0 -132.5 -66t-82.5 -186zM393 1038q18 39 139 324q15 7 81 14.5t85 3.5l7 -18l-259 -350z" />
<glyph unicode="&#xea;" horiz-adv-x="870" d="M76 412q0 210 135 358q64 70 143 110t156 40h2q125 0 216 -95.5t91 -216.5q0 -32 -9.5 -45.5t-37.5 -19.5q-31 -6 -200.5 -18t-335.5 -17q1 -100 28.5 -178.5t72.5 -123.5t97.5 -68t108.5 -23q124 0 235 102l31 -45q-86 -106 -178 -151.5t-156 -45.5q-122 0 -214.5 61.5 t-138.5 160t-46 215.5zM236 1042q102 142 206 334h52q88 -172 202 -334l-51 -34q-85 78 -178 198q-102 -127 -182 -198zM246 592q170 0 348 6q28 0 38.5 9t10.5 32q2 83 -48.5 144t-133.5 61q-72 0 -132.5 -66t-82.5 -186z" />
<glyph unicode="&#xeb;" horiz-adv-x="870" d="M76 412q0 102 36 194.5t99 163.5q64 70 143 110t156 40h2q125 0 215 -95.5t90 -216.5q0 -32 -9.5 -45.5t-37.5 -19.5q-31 -6 -199.5 -18t-332.5 -17q1 -100 28 -178.5t72 -123.5t97 -68t108 -23q125 0 233 102l31 -45q-59 -74 -128.5 -121t-117.5 -61.5t-86 -14.5 q-121 0 -213.5 61.5t-139 160t-46.5 215.5zM188 1200q0 42 29.5 71t69.5 29q41 0 68.5 -28.5t27.5 -71.5q0 -40 -28 -69t-70 -29q-39 0 -68 29t-29 69zM248 592q168 0 346 6q28 0 38.5 9t10.5 32q0 84 -49.5 144.5t-132.5 60.5q-72 0 -131.5 -66t-81.5 -186zM535 1200 q0 42 29 71t69 29t68 -29t28 -71q0 -40 -28.5 -69t-69.5 -29q-38 0 -67 29t-29 69z" />
<glyph unicode="&#xec;" horiz-adv-x="548" d="M51 1333l6 17q15 8 76.5 19t83.5 7q20 -48 65 -172.5t64 -171.5l-55 -26q-78 109 -240 327zM68 0v53q35 3 55.5 6.5t38.5 11.5t26 17.5t14 29.5t7.5 42.5t1.5 60.5v410q0 56 -2.5 81.5t-18 44.5t-37 24.5t-71.5 13.5v49q159 24 291 80v-703q0 -46 3 -71t10 -45t25 -29 t41 -14t66 -9v-53h-450z" />
<glyph unicode="&#xed;" horiz-adv-x="548" d="M68 0v53q35 3 55.5 6.5t38.5 11.5t26 17.5t14 29.5t7.5 42.5t1.5 60.5v410q0 56 -2.5 81.5t-18 44.5t-37 24.5t-71.5 13.5v49q159 24 291 80v-703q0 -46 3 -71t10 -45t25 -29t41 -14t66 -9v-53h-450zM201 1038q18 39 139 324q15 7 81 14.5t85 3.5l6 -18l-258 -350z" />
<glyph unicode="&#xee;" horiz-adv-x="548" d="M41 1042q106 148 207 334h51q86 -167 203 -334l-51 -34q-88 82 -179 198q-102 -127 -182 -198zM68 0v53q35 3 55.5 6.5t38.5 11.5t26 17.5t14 29.5t7.5 42.5t1.5 60.5v410q0 56 -2.5 81.5t-18 44.5t-37 24.5t-71.5 13.5v49q159 24 291 80v-703q0 -46 3 -71t10 -45t25 -29 t41 -14t66 -9v-53h-450z" />
<glyph unicode="&#xef;" horiz-adv-x="548" d="M0 1200q0 43 29.5 73t70.5 30q40 0 67.5 -30t27.5 -73q0 -40 -28 -69t-69 -29q-40 0 -69 29t-29 69zM68 0v53q35 3 55.5 6.5t38.5 11.5t26 17.5t14 29.5t7.5 42.5t1.5 60.5v410q0 56 -2.5 81.5t-18 44.5t-37 24.5t-71.5 13.5v49q159 24 291 80v-703q0 -38 1.5 -60.5 t7.5 -42.5t14 -29.5t26 -17.5t38.5 -11.5t55.5 -6.5v-53h-448zM344 1200q0 43 29.5 73t70.5 30q40 0 68.5 -30t28.5 -73q0 -40 -29 -69t-70 -29q-40 0 -69 29t-29 69z" />
<glyph unicode="&#xf0;" horiz-adv-x="1034" d="M78 428q0 96 28.5 178.5t75 139t106 96.5t121 59t119.5 19h2q106 0 197 -52q-37 172 -147 299l-297 -159l-33 63l276 148q-163 151 -354 178q-9 12 -4.5 32.5t16.5 28.5q110 -6 230 -52t217 -126l258 137l33 -63l-232 -125q135 -144 200.5 -310.5t65.5 -371.5 q0 -143 -37.5 -255t-101.5 -180t-142.5 -102.5t-166.5 -34.5q-96 0 -178.5 40t-136.5 104.5t-84.5 145t-30.5 163.5zM268 485q0 -195 75 -317.5t200 -122.5q47 0 86 21t73 68.5t53.5 136t20.5 210.5q1 133 -13 194t-48 95q-79 82 -197 82q-111 0 -180.5 -101t-69.5 -266z " />
<glyph unicode="&#xf1;" horiz-adv-x="1120" d="M59 0v53q39 4 60 7t40.5 11t27 16.5t14 27.5t7.5 40t1 58v422q0 97 -19 121t-104 39v47q166 31 285 82v-162q28 21 137 96q96 62 170 62q123 0 193.5 -82.5t70.5 -229.5v-395q0 -38 1 -59.5t7 -40.5t12.5 -27.5t24 -16t35 -10.5t51.5 -6v-53h-428v53q91 9 113 36.5 t22 133.5v342q0 234 -186 234q-102 0 -223 -105v-481q0 -38 1 -59.5t7 -40.5t13 -27.5t24.5 -16t35.5 -10.5t52 -6v-53h-445zM289 1100q31 97 75.5 140.5t90.5 43.5q40 0 118 -41q73 -39 109 -39q25 0 45.5 23t42.5 69l51 -26q-57 -185 -162 -185q-44 0 -135 48 q-59 32 -92 32q-50 0 -90 -98z" />
<glyph unicode="&#xf2;" horiz-adv-x="1044" d="M76 428q0 121 43.5 218.5t111.5 155t144.5 88t150.5 30.5q124 0 226.5 -61.5t159.5 -166t57 -229.5q0 -96 -27 -177.5t-71.5 -137.5t-102.5 -96t-120 -58.5t-124 -18.5q-102 0 -188 38.5t-142 102.5t-87 145t-31 167zM266 494q0 -196 77.5 -323.5t203.5 -127.5 q104 0 167.5 88.5t63.5 286.5q0 187 -73.5 310.5t-204.5 123.5q-97 0 -165.5 -96t-68.5 -262zM309 1333l6 17q15 8 76.5 19t83.5 7q20 -48 65 -172.5t64 -171.5l-55 -26q-78 109 -240 327z" />
<glyph unicode="&#xf3;" horiz-adv-x="1044" d="M76 428q0 121 43.5 218.5t111.5 155t144.5 88t150.5 30.5q124 0 226.5 -61.5t159.5 -166t57 -229.5q0 -96 -27 -177.5t-71.5 -137.5t-102.5 -96t-120 -58.5t-124 -18.5q-102 0 -188 38.5t-142 102.5t-87 145t-31 167zM266 494q0 -196 77.5 -323.5t203.5 -127.5 q104 0 167.5 88.5t63.5 286.5q0 187 -73.5 310.5t-204.5 123.5q-97 0 -165.5 -96t-68.5 -262zM449 1038q18 39 139 324q15 7 81 14.5t85 3.5l6 -18l-258 -350z" />
<glyph unicode="&#xf4;" horiz-adv-x="1044" d="M76 428q0 121 43.5 218.5t111.5 155t144.5 88t150.5 30.5q124 0 226.5 -61.5t159.5 -166t57 -229.5q0 -96 -27 -177.5t-71.5 -137.5t-102.5 -96t-120 -58.5t-124 -18.5q-102 0 -188 38.5t-142 102.5t-87 145t-31 167zM266 494q0 -196 77.5 -323.5t203.5 -127.5 q104 0 167.5 88.5t63.5 286.5q0 187 -73.5 310.5t-204.5 123.5q-97 0 -165.5 -96t-68.5 -262zM291 1042q106 148 207 334h51q86 -167 203 -334l-52 -34q-85 78 -178 198q-102 -127 -182 -198z" />
<glyph unicode="&#xf5;" horiz-adv-x="1044" d="M76 428q0 121 43.5 218.5t111.5 155t144.5 88t150.5 30.5q124 0 226.5 -61.5t159.5 -166t57 -229.5q0 -96 -27 -177.5t-71.5 -137.5t-102.5 -96t-120 -58.5t-124 -18.5q-102 0 -188 38.5t-142 102.5t-87 145t-31 167zM256 1100q31 97 75.5 140.5t90.5 43.5q41 0 119 -41 q73 -39 108 -39q25 0 45.5 23t42.5 69l51 -26q-57 -185 -161 -185q-48 0 -135 48q-59 32 -95 32q-26 0 -47 -23.5t-43 -74.5zM266 494q0 -196 77.5 -323.5t203.5 -127.5q104 0 167.5 88.5t63.5 286.5q0 187 -73.5 310.5t-204.5 123.5q-97 0 -165.5 -96t-68.5 -262z" />
<glyph unicode="&#xf6;" horiz-adv-x="1044" d="M76 428q0 97 29 180.5t76 139.5t107 96t121 58t119 18q186 0 313.5 -133.5t127.5 -323.5q0 -95 -27 -177t-71 -138t-102 -96t-119.5 -58.5t-123.5 -18.5q-103 0 -189.5 38.5t-142.5 103t-87 145t-31 166.5zM252 1200q0 42 29 71t69 29t68 -29t28 -71q0 -40 -28.5 -69 t-69.5 -29q-38 0 -67 29t-29 69zM268 494q0 -196 77.5 -323.5t203.5 -127.5q103 0 166 88.5t63 286.5q0 121 -31 218t-94.5 156.5t-150.5 59.5q-97 0 -165.5 -96t-68.5 -262zM596 1200q0 42 29 71t71 29q40 0 68.5 -29t28.5 -71q0 -40 -29 -69t-70 -29q-40 0 -69 29t-29 69z " />
<glyph unicode="&#xf7;" horiz-adv-x="1187" d="M104 469v102h979v-102h-979zM494 215q0 43 30 71.5t74 28.5q37 0 67.5 -29.5t30.5 -70.5q0 -39 -31.5 -69.5t-68.5 -30.5q-42 0 -72 30t-30 70zM498 825q0 39 31 70t69 31q41 0 71.5 -30.5t30.5 -70.5q0 -42 -30.5 -71t-73.5 -29q-38 0 -68 29t-30 71z" />
<glyph unicode="&#xf8;" horiz-adv-x="1050" d="M76 430q0 96 29 178.5t76.5 138.5t108 96t122 58.5t120.5 18.5q119 0 224 -62l75 109l54 -39l-72 -107q77 -65 119.5 -158t42.5 -198q0 -117 -40 -212.5t-104.5 -154.5t-141.5 -91t-157 -32q-130 0 -239 64l-80 -113l-51 45l76 107q-76 66 -119 159.5t-43 192.5zM258 477 q0 -163 64 -272l370 557q-30 41 -79 65.5t-103 24.5q-107 0 -179.5 -99.5t-72.5 -275.5zM365 143q65 -100 186 -100q49 0 91.5 22.5t77.5 67.5t55 123t20 180q0 150 -62 262z" />
<glyph unicode="&#xf9;" horiz-adv-x="1087" d="M59 825v47q26 1 148 15q120 17 145 22q-6 -63 -6 -297v-276q0 -126 50.5 -179t129.5 -53q120 0 222 99v479q0 79 -16 101t-70 30l-74 12v47q80 3 184 17q74 8 137 20v-684q0 -75 17.5 -95.5t79.5 -25.5l55 -2v-53q-60 -8 -158 -33q-27 -7 -75.5 -21.5t-67.5 -19.5l-12 13 v145q-105 -78 -152 -106q-88 -52 -158 -52q-112 0 -183 75t-71 231v401q0 54 -7 80t-19 35t-41 16zM305 1333l6 17q13 8 75.5 18.5t84.5 7.5q19 -47 64 -170.5t65 -173.5l-55 -26q-138 190 -240 327z" />
<glyph unicode="&#xfa;" horiz-adv-x="1087" d="M59 825v47q26 1 148 15q120 17 145 22q-6 -63 -6 -297v-276q0 -126 50.5 -179t129.5 -53q120 0 222 99v479q0 79 -16 101t-70 30l-74 12v47q80 3 184 17q74 8 137 20v-684q0 -75 17.5 -95.5t79.5 -25.5l55 -2v-53q-60 -8 -158 -33q-27 -7 -75.5 -21.5t-67.5 -19.5l-12 13 v145q-105 -78 -152 -106q-88 -52 -158 -52q-112 0 -183 75t-71 231v401q0 54 -7 80t-19 35t-41 16zM463 1036q56 123 137 326q15 7 81.5 14.5t84.5 3.5l6 -18l-256 -352z" />
<glyph unicode="&#xfb;" horiz-adv-x="1087" d="M59 825v47q26 1 148 15q120 17 145 22q-6 -63 -6 -297v-276q0 -126 50.5 -179t129.5 -53q120 0 222 99v479q0 79 -16 101t-70 30l-74 12v47q80 3 184 17q74 8 137 20v-684q0 -75 17.5 -95.5t79.5 -25.5l55 -2v-53q-60 -8 -158 -33q-27 -7 -75.5 -21.5t-67.5 -19.5l-12 13 v145q-105 -78 -152 -106q-88 -52 -158 -52q-112 0 -183 75t-71 231v401q0 54 -7 80t-19 35t-41 16zM305 1040q106 148 207 334h51q92 -176 203 -334l-49 -34q-85 77 -180 198q-92 -114 -183 -198z" />
<glyph unicode="&#xfc;" horiz-adv-x="1087" d="M59 825v49q56 3 148 13q120 17 145 22q-6 -63 -6 -297v-276q0 -126 50.5 -179t129.5 -53q120 0 222 99v479q0 79 -16 101t-70 30l-74 12v49q57 2 184 15q74 8 137 20v-684q0 -75 17.5 -95.5t79.5 -25.5l55 -2v-53q-60 -8 -158 -33q-27 -7 -75.5 -21.5t-67.5 -19.5l-12 13 v145q-105 -78 -152 -106q-88 -52 -158 -52q-112 0 -183 75t-71 231v401q0 78 -13 100.5t-54 30.5zM258 1202q0 42 29 71.5t69 29.5q41 0 69 -29t28 -72q0 -40 -28.5 -69t-70.5 -29q-38 0 -67 29t-29 69zM602 1200q0 43 29.5 73t70.5 30q40 0 67.5 -30t27.5 -73 q0 -40 -28 -69t-69 -29q-40 0 -69 29t-29 69z" />
<glyph unicode="&#xfd;" horiz-adv-x="940" d="M4 842v53h414l2 -53q-71 -10 -86 -32.5t8 -80.5l184 -512q120 292 189 510q21 57 0.5 81t-107.5 34v53h371v-53q-80 -12 -109 -36t-71 -112q-24 -49 -54 -120.5t-91.5 -222t-112.5 -273.5q-105 -250 -147.5 -361.5t-63.5 -191.5q-12 -51 -66 -51q-43 0 -78.5 30.5 t-35.5 67.5q0 24 11.5 40t39.5 36q47 28 80.5 68.5t72.5 111.5q42 82 64 141q13 41 -4 92q-135 384 -234 627q-35 89 -64.5 116.5t-111.5 37.5zM446 1038q30 64 140 324q15 7 81 14.5t85 3.5l6 -18l-258 -350z" />
<glyph unicode="&#xfe;" horiz-adv-x="1052" d="M10 -436q43 4 65 8.5t41.5 13.5t26.5 27.5t11 44.5t4 70v1456q0 39 -0.5 59.5t-7 40t-13 27t-26 15t-39 10t-58.5 5.5v52q162 16 305 65v-672q93 51 228 117q34 17 71 17q82 0 151 -34.5t113 -90t68.5 -124t24.5 -139.5q0 -112 -41 -209t-111.5 -166.5t-162.5 -116 t-197 -65.5q-74 4 -144 41v-282q0 -58 4.5 -86.5t26.5 -48t53 -25t99 -10.5v-53h-492v53zM319 164q32 -35 89 -59.5t112 -24.5t104.5 20.5t90.5 62.5t65.5 115t24.5 168q0 171 -79.5 262t-203.5 91q-84 0 -203 -80v-555z" />
<glyph unicode="&#xff;" horiz-adv-x="940" d="M4 842v53h414l2 -53q-71 -10 -86 -32.5t8 -80.5l184 -512q120 292 189 510q21 57 0.5 81t-107.5 34v53h371v-53q-80 -12 -109 -36t-71 -112q-24 -49 -54 -120.5t-91.5 -222t-112.5 -273.5q-105 -250 -147.5 -361.5t-63.5 -191.5q-12 -51 -66 -51q-43 0 -78.5 30.5 t-35.5 67.5q0 24 11.5 40t39.5 36q47 28 80.5 68.5t72.5 111.5q42 82 64 141q13 41 -4 92q-135 384 -234 627q-35 89 -64.5 116.5t-111.5 37.5zM225 1202q0 43 29 72t70 29q40 0 67 -29t27 -72q0 -40 -27.5 -69t-68.5 -29q-40 0 -68.5 29t-28.5 69zM569 1202q0 43 29 72 t70 29q40 0 67 -29t27 -72q0 -40 -27.5 -69t-68.5 -29q-40 0 -68.5 29t-28.5 69z" />
<glyph unicode="&#x152;" horiz-adv-x="1992" d="M92 649q0 209 104 371t281 248t397 86q43 0 195 -13q117 -10 191 -10h565q5 -123 18 -291l-61 -6q-27 122 -62 170q-22 31 -71 43.5t-160 12.5h-158q-45 0 -55 -9.5t-10 -52.5v-467h202q46 0 74.5 1.5t51.5 9.5t34 15t21 28.5t14 39t12 56.5h62v-389h-62q-6 32 -9.5 47.5 t-10 35.5t-12 28t-17 19t-23.5 14.5t-33 7.5t-44 4.5t-58 0.5h-202v-377q0 -80 10.5 -117.5t38.5 -56.5q19 -13 55 -19t63 -6.5t93 -0.5q118 0 171.5 13.5t88.5 51.5q47 51 98 193l62 -8q-29 -160 -72 -322h-627q-116 0 -209 -8q-165 -15 -207 -15q-147 0 -270 36.5 t-208.5 99.5t-145 149t-87.5 183.5t-28 203.5zM301 676q0 -99 18.5 -188t60.5 -170t105 -140t157.5 -94t211.5 -35q103 0 166 29q40 21 56 51.5t16 95.5v893q0 56 -8 82.5t-29 38.5q-71 43 -203 43q-258 0 -404.5 -163t-146.5 -443z" />
<glyph unicode="&#x153;" horiz-adv-x="1576" d="M76 426q0 98 29 181.5t75.5 139.5t105.5 96.5t118 58.5t114 18q112 0 202 -55.5t142 -151.5q58 90 154 148.5t192 58.5q130 0 223 -94t93 -216q0 -37 -9 -50t-36 -19q-29 -6 -204 -18t-347 -17q-1 -103 25.5 -181t73 -123t102 -67t118.5 -22q113 0 232 104l30 -45 q-78 -106 -170 -151.5t-159 -45.5q-108 0 -195 48t-137 131q-63 -87 -152.5 -133t-181.5 -46q-99 0 -183.5 39.5t-139 104t-85 144.5t-30.5 163zM268 494q0 -200 75.5 -324.5t201.5 -124.5q97 0 161 92.5t64 286.5q0 188 -71.5 307t-200.5 119q-97 0 -163.5 -96t-66.5 -260z M940 586q40 1 113 1.5t135.5 1.5t118.5 3q22 0 31.5 11t9.5 38q0 88 -53.5 145.5t-139.5 57.5q-75 0 -138 -68.5t-77 -189.5z" />
<glyph unicode="&#x178;" horiz-adv-x="1298" d="M33 1274v57h487v-57q-54 -7 -82.5 -15t-36.5 -22.5t-3.5 -29.5t20.5 -44q65 -124 276 -485q189 345 242 461q37 76 18 99.5t-137 35.5v57h453v-57q-73 -8 -110.5 -23t-64.5 -43.5t-69 -95.5q-123 -196 -260 -448q-20 -40 -26.5 -64.5t-6.5 -64.5v-279q0 -47 1.5 -74 t10 -51t20 -35t37.5 -20t55 -12.5t81 -6.5v-57h-580v57q51 3 78.5 6.5t53.5 12.5t36.5 19.5t19 34.5t10 51t1.5 75v272q0 30 -7.5 52t-33.5 71q-17 30 -104 184.5t-152 264.5q-35 60 -53.5 86.5t-45 48.5t-53.5 28.5t-75 10.5zM377 1526q0 42 29 71t69 29t68 -29t28 -71 q0 -40 -28.5 -69.5t-69.5 -29.5q-38 0 -67 29.5t-29 69.5zM766 1526q0 42 28.5 72t67.5 30h4q40 0 67.5 -29.5t27.5 -72.5q0 -40 -28 -69.5t-69 -29.5q-40 0 -69 29.5t-29 69.5z" />
<glyph unicode="&#x2c6;" horiz-adv-x="819" d="M180 1042q106 148 207 334h51q86 -167 203 -334l-51 -34q-85 78 -178 198q-100 -123 -183 -198z" />
<glyph unicode="&#x2dc;" horiz-adv-x="819" d="M143 1100q31 97 75.5 140.5t90.5 43.5q40 0 119 -39q73 -39 109 -39q25 0 46 22.5t42 67.5l51 -26q-57 -185 -162 -185q-44 0 -135 48q-56 32 -92 32q-50 0 -90 -98z" />
<glyph unicode="&#x2000;" horiz-adv-x="875" />
<glyph unicode="&#x2001;" horiz-adv-x="1751" />
<glyph unicode="&#x2002;" horiz-adv-x="875" />
<glyph unicode="&#x2003;" horiz-adv-x="1751" />
<glyph unicode="&#x2004;" horiz-adv-x="583" />
<glyph unicode="&#x2005;" horiz-adv-x="437" />
<glyph unicode="&#x2006;" horiz-adv-x="291" />
<glyph unicode="&#x2007;" horiz-adv-x="291" />
<glyph unicode="&#x2008;" horiz-adv-x="218" />
<glyph unicode="&#x2009;" horiz-adv-x="350" />
<glyph unicode="&#x200a;" horiz-adv-x="97" />
<glyph unicode="&#x2010;" horiz-adv-x="729" d="M117 406l28 112h469l-28 -112h-469z" />
<glyph unicode="&#x2011;" horiz-adv-x="729" d="M117 406l28 112h469l-28 -112h-469z" />
<glyph unicode="&#x2012;" horiz-adv-x="729" d="M117 406l28 112h469l-28 -112h-469z" />
<glyph unicode="&#x2013;" horiz-adv-x="1064" d="M102 412v104h859v-104h-859z" />
<glyph unicode="&#x2014;" horiz-adv-x="1888" d="M102 412v104h1684v-104h-1684z" />
<glyph unicode="&#x2018;" horiz-adv-x="458" d="M86 1198q0 101 78.5 170.5t187.5 97.5l21 -53q-81 -35 -120.5 -74.5t-39.5 -97.5q0 -53 36 -86t91 -43q12 -2 20.5 -12.5t8.5 -28.5q0 -38 -28.5 -59t-59.5 -21h-2q-72 0 -132.5 58t-60.5 149z" />
<glyph unicode="&#x2019;" horiz-adv-x="456" d="M86 1034q79 33 118.5 72.5t39.5 99.5q0 51 -36 84t-91 43q-27 4 -27 41q0 38 28 59t60 21q70 0 130.5 -58t60.5 -149q0 -69 -40.5 -125.5t-97.5 -89.5t-125 -51z" />
<glyph unicode="&#x201a;" horiz-adv-x="489" d="M100 -172q83 36 124.5 75.5t41.5 98.5q0 53 -38.5 87t-96.5 42q-10 2 -18.5 13t-8.5 30q0 38 29 59t62 21q74 0 137 -59.5t63 -151.5q0 -105 -80.5 -175.5t-193.5 -98.5z" />
<glyph unicode="&#x201c;" horiz-adv-x="815" d="M86 1198q0 100 78 169t188 99l21 -55q-80 -33 -120 -72.5t-40 -97.5q0 -53 36 -86t91 -43q11 -2 20 -13t9 -28q0 -36 -28.5 -57t-59.5 -21h-2q-72 0 -132.5 57t-60.5 148zM444 1198q0 100 78.5 169t188.5 99l20 -55q-80 -33 -120 -72.5t-40 -97.5q0 -53 36.5 -86 t92.5 -43q10 -2 18.5 -13t8.5 -28q0 -36 -28.5 -57t-59.5 -21h-2q-72 0 -132.5 57t-60.5 148z" />
<glyph unicode="&#x201d;" horiz-adv-x="821" d="M84 1032q80 33 120 72.5t40 99.5q0 53 -36.5 86t-92.5 43q-10 2 -18.5 13t-8.5 28q0 38 29 59t61 21q71 0 132 -58.5t61 -150.5q0 -101 -79 -170.5t-188 -97.5zM449 1032q79 33 119 72.5t40 99.5q0 52 -37 85.5t-92 43.5q-10 2 -18 13t-8 28q0 38 28.5 59t59.5 21 q72 0 133 -58.5t61 -150.5q0 -52 -23.5 -98t-62.5 -78.5t-85 -55.5t-97 -36z" />
<glyph unicode="&#x201e;" horiz-adv-x="878" d="M100 -172q83 36 124.5 75.5t41.5 98.5q0 52 -39 86.5t-96 44.5q-27 4 -27 41q0 38 29.5 60t61.5 22q74 0 137 -59.5t63 -153.5q0 -71 -42 -129.5t-101 -92t-131 -52.5zM479 -172q83 35 124.5 75t41.5 99q0 52 -39 86.5t-96 44.5q-10 2 -18.5 13t-8.5 28q0 38 29 60t61 22 q73 0 137 -60t64 -153q0 -71 -42.5 -129.5t-101.5 -92t-130 -52.5z" />
<glyph unicode="&#x2022;" horiz-adv-x="798" d="M133 446q0 113 78.5 193t191.5 80q108 0 185.5 -80.5t77.5 -192.5q0 -115 -78 -194.5t-187 -79.5q-113 0 -190.5 79.5t-77.5 194.5z" />
<glyph unicode="&#x2026;" horiz-adv-x="1986" d="M215 94q0 50 32.5 83.5t82.5 33.5q49 0 81.5 -33.5t32.5 -83.5q0 -54 -32.5 -86.5t-83.5 -32.5q-50 0 -81.5 32.5t-31.5 86.5zM881 94q0 50 32 83.5t82 33.5q49 0 82 -33.5t33 -83.5q0 -54 -33 -86.5t-84 -32.5q-50 0 -81 32.5t-31 86.5zM1538 94q0 50 33 83.5t82 33.5 q50 0 82 -33.5t32 -83.5q0 -54 -31.5 -86.5t-84.5 -32.5q-48 0 -80.5 33t-32.5 86z" />
<glyph unicode="&#x202f;" horiz-adv-x="350" />
<glyph unicode="&#x2039;" horiz-adv-x="571" d="M100 453q162 167 324 376l47 -30l-192 -346l192 -342l-47 -33q-189 244 -324 375z" />
<glyph unicode="&#x203a;" horiz-adv-x="571" d="M100 109l193 344l-193 346l47 30q192 -244 324 -376q-135 -131 -324 -375z" />
<glyph unicode="&#x205f;" horiz-adv-x="437" />
<glyph unicode="&#x20ac;" d="M14 516l25 74h92q-3 61 6 131h-82l23 74h69q38 235 177 371.5t335 136.5q39 0 79.5 -6.5t64.5 -13.5t55 -17.5t37 -12.5q12 -81 31 -243l-60 -15q-31 126 -80.5 182t-150.5 56q-117 0 -199 -116t-108 -322h551l-23 -74h-537q-5 -63 -2 -131h508l-22 -74h-477 q49 -471 301 -471q84 0 138.5 55.5t115.5 180.5l59 -21q-33 -138 -84 -235q-43 -17 -114 -33.5t-132 -16.5q-111 1 -198 43t-143 117t-88.5 170t-43.5 211h-123z" />
<glyph unicode="&#x2122;" horiz-adv-x="940" d="M53 1202q1 22 3.5 62t2.5 53h25q3 -7 10 -10q4 -2 17 -2h219q14 0 26 12h25q0 -21 4 -115h-31q-14 46 -22 53q-15 15 -49 15h-31v-199q0 -42 8 -51t47 -10v-33h-176v33q38 1 45.5 10t7.5 51v199h-26q-37 0 -54 -17q-13 -13 -22 -51h-29zM410 977v33q40 0 43 26 q10 29 14 88l6 80q3 42 -5 52.5t-46 11.5v37h131l100 -207l101 207h131v-37q-32 -1 -39.5 -10t-7.5 -44l2 -139q0 -44 7 -53.5t40 -11.5v-33h-162v33q34 1 40.5 9.5t6.5 47.5l2 184h-4l-121 -268h-24l-109 252h-4l-6 -117q-2 -41 -2 -80q2 -15 11.5 -21t37.5 -7v-33h-143z " />
<glyph unicode="&#xe000;" horiz-adv-x="890" d="M0 0v891h891v-891h-891z" />
<glyph unicode="&#xfb01;" horiz-adv-x="1095" d="M51 836l58 59h98v47q0 81 22 160q46 147 168 246q123 96 256 110q82 -3 138 -33.5t79 -64.5q24 -36 11 -74q-19 -35 -45 -49q-37 -24 -60 2q-103 121 -213 121q-80 0 -127 -74q-67 -91 -67 -321v-70h161q261 0 385 27v-717q0 -35 1 -55.5t7.5 -38.5t14 -26t26 -15.5 t39 -10.5t56.5 -6v-53h-434v53q47 4 69.5 9.5t37.5 22.5t18.5 42.5t3.5 77.5v502q0 71 -17 88.5t-90 17.5h-278v-608q0 -95 23 -119t120 -33v-53h-451v53q54 6 78.5 11.5t42 22.5t21.5 42t4 76v608h-148z" />
<glyph unicode="&#xfb02;" horiz-adv-x="1091" d="M55 836l56 59h96v35q0 108 26 184q37 135 166 238q112 91 240 106q97 0 168 -47q15 4 29 10t36 18t27 15l16 -10v-1239q0 -51 4 -76t21.5 -42.5t43 -23t79.5 -10.5v-53h-442v53q48 4 71.5 9.5t39 23t19 43t3.5 76.5v1069q-26 40 -77.5 66t-105.5 26q-86 0 -139 -74 q-63 -81 -63 -291v-106h237q10 -13 4.5 -42.5t-22.5 -39.5h-219v-608q0 -95 21.5 -119t115.5 -33v-53h-443v53q53 6 77.5 11.5t42 22.5t21 42t3.5 76v608h-144z" />
</font>
</defs>
</svg>
