<?xml version="1.0" standalone="no"?>
<!DOCTYPE svg PUBLIC "-//W3C//DTD SVG 1.1//EN" "http://www.w3.org/Graphics/SVG/1.1/DTD/svg11.dtd" >
<svg xmlns="http://www.w3.org/2000/svg">
<metadata></metadata>
<defs>
<font id="optimabold_oblique" horiz-adv-x="1138" >
<font-face units-per-em="2048" ascent="1638" descent="-410" />
<missing-glyph horiz-adv-x="569" />
<glyph unicode="&#xfb01;" horiz-adv-x="1251" d="M37 864q6 25 6 51q0 25 -6 56l143 -6q20 125 51 231.5t81 184t126 121.5t187 44q39 0 86 -10q-4 -23 -5 -55.5t-2.5 -69.5t-1.5 -74v-67l-24 -8q-41 23 -94.5 41t-102.5 18q-59 0 -91 -19.5t-32 -68.5q0 -47 28 -121t69 -145l192 4q-2 -16 -4 -28.5t-2 -27.5q0 -12 2 -25 l4 -26l-192 4v-170q0 -100 1 -191t3 -177t5 -170t7 -170q-27 4 -68 7t-86 3t-86 -3t-67 -7q4 86 7 170t5 170t3 177t1 191v168zM805 1368q0 68 47 115t115 47t114.5 -47t46.5 -115t-47 -115t-114 -47q-68 0 -115 47t-47 115zM813 -10q10 109 13 219t3 235v82q0 125 -3 235.5 t-13 219.5q29 -4 68 -7t86 -3t87 3t66 7q-10 -109 -13 -219.5t-3 -235.5v-82q0 -125 3 -235.5t13 -218.5q-27 4 -66.5 7t-86.5 3t-86 -3t-68 -7z" />
<glyph unicode="&#xfb02;" horiz-adv-x="1251" d="M37 864q6 25 6 51q0 25 -6 56l143 -6q20 125 51 231.5t81 184t126 121.5t187 44q39 0 86 -10q-4 -23 -5 -55.5t-2.5 -69.5t-1.5 -74v-67l-24 -8q-41 23 -94.5 41t-102.5 18q-59 0 -91 -19.5t-32 -68.5q0 -47 28 -121t69 -145l192 4q-2 -16 -4 -28.5t-2 -27.5q0 -12 2 -25 l4 -26l-192 4v-170q0 -100 1 -191t3 -177t5 -170t7 -170q-27 4 -68 7t-86 3t-86 -3t-67 -7q4 86 7 170t5 170t3 177t1 191v168zM813 -10q4 86 7 170t5 170t3 177t1 191v133q0 100 -1 191.5t-3 177.5t-5 170t-7 170q27 -4 68 -7t86 -3t86 3t67 7q-4 -86 -7 -170t-5 -170 t-3 -177t-1 -192v-133q0 -100 1 -191t3 -177t5 -170t7 -170q-27 4 -67.5 7t-85.5 3t-86 -3t-68 -7z" />
<glyph horiz-adv-x="2048" />
<glyph horiz-adv-x="2048" />
<glyph unicode="&#xd;" horiz-adv-x="569" />
<glyph unicode=" "  horiz-adv-x="569" />
<glyph unicode="&#x09;" horiz-adv-x="569" />
<glyph unicode="&#xa0;" horiz-adv-x="569" />
<glyph unicode="!" horiz-adv-x="681" d="M170 1266q0 74 47 119t125 45t125 -45.5t47 -118.5q0 -31 -4 -73t-19.5 -128t-43 -234.5t-76.5 -390.5h-58q-49 242 -76.5 390.5t-43 234.5t-19.5 128t-4 73zM174 131q0 70 49 119t119 49t119 -49t49 -119t-49 -119t-119 -49t-119 49t-49 119z" />
<glyph unicode="&#x22;" horiz-adv-x="681" d="M47 750v700h205v-700h-205zM430 750v700h205v-700h-205z" />
<glyph unicode="#" d="M45 268q8 25 14.5 47.5t11.5 47t9 54t8 68.5q10 0 31.5 -2t47.5 -3t55.5 -2t56.5 -1l81 389h-134t-56 -4q8 25 14 47.5t11.5 47t9.5 54t8 68.5q10 0 31.5 -2t47 -3t55.5 -2t56 -1q12 66 20.5 104.5t12.5 66.5t8.5 51.5t8.5 56.5q12 -2 23 -4.5t24 -2.5q14 0 28.5 2.5 t30.5 4.5q-18 -59 -34.5 -127t-32.5 -152h323q12 66 20.5 104.5t12.5 66.5t8 51.5t8 56.5q12 -2 23.5 -4.5t23.5 -2.5q14 0 28.5 2.5t31.5 4.5q-18 -59 -34.5 -127t-33.5 -152h134t57 4q-16 -47 -25.5 -94t-17.5 -123q-10 0 -32 2t-47.5 3t-55 2t-56.5 1l-82 -389h134t57 4 q-16 -47 -25.5 -94t-17.5 -123q-10 0 -32 2t-47.5 3t-55 2t-56.5 1q-12 -66 -20 -104.5t-12.5 -66t-8.5 -51t-8 -56.5q-12 2 -23.5 4t-23.5 2q-14 0 -28.5 -2t-30.5 -4q18 59 34.5 126.5t32.5 151.5h-323q-12 -66 -20.5 -104.5t-12.5 -66t-8 -51t-9 -56.5q-12 2 -23 4t-24 2 q-14 0 -28.5 -2t-30.5 -4q18 59 34.5 126.5t33.5 151.5h-134.5t-56.5 -4zM367 477h323l82 389h-323z" />
<glyph unicode="$" d="M76 969q0 168 110.5 278.5t311.5 128.5l-9 170q16 -2 34 -5t34 -3t33.5 3t34.5 5l-9 -170q37 0 88.5 -8t101.5 -21.5t96 -34t75 -44.5q-23 -53 -43.5 -103.5t-32.5 -103.5h-29q-16 47 -44.5 86t-63.5 66.5t-73 43t-75 15.5v-443q92 -25 173 -53t141.5 -75.5t96.5 -118 t36 -174.5q0 -98 -38 -178t-101.5 -136.5t-143.5 -89.5t-164 -37l9 -225q-16 2 -34 5t-34 3t-33.5 -3t-34.5 -5l9 225q-55 0 -114.5 11.5t-115 31t-102.5 43t-76 47.5q16 61 28.5 122t22.5 122h39q12 -49 40 -94t69 -82t94 -62.5t115 -33.5v479q-98 23 -176 56.5 t-133.5 83.5t-84 118t-28.5 160zM313 1063q0 -76 51.5 -129t133.5 -76v414q-31 0 -64 -12.5t-59.5 -39t-44 -65.5t-17.5 -92zM616 72q37 2 74 18t64.5 45t45 70t17.5 90q0 94 -49 155.5t-152 79.5v-458z" />
<glyph unicode="%" horiz-adv-x="2048" d="M205 1032q0 74 27.5 136.5t75.5 108.5t110.5 72.5t134.5 26.5q74 0 137.5 -23.5t109.5 -66.5t72.5 -103.5t26.5 -135.5q0 -76 -26.5 -140.5t-72.5 -111.5t-109.5 -74t-137.5 -27q-78 0 -141.5 23.5t-109.5 66.5t-71.5 105.5t-25.5 142.5zM410 1010q0 -117 29.5 -183.5 t113.5 -66.5q25 0 50.5 11t46 44t32.5 88.5t12 145.5q0 125 -31.5 193.5t-103.5 68.5q-80 0 -114.5 -77t-34.5 -224zM612 -76l713 1495q14 -2 27.5 -3t27.5 -1t27.5 1t28.5 3l-713 -1495q-14 2 -27.5 3t-27.5 1t-27.5 -1t-28.5 -3zM1149 305q0 74 27.5 136.5t75.5 108.5 t110.5 72.5t134.5 26.5q74 0 137.5 -23.5t109.5 -66.5t72.5 -103.5t26.5 -136.5t-26.5 -140t-72.5 -111.5t-109.5 -74t-137.5 -26.5q-78 0 -141.5 23.5t-109.5 66.5t-71.5 105.5t-25.5 142.5zM1354 283q0 -117 29.5 -183.5t113.5 -66.5q25 0 50.5 11t46 44t32.5 88.5 t12 145.5q0 125 -31.5 193.5t-103.5 68.5q-80 0 -114.5 -77t-34.5 -224z" />
<glyph unicode="&#x26;" horiz-adv-x="1478" d="M80 293q0 80 26.5 142.5t74.5 113.5t116 94t152 86q-66 90 -108 171t-42 165q0 88 34 150.5t87 102.5t120.5 57.5t135.5 17.5q72 0 132 -16.5t105 -47.5t70 -78t25 -108q0 -100 -63.5 -182t-199.5 -166q78 -104 159 -199.5t165 -194.5q53 63 116.5 163t127.5 233 q55 -66 112 -119q-68 -104 -138 -189.5t-146 -169.5q33 -39 71.5 -81.5t78.5 -87t80 -85t75 -75.5q-76 2 -135.5 6t-116.5 4q-41 0 -83 -4t-85 -6l-98 135q-92 -76 -215 -119t-244 -43q-96 0 -169 28.5t-122 76t-73.5 106.5t-24.5 119zM354 401q0 -51 19.5 -101t58.5 -91 t93.5 -66.5t125.5 -25.5q61 0 119.5 21.5t99.5 58.5q-92 113 -183 225.5t-179 226.5q-72 -53 -113 -111.5t-41 -136.5zM563 1153q0 -63 38 -138t89 -147q25 18 53.5 47t53 66t41 80t16.5 90q0 68 -45 108.5t-100 40.5q-59 0 -102.5 -37.5t-43.5 -109.5z" />
<glyph unicode="'" horiz-adv-x="569" d="M182 750v700h205v-700h-205z" />
<glyph unicode="(" horiz-adv-x="681" d="M164 561q0 166 31.5 294t89 229.5t136.5 184.5t173 161l53 -54q-74 -84 -124 -171t-80.5 -186t-44 -215t-13.5 -257q0 -242 58.5 -430.5t201.5 -352.5l-55 -51q-96 78 -175 166t-134.5 190.5t-86 224.5t-30.5 267z" />
<glyph unicode=")" horiz-adv-x="681" d="M35 1376l53 54q94 -78 173 -161t136.5 -184.5t89 -229.5t31.5 -294q0 -145 -30.5 -267t-86 -224.5t-134.5 -190.5t-175 -166l-55 51q143 164 201.5 352.5t58.5 430.5q0 141 -13.5 257t-44 215t-80.5 186t-124 171z" />
<glyph unicode="*" horiz-adv-x="909" d="M74 885q27 10 69.5 27.5t87.5 36t82 35.5t54 26q-16 8 -53.5 25.5t-82.5 36t-88 35.5t-69 28q12 16 25.5 32.5t23.5 34.5q10 16 17 35.5t16 40.5q20 -18 58 -47t76 -58.5t71.5 -54t50.5 -33.5q0 16 -4.5 57.5t-10.5 89.5t-12 95t-12 76q20 -4 40.5 -7t41.5 -3 q20 0 40.5 3t41.5 7q-6 -29 -12.5 -76t-12.5 -95t-10 -89t-4 -58q14 8 47 32t71.5 53.5t76.5 59.5t61 48q8 -20 15 -39.5t17 -36.5q10 -18 23.5 -34.5t26.5 -32.5q-27 -10 -71 -27.5t-88 -36t-82 -36t-52 -25.5q14 -8 52 -25.5t82 -36t88 -36t71 -27.5q-12 -16 -25.5 -32.5 t-24.5 -33.5q-10 -18 -17 -37.5t-15 -40.5q-23 18 -61 48t-76.5 60t-71.5 53.5t-47 31.5q0 -18 4 -59t10 -89.5t12 -94.5t13 -75q-20 4 -41 7.5t-41 3.5t-41 -3t-41 -8q6 29 12 75t12 94.5t10.5 89t4.5 59.5q-16 -10 -50 -33.5t-72 -53.5t-76 -58.5t-58 -47.5 q-8 20 -15.5 40t-17.5 36q-10 18 -23.5 34.5t-25.5 33.5z" />
<glyph unicode="+" horiz-adv-x="1241" d="M102 422v192h422v422h193v-422h422v-192h-422v-422h-193v422h-422z" />
<glyph unicode="," horiz-adv-x="569" d="M43 -379q51 229 85 364.5t63.5 206t58.5 90t69 19.5q25 0 50.5 -8t47 -23.5t35 -40t13.5 -55.5q0 -12 -3 -26.5t-16.5 -38t-37 -62.5t-65.5 -98.5t-102.5 -144.5t-146.5 -203z" />
<glyph unicode="-" horiz-adv-x="681" d="M86 336v225h510v-225h-510z" />
<glyph unicode="." horiz-adv-x="569" d="M117 131q0 70 49 119t119 49t119 -49t49 -119t-49.5 -119t-118.5 -49q-70 0 -119 49t-49 119z" />
<glyph unicode="/" horiz-adv-x="796" d="M20 -41l586 1475q20 -2 41 -3t43 -1q23 0 43.5 1t42.5 3l-586 -1475q-20 2 -40.5 3t-43.5 1t-43 -1t-43 -3z" />
<glyph unicode="0" d="M80 682q0 332 131 513t373 181q223 0 349 -167t126 -496q0 -352 -121 -549t-369 -197q-127 0 -220 50.5t-152.5 144.5t-88 225t-28.5 295zM393 700q0 -170 5 -290.5t23.5 -198.5t52.5 -115t93 -37q45 0 79 25t55.5 93.5t32.5 189t11 313.5q0 186 -10 306t-31.5 187.5 t-54.5 93t-78 25.5q-47 0 -79.5 -26.5t-55 -94t-33 -182.5t-10.5 -289z" />
<glyph unicode="1" d="M113 1128q80 29 154.5 57.5t148 61.5t148.5 69t155 77l39 -17q-4 -61 -8.5 -136t-7.5 -154.5t-4 -161.5t-1 -160v-125v-154.5t2 -147.5t4 -159t7 -188q-41 4 -80 7t-80 3t-81 -3t-81 -7q2 39 6 100.5t7 136t6.5 158.5t3.5 170v578q-16 -6 -44 -20.5t-62 -32t-68.5 -35 t-63.5 -29.5q-23 31 -52.5 64.5t-47.5 47.5z" />
<glyph unicode="2" d="M84 1114q37 111 141.5 186.5t284.5 75.5q141 0 234.5 -32.5t147.5 -85t75.5 -115t21.5 -121.5q0 -68 -24.5 -140.5t-89 -163.5t-178 -206t-291.5 -266l2 -4q145 2 289.5 4t289.5 12q-2 -35 -5 -66.5t-3 -66.5t3 -67.5t5 -67.5q-117 4 -229.5 7t-229.5 3q-111 0 -221 -3 t-221 -7v92q158 143 268.5 265t179 230.5t100.5 208t32 201.5q0 84 -17.5 140.5t-47.5 91t-66.5 50t-75.5 15.5q-57 0 -95 -31.5t-60.5 -78t-31 -98.5t-8.5 -91l-20 -6q-41 39 -80 70.5t-80 64.5z" />
<glyph unicode="3" d="M84 127q35 45 66.5 89t60.5 89l27 -6q6 -47 23.5 -90t45 -77t65.5 -53.5t87 -19.5t91 21.5t73.5 61.5t49 94.5t17.5 119.5q0 135 -62.5 218t-170.5 83q-25 0 -47.5 -2t-44.5 -4v105q16 -2 27 -4t26 -2q121 0 176 74.5t55 211.5q0 135 -51 195.5t-123 60.5 q-47 0 -81 -20.5t-57.5 -54t-35.5 -78.5t-18 -97l-29 -6q-29 35 -65.5 70t-71.5 70q53 94 143 147t260 53q119 0 202 -25.5t134 -69.5t73.5 -102.5t22.5 -123.5q0 -123 -74.5 -197t-209.5 -121v-18q82 -12 144 -33.5t105.5 -59.5t65 -98.5t21.5 -148.5q0 -96 -44.5 -172 t-117 -129t-164.5 -82t-189 -29q-166 0 -261 47t-144 113z" />
<glyph unicode="4" d="M53 319q4 27 7 51.5t3 49.5t-3 49.5t-7 48.5q139 215 278.5 428t286.5 430q35 -4 67 -7t67 -3t66.5 3t66.5 7q-6 -47 -10.5 -137t-6.5 -203.5t-3 -243.5t-1 -255l180 14q-4 -31 -6 -61.5t-2 -59.5t2 -59.5t6 -59.5l-180 13q0 -84 3 -167t16 -167q-39 4 -78 7t-78 3 t-78 -3t-78 -7l19 329h-537zM188 545h402v598h-4q-29 -41 -76 -110.5t-102.5 -152.5t-112.5 -171t-107 -164z" />
<glyph unicode="5" d="M66 82q33 53 56 105.5t46 105.5h29q33 -117 84 -175.5t149 -58.5q37 0 78 14.5t75.5 53.5t57.5 104.5t23 167.5q0 80 -19.5 137.5t-53.5 94.5t-77 54t-92 17q-23 0 -48.5 -8t-48 -20t-42 -27.5t-27.5 -30.5l-49 27q2 25 5 61.5t5 74.5t3 75t1 64q0 45 -2 110.5t-5 128 t-8 114.5t-11 75l16 14q18 -4 46 -7t60.5 -5t68.5 -3.5t67 -1.5t83 1.5t115.5 2.5t134 5t136.5 10q-4 -33 -7.5 -65.5t-3.5 -65.5t3.5 -65.5t7.5 -65.5q-18 2 -58.5 5t-88.5 6t-94 5t-73 2q-100 0 -162.5 -1t-111.5 -7q-4 -18 -6 -58t-5.5 -90.5t-4.5 -106.5t-1 -105 q41 31 102.5 44t129.5 13q102 0 182 -31t134.5 -83t83 -121.5t28.5 -147.5q0 -98 -40 -182t-112.5 -144.5t-174 -95.5t-224.5 -35q-51 0 -102.5 8.5t-98.5 23.5t-88 36.5t-71 46.5z" />
<glyph unicode="6" d="M113 541q0 197 46 351.5t130 262t198.5 164.5t253.5 57q35 0 62.5 -3t56.5 -7q14 -41 37 -80l-12 -12q-27 10 -54.5 14t-68.5 4q-61 0 -122.5 -35.5t-111 -107.5t-82 -182.5t-36.5 -259.5l4 -5q41 51 110.5 84t171.5 33q76 0 144.5 -24.5t121 -72.5t83 -122t30.5 -172 q0 -102 -38 -187t-101.5 -145.5t-147 -94.5t-178.5 -34q-113 0 -204 36t-156.5 107.5t-101 179t-35.5 251.5zM416 406q0 -96 12 -162t35.5 -107t55.5 -59.5t71 -18.5q84 0 128 86t44 240q0 88 -13.5 149.5t-37 98.5t-55 53t-68.5 16q-35 0 -65.5 -16t-54.5 -51t-38 -92.5 t-14 -136.5z" />
<glyph unicode="7" d="M111 1077q4 35 7 72t3 72t-3 70.5t-7 70.5q43 -2 112.5 -5t161.5 -7t198.5 -5.5t223.5 -1.5q59 0 118.5 1.5t118.5 3.5l15 -27q-199 -336 -373 -665.5t-317 -665.5q-29 4 -58.5 7t-60.5 3t-70 -3t-67 -7q190 283 361 554t335 554q-27 0 -106.5 -1t-183 -3t-213 -6.5 t-195.5 -10.5z" />
<glyph unicode="8" d="M88 371q0 82 23.5 145.5t61.5 109.5t89 75.5t107 41.5v15q-47 8 -90 33.5t-76 62.5t-51.5 85t-18.5 103q0 80 33 142.5t91 105.5t137 64.5t173 21.5q111 0 194 -25.5t137 -68.5t81 -100.5t27 -120.5q0 -66 -18.5 -117t-50.5 -89t-75 -62.5t-90 -34.5v-15 q47 -8 97.5 -33.5t90 -68.5t65.5 -103.5t26 -138.5q0 -106 -37 -187t-101.5 -135t-154.5 -82t-195 -28q-102 0 -189 25.5t-150.5 76t-99.5 126t-36 176.5zM391 375q0 -162 49 -243t129 -81q70 0 124.5 79t54.5 249q0 166 -51.5 241.5t-131.5 75.5q-78 0 -126 -73.5 t-48 -247.5zM408 1020q0 -119 49 -179.5t108 -60.5q74 0 120 68.5t46 191.5q0 113 -38 182.5t-118 69.5q-92 0 -129.5 -71.5t-37.5 -200.5z" />
<glyph unicode="9" d="M63 915q0 102 32 187.5t91.5 146t146.5 94t195 33.5q113 0 204 -35.5t156.5 -107.5t101.5 -179.5t36 -250.5q0 -197 -47 -352.5t-132 -263t-204 -164t-264 -56.5q-37 0 -83 7.5t-71 25.5q-10 29 -22.5 59.5t-28.5 61.5l14 14q35 -29 78 -53.5t115 -24.5q59 0 119.5 35 t109.5 105.5t81 179t36 258.5l-4 4q-18 -25 -42 -46.5t-55.5 -36.5t-73.5 -23.5t-99 -8.5q-78 0 -149 24.5t-124 74t-85 122t-32 170.5zM377 958q0 -90 13 -150t37 -97t55.5 -53.5t68.5 -16.5q33 0 64.5 16.5t55 51t38 92t14.5 137.5q0 96 -12.5 161.5t-36 106.5t-55 59.5 t-70.5 18.5q-84 0 -128 -86t-44 -240z" />
<glyph unicode=":" horiz-adv-x="569" d="M117 131q0 70 49 119t119 49t119 -49t49 -119t-49.5 -119t-118.5 -49q-70 0 -119 49t-49 119zM117 803q0 70 49 119t119 49t119 -49.5t49 -118.5q0 -70 -49.5 -119t-118.5 -49q-70 0 -119 49t-49 119z" />
<glyph unicode=";" horiz-adv-x="569" d="M43 -379q51 229 85 364.5t63.5 206t58.5 90t69 19.5q25 0 50.5 -8t47 -23.5t35 -40t13.5 -55.5q0 -12 -3 -26.5t-16.5 -38t-37 -62.5t-65.5 -98.5t-102.5 -144.5t-146.5 -203zM117 803q0 70 49 119t119 49t119 -49.5t49 -118.5q0 -70 -49.5 -119t-118.5 -49 q-70 0 -119 49t-49 119z" />
<glyph unicode="&#x3c;" horiz-adv-x="1241" d="M102 436v164l1037 453v-193l-793 -342l793 -342v-192z" />
<glyph unicode="=" horiz-adv-x="1241" d="M102 188v193h1037v-193h-1037zM102 655v193h1037v-193h-1037z" />
<glyph unicode="&#x3e;" horiz-adv-x="1241" d="M102 -16v192l793 342l-793 342v193l1037 -453v-164z" />
<glyph unicode="?" horiz-adv-x="909" d="M135 1354q45 35 119 55.5t154 20.5q76 0 142 -19.5t116.5 -57.5t79 -94.5t28.5 -130.5q0 -63 -24.5 -115t-60.5 -98.5t-79 -86.5t-78.5 -76.5t-60.5 -73.5t-25 -76q0 -35 28 -66.5t75 -31.5q25 0 45 7t43 19l18 -10q-10 -20 -18 -40.5t-14 -43.5q-31 -8 -59.5 -12 t-63.5 -4q-70 0 -124 21.5t-91 57.5t-56.5 84t-19.5 101q0 86 46 150.5t99 119.5q39 39 67 69t45 56.5t25.5 51t8.5 53.5q0 41 -14.5 67.5t-37 43t-50 23.5t-56.5 7q-61 0 -106.5 -30.5t-67.5 -80.5h-25zM274 131q0 70 49.5 119t118.5 49q70 0 119 -49t49 -119t-49 -119 t-119 -49t-119 49t-49 119z" />
<glyph unicode="@" horiz-adv-x="1536" d="M127 653q0 152 57.5 278t154.5 216t225 139t270 49q156 0 265 -46t179 -119.5t101.5 -166t31.5 -186.5q0 -102 -30.5 -184t-80 -140.5t-110 -90t-121.5 -31.5q-92 0 -134 48t-42 140h-4q-49 -84 -115.5 -134t-144.5 -50q-84 0 -142.5 63.5t-58.5 184.5q0 117 28.5 207 t76 153.5t107.5 96t124 32.5q78 0 120 -36t66 -105h4l27 112q23 -2 44.5 -4t43.5 -2q23 0 43.5 2t42.5 4q-37 -168 -58.5 -268t-32.5 -157.5t-14 -86t-3 -55.5q0 -39 22.5 -59.5t50.5 -20.5q33 0 69 22.5t64.5 64.5t47 103.5t18.5 139.5q0 92 -23.5 184t-78 165t-141.5 118 t-216 45q-131 0 -238.5 -51t-183.5 -136t-116.5 -197t-40.5 -232q0 -113 34.5 -211.5t99 -171t158 -114.5t209.5 -42q104 0 217 46t201 126l-6 -64q-37 -27 -86 -57.5t-109.5 -56t-131 -43t-152.5 -17.5q-117 0 -223.5 39t-187.5 115t-129 186.5t-48 255.5zM608 606 q0 -66 27 -102.5t74 -36.5q49 0 88 42t66.5 105.5t42 140t14.5 146.5q0 72 -30 109t-79 37q-41 0 -78 -37t-64.5 -97.5t-44 -140.5t-16.5 -166z" />
<glyph unicode="A" horiz-adv-x="1366" d="M29 -10q25 57 65.5 152.5t91 214t106.5 255t112.5 275.5t110.5 274t97 252q20 -4 39 -7t39 -3t39 3t39 7q66 -176 140.5 -372.5t150.5 -389t147.5 -364.5t130.5 -297q-49 4 -93 7t-87 3t-87 -3t-87 -7q-33 104 -67.5 209.5t-73.5 210.5q-66 2 -131.5 3t-130.5 1 q-53 0 -106.5 -1t-106.5 -3q-41 -104 -76 -209t-64 -211q-25 4 -48 7t-48 3t-49.5 -3t-52.5 -7zM420 530h375q-45 125 -89 246t-94 242q-53 -121 -100 -242t-92 -246z" />
<glyph unicode="B" horiz-adv-x="1251" d="M166 -10q4 68 7 132t5 133t3 142.5t1 159.5v279q0 86 -1 159.5t-3 142t-5 133t-7 132.5q35 -4 76 -7t92 -3q88 0 184 5t184 5q92 0 168 -18.5t131.5 -56.5t85 -98.5t29.5 -144.5t-34.5 -144t-85 -100t-109 -62.5t-105.5 -30.5v-5q47 -2 110.5 -21.5t121 -60t97.5 -105 t40 -157.5q0 -111 -40 -188.5t-106.5 -126.5t-152.5 -71.5t-178 -22.5q-82 0 -152.5 5t-148.5 5q-55 0 -113.5 -3t-93.5 -7zM485 469q0 -49 1 -100.5t1 -100.5t1 -90t1 -67q29 -2 53.5 -3.5t59.5 -1.5q45 0 86 18.5t72 54.5t49 87t18 119q0 143 -64.5 214t-187.5 71 q-29 0 -49 -1t-39 -1q0 -43 -1 -89.5t-1 -109.5zM485 995q0 -55 1 -105t1 -104h93q43 0 85 16.5t74.5 48.5t53 81t20.5 115q0 49 -11 93t-38 75.5t-68 51t-102 19.5q-45 0 -62.5 -1t-37.5 -5q-4 -76 -6.5 -153.5t-2.5 -131.5z" />
<glyph unicode="C" horiz-adv-x="1366" d="M72 647q0 211 66.5 360.5t178 242.5t259 136.5t309.5 43.5q53 0 112.5 -7.5t114.5 -22t105.5 -32.5t85.5 -39q-20 -51 -31.5 -103t-16.5 -106h-28q-78 96 -160 139.5t-193 43.5q-82 0 -164.5 -37t-150 -113t-109.5 -194.5t-42 -280.5q0 -158 43 -269.5t111.5 -182 t155.5 -103.5t175 -33q49 0 100 11.5t100.5 31t93.5 48t77 63.5l26 -17q-16 -43 -28.5 -87t-16.5 -87q-82 -43 -186.5 -66.5t-231.5 -23.5q-178 0 -318 52.5t-237.5 144.5t-148.5 217t-51 270z" />
<glyph unicode="D" horiz-adv-x="1593" d="M166 -10q4 68 7 132t5 133t3 142.5t1 159.5v279q0 86 -1 159.5t-3 142t-5 133t-7 132.5q35 -4 76 -7t92 -3q68 0 151.5 5t219.5 5q174 0 319 -32t249.5 -107.5t162 -204.5t57.5 -322q0 -170 -56.5 -307t-153.5 -235.5t-226 -151.5t-273 -53q-154 0 -262 5t-188 5 q-51 0 -92 -3t-76 -7zM485 285.5q0 -60.5 1 -109.5t1 -63q31 -2 74 -4.5t107 -2.5q115 0 208 39t158.5 119t100 199t34.5 278q0 125 -33.5 226.5t-95 172t-147.5 108.5t-193 38q-74 0 -119.5 -3t-93.5 -7q0 -14 -1 -63.5t-1 -110v-122.5v-103v-365v-103.5v-123z" />
<glyph unicode="E" horiz-adv-x="1024" d="M147 -10q4 68 7.5 132t5.5 133t3 142.5t1 159.5v279q0 86 -1 159.5t-3 142t-5 133t-8 132.5q92 -2 182.5 -6t182.5 -4q76 0 144.5 1t125 2t97.5 3t61 4q-4 -18 -6 -37.5t-2 -48.5q0 -33 2 -51.5t6 -40.5q-59 4 -130 8t-137.5 8t-119.5 6t-76 2q-8 -113 -9 -223.5 t-1 -222.5q133 2 240.5 6t224.5 10q-6 -35 -8 -53t-2 -39q0 -16 3 -33.5t7 -50.5q-233 18 -465 19q0 -66 -1 -131.5t-1 -131.5q0 -133 6 -256q117 0 233.5 6.5t235.5 20.5q-4 -23 -6 -41t-2 -51t2 -51.5t6 -36.5q-55 2 -136 6t-222 4q-125 0 -202 -1t-123 -3t-69.5 -3 t-40.5 -3z" />
<glyph unicode="F" horiz-adv-x="1024" d="M147 -10q4 68 7.5 132t5.5 133t3 142.5t1 159.5v279q0 86 -1 159.5t-3 142t-5 133t-8 132.5q92 -2 182.5 -6t182.5 -4q76 0 144.5 1t125 2t97.5 3t61 4q-4 -18 -6 -37.5t-2 -48.5q0 -33 2 -51.5t6 -40.5q-59 4 -130 8t-137.5 8t-119.5 6t-76 2q-8 -113 -9 -223.5 t-1 -222.5q133 2 240.5 6t224.5 10q-6 -35 -8 -53t-2 -39q0 -16 3 -33.5t7 -50.5q-233 18 -465 19v-105q0 -86 1 -159.5t3 -142.5t5 -133.5t7 -131.5q-35 4 -75.5 7t-92.5 3q-51 0 -92 -3t-76 -7z" />
<glyph unicode="G" horiz-adv-x="1593" d="M96 649q0 195 64.5 341.5t178.5 243.5t269.5 146.5t335.5 49.5q156 0 269.5 -32t224.5 -91q-16 -53 -31.5 -104.5t-26.5 -104.5h-28q-66 92 -164 148.5t-240 56.5q-96 0 -188 -40t-165 -120t-118 -200t-45 -281q0 -123 34 -227.5t97.5 -181.5t155.5 -120t211 -43 q27 0 59.5 3t65 7t59.5 11.5t39 15.5q4 25 5 61.5t1 81.5q0 166 -6 245t-8 108q20 -4 54 -7.5t97 -3.5q74 0 110 3t56 8q-4 -16 -7 -53.5t-5 -85.5t-3 -102t-1 -103v-68t1 -65.5t2 -55t3 -37.5q-135 -39 -273.5 -64.5t-273.5 -25.5q-176 0 -324.5 48t-256 138.5t-168 216.5 t-60.5 283z" />
<glyph unicode="H" horiz-adv-x="1593" d="M166 -10q4 68 7 132t5 133t3 142.5t1 159.5v279q0 86 -1 159.5t-3 142t-5 133t-7 132.5q35 -4 76 -7t92 -3t92 3t76 7q-10 -133 -13.5 -263t-3.5 -300q53 -2 128 -3t186 -1t180.5 1t128.5 3q0 170 -4 300t-12 263q35 -4 75.5 -7t92.5 -3q51 0 92 3t75 7q-4 -68 -7 -132.5 t-5 -133t-3 -142t-1 -159.5v-279q0 -86 1 -159.5t3 -142.5t5 -133.5t7 -131.5q-35 4 -75.5 7t-91.5 3t-92.5 -3t-75.5 -7q4 68 7 132t5 133t3 142.5t1 159.5v117q-78 2 -156 5t-155 3q-78 0 -156 -2t-156 -6v-117q0 -86 1 -159.5t3.5 -142.5t5.5 -133.5t7 -131.5 q-35 4 -76 7t-92 3t-92 -3t-76 -7z" />
<glyph unicode="I" horiz-adv-x="681" d="M174 -10q4 68 7 132t5 133t3 142.5t1 159.5v279q0 86 -1 159.5t-3 142t-5 133t-7 132.5q35 -4 76 -7t92 -3t92 3t76 7q-4 -68 -7 -132.5t-5 -133t-3 -142t-1 -159.5v-279q0 -86 1 -159.5t3 -142.5t5 -133.5t7 -131.5q-35 4 -76 7t-92 3t-92 -3t-76 -7z" />
<glyph unicode="J" horiz-adv-x="681" d="M14 -244q43 18 72 37t47.5 43.5t27.5 61t13 92.5q4 68 7 132t5 133t3 142.5t1 159.5v279q0 86 -1 159.5t-3 142t-5 133t-7 132.5q35 -4 76 -7t92 -3t92 3t76 7q-4 -68 -7 -132.5t-5 -133t-3 -142t-1 -159.5v-279q0 -84 2 -180t2 -193q0 -246 -114 -366.5t-339 -157.5z " />
<glyph unicode="K" horiz-adv-x="1251" d="M147 -10q4 68 7.5 132t5.5 133t3 142.5t1 159.5v279q0 86 -1 159.5t-3 142t-5 133t-8 132.5q35 -4 76 -7t92 -3t92.5 3t75.5 7q-6 -41 -9 -110.5t-5 -157.5t-2 -187.5v-197.5q70 82 149.5 179t153.5 189t133.5 169t85.5 116q29 -4 57.5 -7t57.5 -3t58.5 3t64.5 7 q-23 -23 -64 -67t-91 -98t-104.5 -114.5t-105.5 -119t-94 -108.5t-70 -83q66 -100 146 -221t158.5 -236.5t146.5 -213t108 -152.5q-59 4 -106 7t-92 3t-89 -3t-89 -7q-102 162 -205 322.5t-205 320.5h-4q0 -223 2 -384t14 -259q-35 4 -75.5 7t-92.5 3q-51 0 -92 -3t-76 -7z " />
<glyph unicode="L" horiz-adv-x="1024" d="M166 -10q4 68 7 132t5 133t3 142.5t1 159.5v279q0 86 -1 159.5t-3 142t-5 133t-7 132.5q35 -4 76 -7t92 -3t92 3t76 7q-4 -68 -7 -132.5t-5.5 -133t-3.5 -142t-1 -159.5v-279q0 -115 1 -224.5t3 -189.5q117 0 234 6.5t235 20.5q-4 -23 -6 -41t-2 -51t2 -51.5t6 -36.5 q-55 2 -136 6t-222 4q-125 0 -201.5 -1t-123 -3t-70 -3t-39.5 -3z" />
<glyph unicode="M" horiz-adv-x="1820" d="M72 -10q66 356 117 706.5t94 706.5q23 -4 42 -7t42 -3q37 0 82 10q55 -123 115.5 -250t120.5 -253t120.5 -247t116.5 -229q123 229 244.5 481t232.5 498q47 -10 88 -10q39 0 86 10q20 -176 42.5 -379t46.5 -396.5t46.5 -361.5t40.5 -276q-41 4 -83 7t-83 3t-84 -3t-86 -7 q-10 215 -33.5 462.5t-48.5 487.5h-4q-117 -240 -229.5 -475.5t-223.5 -474.5q-10 2 -19 3t-19 1t-19.5 -1t-19.5 -3q-111 233 -220.5 464.5t-226.5 465.5h-4q-33 -233 -49 -465t-33 -465q-25 4 -49.5 7t-46.5 3q-25 0 -48.5 -3t-47.5 -7z" />
<glyph unicode="N" horiz-adv-x="1593" d="M160 -10q2 14 6 65t9 128t9 174.5t8.5 205t6.5 218t2 214.5q0 139 -4 236.5t-7 171.5q51 -10 93 -10q41 0 92 10q223 -246 442 -487.5t447 -487.5v179.5v197.5t-1 197.5t-3.5 179.5t-4.5 140t-6 81q51 -10 92 -10t93 10q-8 -150 -13 -274.5t-9.5 -236.5t-6.5 -215.5 t-3 -211t-1 -224v-251.5q-23 4 -42.5 7t-41.5 3q-39 0 -80 -10q-211 250 -434 497.5t-461 497.5q-4 -117 -4 -238.5v-238.5q0 -123 1 -209t3 -145.5t4 -97.5t4 -66q-25 4 -49.5 7t-46.5 3q-43 0 -94 -10z" />
<glyph unicode="O" horiz-adv-x="1705" d="M72 696q0 152 56 285t158.5 233.5t248 158t323.5 57.5q162 0 304.5 -45.5t246.5 -135.5t164.5 -228t60.5 -323q0 -152 -58 -285.5t-161.5 -234t-247 -158t-315.5 -57.5q-162 0 -304 43t-247.5 132t-167 227t-61.5 331zM408 678q0 -164 34.5 -276.5t94 -181t137.5 -99.5 t164 -31q92 0 176 39t146.5 119t100 202.5t37.5 290.5q0 133 -32.5 238.5t-91 179.5t-141.5 114t-181 40q-104 0 -187 -50.5t-140.5 -136.5t-87 -201.5t-29.5 -246.5z" />
<glyph unicode="P" d="M147 -10q4 68 7.5 132t5.5 133t3 142.5t1 159.5v279q0 86 -1 159.5t-3 142t-5 133t-8 132.5q35 -4 76 -7t92 -3q72 0 149 5t150 5q145 0 227.5 -21.5t129.5 -62.5q66 -53 96.5 -118.5t30.5 -158.5q0 -117 -39 -200.5t-109.5 -136t-167 -77t-211.5 -24.5h-104 q0 -154 3 -307.5t13 -306.5q-35 4 -75.5 7t-92.5 3q-51 0 -92 -3t-76 -7zM467 709q51 0 105.5 10t99.5 42t73.5 91.5t28.5 157.5q0 78 -17.5 131t-47 84.5t-69.5 46t-83 14.5h-47.5t-38.5 -2q-2 -145 -3 -288.5t-1 -286.5z" />
<glyph unicode="Q" horiz-adv-x="1705" d="M72 696q0 152 56 285t158.5 233.5t248 158t323.5 57.5q162 0 304.5 -45.5t246.5 -135.5t164.5 -228t60.5 -323q0 -121 -35.5 -229.5t-103.5 -198.5t-164 -158.5t-219 -111.5q76 -47 151.5 -93t145.5 -88t131.5 -77t108.5 -57q-72 -10 -139.5 -39t-149.5 -72 q-70 55 -124 98t-112.5 85t-128 90.5t-170.5 115.5q-152 0 -288 43t-239 133t-164.5 228.5t-61.5 328.5zM408 678q0 -164 34.5 -276.5t94 -181t137.5 -99.5t164 -31q92 0 176 39t146.5 119t100 202.5t37.5 290.5q0 133 -32.5 238.5t-91 179.5t-141.5 114t-181 40 q-104 0 -187 -50.5t-140.5 -136.5t-87 -201.5t-29.5 -246.5z" />
<glyph unicode="R" horiz-adv-x="1251" d="M166 -10q4 68 7 132t5 133t3 142.5t1 159.5v279q0 86 -1 159.5t-3 142t-5 133t-7 132.5q35 -4 76 -7t92 -3q55 0 125.5 5t175.5 5q78 0 133 -4t95 -12.5t70 -21.5t56 -32q61 -45 97 -111.5t36 -158.5q0 -150 -82 -244t-235 -133q98 -174 210.5 -348t225.5 -348 q-47 4 -92 7t-92 3t-93 -3t-94 -7l-366 651h-19v-84q0 -86 1 -159.5t3.5 -142.5t5.5 -133.5t7 -131.5q-35 4 -76 7t-92 3t-92 -3t-76 -7zM485 729q12 -2 23.5 -3t21.5 -1q135 0 207 74t72 219q0 90 -18.5 143t-56.5 81t-98.5 36t-143.5 8q-6 -281 -7 -557z" />
<glyph unicode="S" horiz-adv-x="1024" d="M76 51q20 72 34.5 131.5t24.5 128.5h39q8 -45 29.5 -85t57.5 -70.5t85 -48t111 -17.5q121 0 180 61.5t59 147.5q0 78 -45 127t-112.5 87t-147.5 74t-147.5 87t-112.5 125.5t-45 191.5q0 106 38 188.5t101.5 137.5t146.5 84t175 29q111 0 193.5 -27t142.5 -74 q-18 -47 -31.5 -91t-34.5 -112h-31q-66 176 -247 177q-94 0 -153.5 -55.5t-59.5 -129.5q0 -76 46 -124t115.5 -87t149.5 -74.5t149.5 -88t115.5 -127t46 -191.5q0 -102 -39 -187t-110.5 -146.5t-171 -95.5t-221.5 -34q-111 0 -198 26.5t-132 61.5z" />
<glyph unicode="T" d="M43 1223q4 23 7 45t3 45t-3 45t-7 45q70 -2 126 -4t114.5 -3t127 -2t164.5 -1q94 0 164 1t127.5 2t110.5 3t119 4q-4 -23 -7.5 -45.5t-3.5 -44.5q0 -23 3.5 -45.5t7.5 -44.5q-41 6 -92.5 10t-101.5 8t-95 6t-76 2q-4 -23 -4 -72v-108v-512q0 -86 1 -159.5t3 -142.5 t5 -133.5t7 -131.5q-35 4 -75.5 7t-92.5 3q-51 0 -92 -3t-75 -7q4 68 7 132t5 133t3 142.5t1 159.5v512q0 59 -1 108.5t-5 71.5q-31 0 -76 -2t-96 -6t-104.5 -8t-98.5 -10z" />
<glyph unicode="U" horiz-adv-x="1593" d="M180 1403q41 -4 84 -7t84 -3t84 3t84 7q-10 -100 -15 -191.5t-8.5 -178.5t-4.5 -173t-1 -174q0 -188 27 -302t79 -176.5t128 -83t176 -20.5q123 0 192.5 61.5t105.5 164t44 234.5t8 276q0 141 -4 281.5t-12 281.5q57 -10 104 -10q27 0 51.5 3t51.5 7q-4 -45 -9.5 -121 t-9.5 -175t-6 -219t-2 -253q0 -356 -153.5 -514t-450.5 -158q-131 0 -244.5 30t-197.5 95.5t-132.5 166.5t-48.5 247q0 82 1 146.5t1 119.5t1 106.5t1 106.5q0 164 -2 267.5t-6 154.5z" />
<glyph unicode="V" horiz-adv-x="1366" d="M43 1403q47 -4 93 -7t91 -3t90 3t91 7q35 -115 78.5 -242t91 -259t97.5 -265t97 -262q106 258 206.5 523t180.5 505q47 -10 90 -10t90 10q-51 -121 -122.5 -291t-148.5 -360.5t-153.5 -388t-136.5 -373.5q-23 4 -45 7t-45 3t-45 -3t-45 -7q-33 88 -77 204.5t-94 247.5 t-104.5 268.5t-105.5 265.5t-96 238.5t-78 188.5z" />
<glyph unicode="W" horiz-adv-x="2048" d="M43 1403q45 -4 88 -7t84 -3t83 3t83 7q31 -131 65.5 -269.5t70.5 -272.5t70 -260t62 -232h4q45 129 98.5 279.5t102.5 294.5t89 266t63 194q27 -4 51 -7t51 -3t51.5 3t50.5 7q8 -45 31 -121t53.5 -168t64.5 -194.5t66.5 -203t61.5 -190.5t47 -157h4q27 86 56.5 185 t60.5 200.5t60.5 200t54 184.5t43 154.5t28.5 109.5q47 -10 86 -10q23 0 46.5 3t47.5 7q-14 -39 -44.5 -128t-71.5 -208t-88.5 -260t-95.5 -284.5t-91 -282t-76 -250.5q-27 4 -52 7t-52 3t-53.5 -3t-53.5 -7q-66 254 -148.5 502.5t-174.5 502.5h-4q-37 -104 -84 -234 t-95.5 -265.5t-93.5 -266.5t-77 -239q-27 4 -52.5 7t-52.5 3t-53.5 -3t-52.5 -7q-23 90 -60 223t-80 282.5t-88 302t-84 279.5t-65.5 215t-34.5 111z" />
<glyph unicode="X" horiz-adv-x="1251" d="M53 -10q39 55 92.5 134t112.5 167t120 179t114 171q-51 94 -117 211t-127.5 227.5t-110.5 198.5t-69 125q49 -4 94 -7t92 -3t91 3t91 7q61 -125 125 -250t129 -250q78 125 153 250t146 250q29 -4 53.5 -7t51.5 -3q25 0 50 3t54 7q-35 -45 -87 -120t-110.5 -161t-120 -175 t-114.5 -165q51 -98 113.5 -211.5t123 -223t111.5 -204t82 -153.5q-47 4 -91 7t-89 3t-89 -3t-89 -7q-66 131 -131.5 262t-137.5 262q-166 -260 -311 -524q-27 4 -51.5 7t-48.5 3q-25 0 -50.5 -3t-54.5 -7z" />
<glyph unicode="Y" horiz-adv-x="1251" d="M47 1403q47 -4 92 -7t92 -3t91.5 3t91.5 7q35 -76 79 -168t87 -180t79.5 -160t59.5 -107h4q41 57 82 133t80 158t75.5 165t71.5 159q23 -4 46.5 -7t47.5 -3q25 0 48.5 3t50.5 7q-35 -57 -87.5 -150.5t-111.5 -202t-119.5 -222t-109.5 -210.5q0 -49 -2 -99t-2 -101 q0 -102 3 -207t17 -221q-43 4 -87 7t-87 3t-87 -3t-87 -7q4 98 14 198.5t10 196.5q0 47 -1 95t-3 95q-35 68 -76.5 148t-84.5 162t-86 162.5t-80 149.5t-66 123t-45 83z" />
<glyph unicode="Z" horiz-adv-x="1251" d="M25 -10v35q76 117 167 265t187 309t192.5 327t180.5 319l-2 4q-160 0 -325 -2t-316 -16q4 23 7 43t3 43t-3 43t-7 43q94 0 166.5 -2t137 -4t127 -3t134.5 -1q63 0 117.5 1t112 2t123 3t151.5 4v-37q-193 -305 -370 -608t-349 -611v-4q160 0 270.5 1t192.5 3.5t140 5.5 t114 7q-2 -23 -6.5 -43.5t-4.5 -42.5q0 -23 4.5 -42.5t6.5 -41.5q-129 4 -249 7t-263 3q-246 0 -413 -4t-226 -6z" />
<glyph unicode="[" horiz-adv-x="681" d="M213 -260q4 41 6 125t3 197.5t1 248.5v281v257t-1 229.5t-3 188.5t-6 136q43 -4 86 -7t88 -3q68 0 134.5 3t131.5 7q-2 -14 -4 -27.5t-2 -27.5t2 -27.5t4 -28.5l-221 13q-2 -72 -4 -145t-4 -160t-4 -193.5t-2 -243.5q0 -123 1 -242.5t3 -219t5 -168t5 -89.5 q45 0 109.5 4.5t111.5 8.5q-2 -14 -4 -28.5t-2 -29.5q0 -16 2 -29.5t4 -29.5q-53 4 -110.5 7t-114.5 3q-53 0 -107.5 -3t-107.5 -7z" />
<glyph unicode="\" horiz-adv-x="1064" d="M156 1434q23 -2 43 -3t43 -1t43 1t41 3l585 -1475q-23 2 -43 3t-43 1t-43 -1t-41 -3z" />
<glyph unicode="]" horiz-adv-x="681" d="M29 -143q47 -4 111.5 -8.5t109.5 -4.5q2 20 5 89t5 168.5t3 219t1 242.5q0 137 -2 243.5t-4 193.5t-4 160t-4 145l-221 -13q2 14 4 27.5t2 28.5q0 14 -2 27.5t-4 27.5q66 -4 132 -7t134 -3q45 0 88 3t86 7q-4 -53 -6 -136t-3 -188.5t-1 -229.5v-257v-280.5t1 -249 t3 -197.5t6 -125q-53 4 -107.5 7t-107.5 3q-57 0 -114.5 -3t-110.5 -7q2 16 4 29.5t2 29.5q0 14 -2 28.5t-4 29.5z" />
<glyph unicode="^" horiz-adv-x="1241" d="M129 516l410 827h163l410 -827h-205l-286 586l-287 -586h-205z" />
<glyph unicode="_" horiz-adv-x="1024" d="M0 -154h1024v-102h-1024v102z" />
<glyph unicode="`" horiz-adv-x="681" d="M23 1438q0 35 23.5 63.5t72.5 28.5q23 0 43 -8.5t59 -45t105.5 -114.5t181.5 -217h-113q-133 80 -207.5 128t-111.5 77.5t-45 48t-8 39.5z" />
<glyph unicode="a" horiz-adv-x="1024" d="M49 231q0 68 21.5 116t61.5 84t95.5 59.5t124.5 39.5q86 20 136.5 36t75 31t31.5 32.5t7 46.5q0 74 -52 126t-144 52q-35 0 -72 -9t-71 -25.5t-61.5 -37t-41.5 -41.5h-15l-26 123q84 70 184 107t199 37q82 0 150.5 -18.5t118.5 -58.5t78 -103.5t28 -153.5 q0 -131 -3.5 -243t-3.5 -222q0 -49 7.5 -77t21.5 -42t38 -18t54 -4v-50q-59 -31 -100 -43t-88 -12q-76 0 -123 40t-72 110q-47 -66 -109.5 -108t-156.5 -42q-78 0 -133 23.5t-91 61.5t-52.5 86t-16.5 97zM336 260q0 -76 31.5 -116t85.5 -40q68 0 109.5 51.5t41.5 151.5 q0 88 1 134t1 81q-43 -25 -91 -40t-88 -38.5t-65.5 -64.5t-25.5 -119z" />
<glyph unicode="b" d="M109 -18q4 90 7 175t5 172t3 178t1 191v133q0 100 -1 191.5t-3 177.5t-5 170t-7 170q27 -4 67.5 -7t85.5 -3t86 3t68 7q-4 -86 -7 -170t-5.5 -170t-3.5 -177t-1 -192h4q35 84 109 130.5t164 46.5q88 0 160.5 -39t125 -104.5t81 -156t28.5 -190.5q0 -154 -42 -259 t-108.5 -170.5t-148.5 -95.5t-162 -30q-98 0 -165.5 41t-110.5 102q-43 -25 -87 -57.5t-89 -66.5h-49zM399 479q0 -90 7.5 -168t27 -134t53 -89t88.5 -33q88 0 140.5 109.5t52.5 359.5q0 180 -45 268.5t-131 88.5q-43 0 -79 -20.5t-61.5 -69t-39 -125t-13.5 -187.5z" />
<glyph unicode="c" horiz-adv-x="1024" d="M88 483q0 113 38 209t108.5 166t171 110t223.5 40q115 0 196.5 -27t155.5 -70q-25 -41 -46.5 -100t-31.5 -113h-49q-16 90 -64.5 147.5t-142.5 57.5q-121 0 -183.5 -111.5t-62.5 -310.5q0 -186 78 -285.5t228 -99.5q63 0 122.5 30t88.5 67l24 -21q-14 -29 -24.5 -59.5 t-20.5 -61.5q-45 -35 -113.5 -61.5t-162.5 -26.5q-150 0 -252.5 46t-165 120t-89 167t-26.5 187z" />
<glyph unicode="d" d="M68 496q0 111 30.5 204t84 161.5t125 107.5t155.5 39q90 0 163.5 -43t108.5 -109h4q0 184 -4 347t-12 337q27 -4 67.5 -7t86.5 -3q45 0 86 3t67 7q-4 -86 -7 -170t-5 -170t-3 -177t-1 -192v-133q0 -100 1 -191t3 -177t5 -170t7 -170q-27 4 -67.5 7t-85.5 3q-41 0 -79 -3 t-59 -7q2 6 5.5 30.5t5.5 53t4 53.5t2 31l-4 4q-39 -90 -106.5 -144.5t-186.5 -54.5q-104 0 -178 42t-121 115t-69.5 170t-22.5 206zM371 465q0 -104 14 -176t39 -116t56.5 -63.5t66.5 -19.5q41 0 76.5 22.5t61.5 73t40 128t14 188.5q0 190 -51 277t-131 87 q-33 0 -65.5 -18.5t-59 -64.5t-44 -123.5t-17.5 -194.5z" />
<glyph unicode="e" horiz-adv-x="1024" d="M68 481q0 133 35.5 231.5t99 164t150.5 98.5t190 33q201 0 309.5 -120t108.5 -335v-42t-3 -26h-587q0 -84 16 -154.5t50 -122.5t85 -82t123 -30q141 0 252 92l25 -18l-45 -115q-51 -39 -123 -65.5t-189 -26.5q-100 0 -190 31t-159 94.5t-108.5 160.5t-39.5 232zM371 578 h315q-4 154 -38 245.5t-113 91.5q-45 0 -76 -30.5t-50.5 -78.5t-27.5 -108.5t-10 -119.5z" />
<glyph unicode="f" horiz-adv-x="645" d="M37 864q6 25 6 51q0 25 -6 56l143 -6q20 125 51 231.5t81 184t126 121.5t187 44q39 0 86 -10q-4 -23 -5 -55.5t-2.5 -69.5t-1.5 -74v-67l-24 -8q-41 23 -94.5 41t-102.5 18q-59 0 -91 -19.5t-32 -68.5q0 -47 28 -121t69 -145l192 4q-2 -16 -4 -28.5t-2 -27.5q0 -12 2 -25 l4 -26l-192 4v-170q0 -100 1 -191t3 -177t5 -170t7 -170q-27 4 -68 7t-86 3t-86 -3t-67 -7q4 86 7 170t5 170t3 177t1 191v168z" />
<glyph unicode="g" horiz-adv-x="1024" d="M61 -283q0 98 55.5 159t145.5 95v4q-53 23 -85 62t-32 96q0 68 52.5 131.5t138.5 85.5v4q-125 31 -193 111q-69 81 -69 209q0 82 31.5 143.5t89 103.5t137.5 64.5t176 22.5q37 0 76 -3.5t75 -5.5q27 -2 54.5 -3t60.5 -1q51 0 106.5 1t110.5 1q-2 -12 -3 -24t-1 -25 q0 -12 1 -24.5t3 -24.5l-180 8l-6 -4q51 -37 80.5 -93t29.5 -134q0 -76 -28.5 -138.5t-80.5 -107.5t-126 -69.5t-162 -24.5q-23 0 -44 1t-48 1q-25 0 -42 -22.5t-17 -51.5q0 -49 37.5 -77.5t119.5 -30.5l152 -2q170 -2 252 -65.5t82 -205.5q0 -123 -50.5 -206t-129 -135 t-175 -74.5t-186.5 -22.5q-193 0 -300.5 76t-107.5 196zM248 -236q0 -59 21.5 -103t58.5 -72.5t85 -44t103 -15.5q59 0 106.5 19.5t81 53t51 78t17.5 93.5q0 59 -20.5 97t-59.5 58.5t-93 27.5t-124 7q-104 0 -147 -20q-25 -12 -52.5 -59.5t-27.5 -119.5zM360 653 q0 -68 12.5 -113.5t32 -74.5t43 -41t48.5 -12q68 0 100.5 60t32.5 200q0 139 -37 195.5t-92 56.5q-139 0 -140 -271z" />
<glyph unicode="h" d="M109 -10q4 86 7 170t5 170t3 177t1 191v133q0 100 -1 191.5t-3 177.5t-5 170t-7 170q27 -4 67.5 -7t85.5 -3t86 3t68 7q-4 -86 -7 -170t-5.5 -170t-3.5 -177t-1 -192l4 -4q53 84 130 132.5t176 48.5q154 0 236.5 -89.5t82.5 -287.5q0 -104 -4 -184t-4 -160 q0 -66 3 -142.5t7 -154.5q-27 4 -67.5 7t-85.5 3t-86 -3t-68 -7q14 111 18 257t4 331q0 129 -44 189t-123 60q-92 0 -135.5 -79.5t-43.5 -221.5v-82q0 -29 1 -83t3.5 -118.5t5.5 -132t7 -120.5q-27 4 -68 7t-86 3t-86 -3t-67 -7z" />
<glyph unicode="i" horiz-adv-x="569" d="M123 1368q0 68 47 115t115 47t114.5 -47t46.5 -115t-47 -115t-114 -47q-68 0 -115 47t-47 115zM131 -10q10 109 13 219t3 235v82q0 125 -3 235.5t-13 219.5q29 -4 68 -7t86 -3t87 3t66 7q-10 -109 -13 -219.5t-3 -235.5v-82q0 -125 3 -235.5t13 -218.5q-27 4 -66.5 7 t-86.5 3t-86 -3t-68 -7z" />
<glyph unicode="j" horiz-adv-x="569" d="M-12 -481q90 27 124.5 91t34.5 173v743q0 125 -3 235.5t-13 219.5q29 -4 68 -7t86 -3t87 3t66 7q-10 -109 -13 -219.5t-3 -235.5v-624q0 -115 -26.5 -195t-79 -133t-128 -84t-174.5 -45zM123 1368q0 68 47 115t115 47t114.5 -47t46.5 -115t-47 -115t-114 -47 q-68 0 -115 47t-47 115z" />
<glyph unicode="k" horiz-adv-x="1024" d="M109 -10q4 86 7 170t5 170t3 177t1 191v133q0 100 -1 191.5t-3 177.5t-5 170t-7 170q27 -4 67.5 -7t85.5 -3t86 3t68 7q-4 -86 -7 -174t-5.5 -198.5t-3.5 -253t-1 -339.5q0 -29 1 -37t10 -8q8 0 39.5 33t82 91.5t117 141.5t146.5 185q25 -4 48 -7t48 -3q23 0 49.5 3 t65.5 7q-27 -31 -79.5 -84t-107.5 -109.5t-105 -107.5t-71 -76q8 -14 36 -59t66.5 -106.5t81.5 -132t81 -135.5t67 -114t37 -67q-43 4 -82 7t-80 3t-79 -3t-77 -7q-10 16 -32.5 57t-52 94.5t-62.5 110.5t-62.5 104t-51 78t-30.5 31q-6 0 -8 -4t-4 -23.5t-2 -60.5v-115 q0 -29 1 -66.5t2 -77.5t4 -75t7 -53q-37 4 -73.5 7t-73.5 3t-74 -3t-73 -7z" />
<glyph unicode="l" horiz-adv-x="569" d="M131 -10q4 86 7 170t5 170t3 177t1 191v133q0 100 -1 191.5t-3 177.5t-5 170t-7 170q27 -4 68 -7t86 -3t86 3t67 7q-4 -86 -7 -170t-5 -170t-3 -177t-1 -192v-133q0 -100 1 -191t3 -177t5 -170t7 -170q-27 4 -67.5 7t-85.5 3t-86 -3t-68 -7z" />
<glyph unicode="m" horiz-adv-x="1705" d="M102 -10q10 109 13.5 219t3.5 235v82q0 125 -3 235.5t-14 219.5q37 -4 73 -7t73 -3t72.5 3t76.5 7l-8 -154h4q57 84 134 132.5t175 48.5q92 0 159 -50.5t104 -144.5q61 94 143 144.5t174 50.5q154 0 237 -89.5t83 -287.5q0 -104 -4.5 -184t-4.5 -160q0 -66 3 -142.5 t8 -154.5q-27 4 -68 7t-86 3t-86 -3t-68 -7q14 111 18.5 257t4.5 331q0 129 -43 189t-121 60q-49 0 -81 -22.5t-50 -58t-24.5 -76.5t-6.5 -78v-148q0 -125 3 -235.5t14 -218.5q-27 4 -67 7t-87 3t-86 -3t-68 -7q10 109 13.5 219t3.5 235v125q0 123 -31 190.5t-117 67.5 q-92 0 -135 -79.5t-43 -221.5v-82q0 -125 3 -235.5t14 -218.5q-27 4 -67 7t-87 3t-86 -3t-68 -7z" />
<glyph unicode="n" d="M109 -10q10 109 13 219t3 235v82q0 125 -3 235.5t-13 219.5q37 -4 72.5 -7t72.5 -3t72.5 3t76.5 7l-8 -154h4q57 84 134 132.5t176 48.5q154 0 236.5 -89.5t82.5 -287.5q0 -104 -4 -184t-4 -160q0 -66 3 -142.5t7 -154.5q-27 4 -67.5 7t-85.5 3t-86 -3t-68 -7 q14 111 18 257t4 331q0 129 -44 189t-123 60q-92 0 -135.5 -79.5t-43.5 -221.5v-82q0 -125 3.5 -235.5t13.5 -218.5q-27 4 -67 7t-87 3t-86 -3t-67 -7z" />
<glyph unicode="o" d="M68 461q0 137 42 239.5t111.5 171t160.5 102.5t187 34q119 0 212 -35t158 -100.5t98.5 -158.5t33.5 -208q0 -125 -37 -225.5t-103.5 -171t-158.5 -108.5t-203 -38q-92 0 -181 26.5t-160.5 86t-115.5 155t-44 230.5zM371 459q0 -86 10 -160t33.5 -128t61.5 -85t95 -31 q96 0 146.5 121t50.5 361q0 178 -46 278t-149 100q-94 0 -148 -111.5t-54 -344.5z" />
<glyph unicode="p" d="M109 -549q4 86 7 170t5 170t3 177t1 192v112q0 100 -1 191.5t-3 177.5t-5 170t-7 170q35 -4 71.5 -7t71.5 -3t70.5 3t70.5 7q-4 -35 -9 -83t-5 -93h4q29 86 104.5 144.5t186.5 58.5q78 0 149.5 -29t127 -90.5t88 -157.5t32.5 -229q0 -145 -35 -247.5t-92 -167t-129 -94.5 t-147 -30q-92 0 -160 38t-105 112h-4v-172.5t2 -195.5t5.5 -177t9.5 -117q-27 4 -68 7t-86 3t-86 -3t-67 -7zM389 463q0 -186 49 -275.5t140 -89.5q88 0 139 97.5t51 300.5t-50 294t-132 91q-39 0 -74 -22.5t-62.5 -72t-44 -129t-16.5 -194.5z" />
<glyph unicode="q" d="M68 475q0 109 22.5 206t69.5 170t121.5 115t179.5 42q123 0 190.5 -54.5t106.5 -144.5l4 4q0 6 -2 30.5t-4 53.5t-5 53.5t-6 30.5q20 -4 58.5 -7t79.5 -3q45 0 86 3t67 7q-4 -86 -7 -170t-5 -170t-3 -177t-1 -192v-133q0 -203 4 -365.5t12 -322.5q-27 4 -67.5 7t-85.5 3 t-86 -3t-68 -7q8 160 12 319.5t4 344.5h-4q-35 -66 -109.5 -109t-166.5 -43q-84 0 -156.5 39t-126 107.5t-84 162t-30.5 203.5zM371 506q0 -117 17.5 -195t44 -124t60 -64.5t68.5 -18.5q84 0 136.5 87.5t52.5 277.5q0 221 -55.5 316.5t-143.5 95.5q-37 0 -69.5 -19.5 t-57.5 -63.5t-39 -116t-14 -176z" />
<glyph unicode="r" horiz-adv-x="796" d="M123 -10q10 109 13 219t3 235v82q0 125 -3 235.5t-13 219.5q35 -4 70.5 -7t70.5 -3t71 3t71 7l-7 -250l4 -4q53 141 129 207.5t181 66.5q10 0 17 -1t15 -1q-6 -31 -9 -65.5t-3 -81.5v-65.5t2 -69.5l-18 -17q-20 12 -46 20.5t-59 8.5q-92 0 -145 -60.5t-53 -142.5v-82 q0 -125 3 -235.5t13 -218.5q-27 4 -66.5 7t-87.5 3q-47 0 -85.5 -3t-67.5 -7z" />
<glyph unicode="s" horiz-adv-x="796" d="M59 51q25 98 31 197h51q12 -33 32 -62.5t48.5 -53t68.5 -38t93 -14.5q72 0 110.5 37t38.5 80q0 47 -34.5 75.5t-87 52t-113.5 48t-113.5 62.5t-87.5 96.5t-35 146.5q0 86 32 148.5t83 102.5t115.5 59.5t128.5 19.5q86 0 152.5 -25t136.5 -72q-18 -41 -30.5 -88t-19.5 -92 h-57q-6 25 -20.5 54.5t-39 56t-59 44t-84.5 17.5q-61 0 -103 -32.5t-42 -86.5q0 -49 36 -78.5t89 -52t116.5 -45t117 -58.5t89 -93.5t35.5 -147.5q0 -88 -32.5 -153.5t-88 -108.5t-127 -63.5t-147.5 -20.5q-92 0 -166 30t-117 58z" />
<glyph unicode="t" horiz-adv-x="681" d="M49 864q6 25 6 51q0 25 -6 56l144 -6q0 63 -2.5 118.5t-6.5 133.5q72 29 141.5 60.5t139.5 65.5l20 -14q-4 -33 -7 -77t-6 -92t-4 -98t-1 -95l180 4q-6 -31 -6 -56q0 -27 6 -51l-180 4q-4 -47 -6.5 -108.5t-4 -125t-2.5 -122.5t-1 -100q0 -106 5 -172t17 -101t34.5 -47 t57.5 -12q39 0 57.5 5t37.5 15v-84q-41 -25 -102.5 -39t-121.5 -14q-129 0 -194.5 81t-65.5 237q0 59 2 133.5t5 153.5t5.5 156t2.5 142z" />
<glyph unicode="u" d="M109 981q27 -4 67.5 -7t85.5 -3t86 3t68 7q-14 -111 -18.5 -257t-4.5 -331q0 -129 44 -189.5t124 -60.5q92 0 135 80t43 221v82q0 125 -3 235.5t-13 219.5q27 -4 66.5 -7t87.5 -3q47 0 85.5 3t67.5 7q-10 -109 -13 -219.5t-3 -235.5v-82q0 -125 3 -235.5t13 -218.5 q-37 4 -72.5 7t-72.5 3t-73 -3t-77 -7l8 153h-4q-57 -84 -134 -132t-175 -48q-154 0 -236.5 89t-82.5 288q0 104 4 184t4 160q0 66 -3 142.5t-7 154.5z" />
<glyph unicode="v" horiz-adv-x="1024" d="M31 981q43 -4 83 -7t79 -3t76.5 3t76.5 7q55 -180 111.5 -358.5t115.5 -358.5h5q66 180 126 358.5t119 358.5q23 -4 43.5 -7t40.5 -3t41 3t45 7q-33 -80 -80 -184.5t-99 -231.5t-106.5 -271t-101.5 -304q-29 4 -55.5 7t-54.5 3q-29 0 -55.5 -3t-55.5 -7q-41 123 -90 264 t-98.5 277.5t-93.5 254t-72 195.5z" />
<glyph unicode="w" horiz-adv-x="1593" d="M29 981q45 -4 83 -7t76 -3q37 0 75 3t75 7q49 -178 102.5 -365.5t100.5 -343.5h4q59 178 108 354.5t99 354.5q29 -4 57.5 -7t56.5 -3q29 0 57.5 3t57.5 7q49 -178 100.5 -354t106.5 -355h4q57 180 108.5 355.5t98.5 353.5q20 -4 39.5 -7t40.5 -3q20 0 39.5 3t46.5 7 q-14 -27 -39 -88.5t-54.5 -144t-63.5 -182t-67.5 -201t-64.5 -198.5t-55 -177q-29 4 -56.5 7t-56.5 3t-57.5 -3t-57.5 -7q-25 84 -50 173t-52 176t-52.5 170t-45.5 155h-5q-53 -170 -105 -337t-99 -337q-29 4 -58.5 7t-58.5 3t-59.5 -3t-61.5 -7q-23 82 -52.5 181t-62 201.5 t-64.5 203t-60.5 183.5t-49 142.5t-28.5 79.5z" />
<glyph unicode="x" horiz-adv-x="1024" d="M53 -10q14 18 53 70.5t88.5 118t99.5 135t87 124.5q-37 68 -85 149t-95 157.5t-86 141t-60 95.5q49 -4 92 -7t84 -3t83 3t83 7q43 -80 86 -162t90 -164q55 84 109.5 163t103.5 163q23 -4 43.5 -7t42.5 -3q23 0 45.5 3t51.5 7q-18 -23 -59.5 -73t-89.5 -111.5t-97 -127 t-88 -118.5q82 -139 166 -278.5t170 -282.5q-41 4 -84 7t-84 3t-84 -3t-84 -7l-189 348q-59 -86 -113 -173t-104 -175q-23 4 -43 7t-41 3q-20 0 -41.5 -3t-50.5 -7z" />
<glyph unicode="y" horiz-adv-x="1024" d="M37 981q39 -4 77 -7t76 -3q39 0 76 3t76 7q59 -162 119.5 -321.5t126.5 -321.5q37 94 67.5 175t58 156.5t53.5 151.5t52 160q23 -4 42.5 -7t39.5 -3t41 3t45 7q-10 -25 -48 -113t-92 -216t-119.5 -283.5t-132.5 -317.5t-129.5 -317.5t-109.5 -282.5q-23 4 -43 7t-43 3 t-43 -3t-43 -7q68 135 133.5 268.5t126.5 266.5q-49 123 -110.5 270t-118.5 288.5t-105.5 258.5t-72.5 178z" />
<glyph unicode="z" horiz-adv-x="1024" d="M61 -10v84q139 199 273.5 394.5t267.5 395.5q-59 0 -108.5 -1t-101.5 -4t-115.5 -7t-151.5 -12q4 18 6 36.5t2 34.5q0 18 -2 36t-6 34q100 -10 201.5 -10h222.5h228.5t185.5 10v-82q-143 -199 -280.5 -395.5t-262.5 -397.5h120t111.5 3.5t127 7.5t167.5 14q-6 -37 -6 -70 q0 -39 6 -71q-45 2 -86 4t-90 4t-113.5 2h-156.5q-113 0 -190 -1t-127 -3t-78.5 -4t-43.5 -2z" />
<glyph unicode="{" horiz-adv-x="681" d="M100 516v111q70 12 121 68.5t51 154.5v295q0 125 71 186.5t198 61.5h121v-154h-121q-88 0 -88 -94v-277q0 -111 -40 -189.5t-149 -105.5v-4q109 -27 149 -105.5t40 -189.5v-276q0 -94 88 -94h121v-154h-121q-127 0 -198 61.5t-71 186.5v295q0 98 -51 154.5t-121 68.5z " />
<glyph unicode="|" horiz-adv-x="1241" d="M539 -512v2048h163v-2048h-163z" />
<glyph unicode="}" horiz-adv-x="681" d="M20 -96h121q88 0 88 94v276q0 111 40 190t149 105v4q-109 27 -149 106t-40 189v277q0 94 -88 94h-121v154h121q127 0 198 -61.5t71 -186.5v-295q0 -98 51 -154.5t121 -68.5v-111q-70 -12 -121 -68.5t-51 -154.5v-295q0 -125 -71 -186.5t-198 -61.5h-121v154z" />
<glyph unicode="~" horiz-adv-x="1241" d="M141 500q41 82 102.5 131t153.5 49q55 0 116.5 -22.5t122 -49t112 -49t86.5 -22.5q53 0 95 37.5t85 113.5l86 -151q-41 -82 -102.5 -131.5t-153.5 -49.5q-55 0 -116.5 22.5t-122 49.5t-113 49.5t-84.5 22.5q-53 0 -95.5 -38t-85.5 -114z" />
<glyph unicode="&#xa1;" horiz-adv-x="681" d="M168 -295q0 31 4 73t19.5 128t43 234.5t76.5 389.5h58q49 -242 76.5 -390t43 -234t19.5 -128t4 -73q0 -74 -47 -119t-125 -45t-125 45t-47 119zM172 840q0 70 49 119t119 49t119 -49.5t49 -118.5q0 -70 -49 -119t-119 -49t-119 49t-49 119z" />
<glyph unicode="&#xa2;" d="M160 483q0 106 33.5 197.5t97 161t154 112.5t200.5 54q-2 76 -6 133t-8 80q16 0 34.5 -2t34.5 -2t34 2t34 2q-4 -23 -8 -80.5t-4 -132.5q33 0 73.5 -8.5t81.5 -21.5t78 -30.5t64 -36.5q-25 -41 -46.5 -100t-31.5 -113h-49q-14 80 -55.5 137.5t-116.5 67.5v-807 q8 -2 24 -2q63 0 123 30t88 69l25 -21q-14 -29 -24.5 -59.5t-20.5 -61.5q-33 -25 -86.5 -51.5t-128.5 -32.5q0 -88 5 -152.5t9 -88.5q-16 0 -33.5 2t-34.5 2q-16 0 -34.5 -2t-34.5 -2q4 25 9 88t5 149q-135 8 -228 57.5t-150.5 122t-82 161.5t-24.5 179zM473 481 q0 -281 172 -358v768q-84 -27 -128 -135.5t-44 -274.5z" />
<glyph unicode="&#xa3;" d="M76 -10q4 29 7 58.5t3 57.5q0 29 -3 59t-7 58q49 0 91 10.5t73.5 38t50 74.5t18.5 121q0 61 -3 94t-5 51l-172 -4q4 16 6 33.5t2 34.5q0 16 -2 32.5t-6 32.5l162 -8q-4 43 -7 80t-3 84q0 223 118.5 351t350.5 128q96 0 181 -29.5t140 -76.5q-12 -14 -28.5 -39t-33 -54.5 t-30.5 -59.5t-23 -52l-24 4q-6 111 -53.5 163t-120.5 52q-102 0 -138 -75.5t-36 -217.5q0 -66 5 -130t7 -130q90 0 172 1t190 11q-2 -16 -3 -33.5t-1 -33.5t1 -33.5t3 -34.5q-57 2 -104 3t-90 2t-84 1h-84q0 -45 -23.5 -102t-59.5 -111.5t-76 -97.5t-72 -59v-4q178 0 353 2 t351 14q-4 -35 -7 -66.5t-3 -66.5t3 -66.5t7 -66.5q-176 4 -355 7t-341 3q-74 0 -148.5 -3t-148.5 -7z" />
<glyph unicode="&#xa4;" d="M61 301l109 109q-37 59 -58.5 123.5t-21.5 138.5q0 72 21.5 137t58.5 125l-109 108l138 138l108 -109q57 37 124 58.5t138 21.5q74 0 139.5 -21.5t122.5 -58.5l109 109l137 -138l-108 -108q37 -59 58.5 -125t21.5 -137q0 -74 -21.5 -138.5t-58.5 -123.5l108 -109 l-137 -137l-109 108q-57 -37 -122.5 -58t-139.5 -21q-72 0 -138 21.5t-124 57.5l-108 -108zM295 672q0 -121 77 -198t197 -77q121 0 198 77t77 198t-77 197.5t-198 76.5t-197.5 -76.5t-76.5 -197.5z" />
<glyph unicode="&#xa5;" d="M0 1403q41 -4 85 -7t87 -3q47 0 95 3t95 7q29 -78 66 -166t75 -175t75.5 -168t66.5 -144q86 172 161 332.5t140 320.5q25 -4 47.5 -7t44.5 -3q25 0 49.5 3t51.5 7q-43 -57 -95.5 -136t-107.5 -168t-108.5 -179.5t-100.5 -169.5q117 0 199 1t157 5q-2 -14 -3 -25.5 t-1 -21.5q0 -12 1 -23.5t3 -21.5l-381 4v-191h122.5t99.5 1t84 2t75 3q-2 -14 -3 -25.5t-1 -21.5q0 -12 1 -23.5t3 -21.5l-381 4q0 -154 1.5 -255t9.5 -150q-41 4 -81 7t-81 3t-81 -3t-81 -7q8 49 9 150.5t1 254.5l-372 -4q2 10 3 21.5t1 23.5q0 10 -1 21.5t-3 25.5 q70 -4 153.5 -5t218.5 -1v191l-372 -4q2 10 3 21t1 24q0 10 -1 21t-3 26q70 -4 148.5 -5t182.5 -1q-90 168 -177 324.5t-181 328.5z" />
<glyph unicode="&#xa6;" horiz-adv-x="1241" d="M539 358h163v-716h-163v716zM539 666v716h163v-716h-163z" />
<glyph unicode="&#xa7;" d="M127 588q0 94 46 173t122 126q-35 33 -61.5 84t-26.5 121q0 74 30.5 135t83 106t124 71t153.5 26q96 0 183 -26t165 -83q-23 -45 -44 -88t-44 -86h-27q-16 74 -76.5 126t-168.5 52q-70 0 -114 -45t-44 -106q0 -59 43 -98.5t108.5 -73t140.5 -65.5t140.5 -76t108.5 -104.5 t43 -148.5q0 -72 -35 -141.5t-121 -140.5q59 -41 89 -102.5t30 -131.5q0 -78 -36 -144.5t-97.5 -114.5t-141 -75.5t-168.5 -27.5q-121 0 -208.5 29.5t-159.5 76.5q14 53 22.5 107.5t14.5 109.5h37q18 -41 46.5 -81t65.5 -70.5t83 -49t102 -18.5q51 0 91 16.5t66.5 41 t41 56.5t14.5 62q0 61 -46.5 103.5t-115 76t-149.5 66.5t-149.5 76t-114.5 103.5t-46 152.5zM291 709q0 -59 49 -101.5t124 -78t163 -72.5t168 -86q53 55 53 118q0 59 -48 101.5t-122 79.5t-160 75.5t-162 92.5q-66 -45 -65 -129z" />
<glyph unicode="&#xa8;" horiz-adv-x="681" d="M-8 1296q0 55 39 94.5t94 39.5t94 -39t39 -95q0 -55 -39 -94t-94 -39t-94 39t-39 94zM424 1296q0 55 39 94.5t94 39.5t94 -39t39 -95q0 -55 -39 -94t-94 -39t-94 39t-39 94z" />
<glyph unicode="&#xa9;" horiz-adv-x="1536" d="M35 696q0 152 57.5 286t156.5 233.5t233 157t286 57.5t286 -57.5t233 -157t156.5 -233.5t57.5 -286t-57.5 -286t-156.5 -233t-233 -156.5t-286 -57.5t-286 57.5t-233 156.5t-156.5 233t-57.5 286zM119 696q0 -135 51 -252.5t139 -205.5t206 -139.5t253 -51.5t253 51.5 t206 139.5t139 205.5t51 252.5t-51 253t-139 206t-206 139.5t-253 51.5t-253 -51.5t-206 -139.5t-139 -206t-51 -253zM365 696q0 104 35.5 186.5t99 140.5t152.5 89t196 31q70 0 133 -14.5t133 -47.5q-10 -33 -17 -64.5t-14 -64.5h-16q-39 53 -93 84t-122 31 q-55 0 -106.5 -23.5t-90.5 -71.5t-62.5 -119t-23.5 -163q0 -84 22.5 -148.5t61.5 -107.5t91.5 -65.5t111.5 -22.5q66 0 125 24.5t102 63.5l15 -8q-10 -16 -18.5 -48t-12.5 -59q-53 -23 -108.5 -36t-133.5 -13q-92 0 -176 23.5t-146.5 74t-100 131.5t-37.5 197z" />
<glyph unicode="&#xaa;" horiz-adv-x="681" d="M29 911q0 57 26.5 91t66.5 53.5t86 31t86 22.5t66.5 27.5t26.5 45.5q0 37 -27.5 66.5t-87.5 29.5q-47 0 -93 -20.5t-66 -47.5h-11l-16 80q53 41 118.5 63.5t129.5 22.5q51 0 96 -11t78 -33.5t52.5 -55.5t19.5 -76q0 -98 -3.5 -167.5t-3.5 -135.5q0 -29 5.5 -45 t14.5 -24.5t24.5 -10.5t35.5 -2v-33q-39 -18 -65.5 -25t-57.5 -7q-49 0 -79.5 24.5t-47.5 65.5q-31 -39 -71.5 -64.5t-100.5 -25.5q-51 0 -89 14t-63.5 36.5t-37.5 51.5t-12 59zM233 938q0 -53 15.5 -74.5t50.5 -21.5q88 0 88 121v108q-25 -12 -52.5 -20.5t-50 -20.5 t-37 -33.5t-14.5 -58.5z" />
<glyph unicode="&#xab;" horiz-adv-x="1024" d="M168 551q66 100 132.5 199.5t127.5 201.5q35 -29 66.5 -50t66.5 -40q-59 -78 -117.5 -155.5t-111.5 -155.5q53 -78 111.5 -158t119.5 -157q-68 -37 -135 -93q-61 102 -126.5 202.5t-133.5 205.5zM471 551q66 100 132.5 199.5t127.5 201.5q35 -29 66.5 -50t66.5 -40 q-59 -78 -117.5 -155.5t-111.5 -155.5q53 -78 111.5 -158t119.5 -157q-68 -37 -135 -93q-61 102 -126.5 202.5t-133.5 205.5z" />
<glyph unicode="&#xac;" horiz-adv-x="1241" d="M102 655v193h1037v-629h-193v436h-844z" />
<glyph unicode="&#xad;" horiz-adv-x="681" d="M86 336v225h510v-225h-510z" />
<glyph unicode="&#xae;" horiz-adv-x="1536" d="M35 696q0 152 57.5 286t156.5 233.5t233 157t286 57.5t286 -57.5t233 -157t156.5 -233.5t57.5 -286t-57.5 -286t-156.5 -233t-233 -156.5t-286 -57.5t-286 57.5t-233 156.5t-156.5 233t-57.5 286zM119 696q0 -135 51 -252.5t139 -205.5t206 -139.5t253 -51.5t253 51.5 t206 139.5t139 205.5t51 252.5t-51 253t-139 206t-206 139.5t-253 51.5t-253 -51.5t-206 -139.5t-139 -206t-51 -253zM496 293q0 10 2 39.5t4 84t4 136.5t2 197q0 94 -1 158.5t-3 107.5t-4 70.5t-4 46.5q41 -2 80.5 -3.5t78.5 -1.5q29 0 70 2.5t100 2.5q111 0 175.5 -57.5 t64.5 -149.5q0 -88 -58.5 -147.5t-140.5 -71.5l262 -416q-29 2 -55 4t-55 2t-55.5 -2t-55.5 -4q-80 143 -123 222t-64.5 116t-26.5 43t-9 6q-6 0 -7 -5t-1 -28q0 -45 1 -99t3 -105.5t4 -92.5t4 -55q-23 2 -47.5 4t-48.5 2q-23 0 -47.5 -2t-48.5 -4zM678 729q20 0 53 3 t64.5 19.5t54 54t22.5 105.5q0 78 -39.5 117t-87.5 39h-63q-4 -111 -4 -187.5v-150.5z" />
<glyph unicode="&#xaf;" horiz-adv-x="681" d="M41 1225v141h600v-141h-600z" />
<glyph unicode="&#xb0;" horiz-adv-x="819" d="M117 1083q0 61 22.5 114.5t62.5 93.5t93 62.5t115 22.5q61 0 114.5 -22.5t93 -62.5t62 -93t22.5 -115q0 -61 -22.5 -114.5t-62 -93t-93 -62t-114.5 -22.5t-114.5 22.5t-93.5 62t-62.5 93t-22.5 114.5zM244 1083q0 -70 48 -117.5t118 -47.5t117.5 47.5t47.5 117.5t-48 118 t-117 48q-70 0 -118 -48t-48 -118z" />
<glyph unicode="&#xb1;" horiz-adv-x="1241" d="M102 0v168h1037v-168h-1037zM102 563v168h435v305h168v-305h434v-168h-434v-305h-168v305h-435z" />
<glyph unicode="&#xb2;" horiz-adv-x="681" d="M0 1219q25 68 92.5 112.5t183.5 44.5q86 0 145.5 -17.5t96.5 -48t53.5 -73.5t16.5 -94q0 -45 -28 -98.5t-77 -109.5t-116.5 -113.5t-149.5 -108.5l2 -4q88 0 180.5 1t188.5 5q-4 -23 -7 -42.5t-3 -41.5q0 -23 3 -43.5t7 -42.5q-76 2 -149.5 4t-149.5 2q-72 0 -143.5 -2 t-143.5 -4v57q199 172 282 302t83 239q0 98 -39 133t-84 35q-35 0 -59.5 -17.5t-39 -44t-19.5 -55.5t-5 -51l-17 -4q-27 23 -52 42t-52 38z" />
<glyph unicode="&#xb3;" horiz-adv-x="681" d="M-6 627q23 29 44 54.5t40 51.5h24q8 -55 40 -100t96 -45q59 0 101 50t42 126q0 80 -39 131t-104 51q-16 0 -30.5 -2t-31.5 -2v66q10 -2 17.5 -3t17.5 -1q147 0 147 170q0 80 -32.5 112.5t-77.5 32.5q-59 0 -85 -41t-34 -104h-25q-18 20 -41.5 40.5t-46.5 40.5 q35 57 93.5 89t169.5 32q80 0 134 -15t88 -41t48 -61.5t14 -74.5q0 -72 -49 -117t-139 -74v-10q111 -14 169 -56t58 -149q0 -57 -29.5 -103t-78 -78t-110.5 -49.5t-126 -17.5q-109 0 -170 29t-94 68z" />
<glyph unicode="&#xb4;" horiz-adv-x="681" d="M174 1145q115 139 181.5 217t105.5 114.5t59.5 45t42.5 8.5q49 0 72.5 -28.5t23.5 -63.5q0 -20 -8 -39t-45 -48.5t-111.5 -77.5t-207.5 -128h-113z" />
<glyph unicode="&#xb6;" horiz-adv-x="1433" d="M260 1018q0 88 25.5 157.5t73 117.5t113 74t142.5 26h582v-58l-135 -16v-1563h-86v1561l-121 -17v-1544h-86v842q-133 0 -228.5 33t-158 89t-92 133t-29.5 165z" />
<glyph unicode="&#xb7;" horiz-adv-x="569" d="M141 614q0 59 42 101.5t102 42.5q59 0 101 -42t42 -102q0 -59 -42 -101t-101 -42t-101.5 42t-42.5 101z" />
<glyph unicode="&#xb8;" horiz-adv-x="681" d="M41 -406l33 76q23 -10 52.5 -19t68.5 -9q55 0 86.5 21.5t31.5 62.5q0 76 -94 75q-37 0 -57 -8l-23 17l88 196h86l-57 -131q16 6 30.5 8t35.5 2q98 0 141 -43t43 -106q0 -86 -77 -132t-208 -46q-23 0 -50.5 4t-53 10t-47 12t-29.5 10z" />
<glyph unicode="&#xb9;" horiz-adv-x="681" d="M49 1221v10q96 33 187.5 69.5t195.5 85.5l37 -10q-6 -74 -10 -174t-4 -192v-76v-92t1 -88t3 -95.5t4 -113.5q-35 2 -61.5 4t-53.5 2t-53.5 -2t-58.5 -4q2 25 4 61.5t4 80.5t4 95.5t2 102.5v329l-8 7q-31 -18 -66 -36t-72 -32q-29 37 -55 68z" />
<glyph unicode="&#xba;" horiz-adv-x="702" d="M25 1049q0 82 27.5 143t73.5 102t104.5 61.5t121.5 20.5q154 0 240 -81t86 -220q0 -152 -91 -238.5t-235 -86.5q-59 0 -118.5 16t-105.5 52t-74.5 92.5t-28.5 138.5zM229 1047q0 -100 27 -166t94 -66q59 0 91 69t32 210q0 104 -29.5 160.5t-93.5 56.5q-53 0 -87 -63.5 t-34 -200.5z" />
<glyph unicode="&#xbb;" horiz-adv-x="1024" d="M158 236q61 78 119.5 157.5t111.5 157.5q-53 78 -111.5 155.5t-117.5 155.5q35 18 66.5 40t66.5 50q61 -102 127.5 -201.5t132.5 -199.5q-68 -104 -133.5 -204.5t-126.5 -203.5q-68 55 -135 93zM461 236q61 78 119.5 157.5t111.5 157.5q-53 78 -111.5 155.5t-117.5 155.5 q35 18 66.5 40t66.5 50q61 -102 128 -201.5t132 -199.5q-68 -104 -133.5 -204.5t-126.5 -203.5q-68 55 -135 93z" />
<glyph unicode="&#xbc;" horiz-adv-x="1708" d="M49 1221v10q96 33 187.5 69.5t195.5 85.5l37 -10q-6 -74 -10 -174t-4 -192v-76v-92t1 -88t3 -95.5t4 -113.5q-35 2 -61.5 4t-53.5 2t-53.5 -2t-58.5 -4q2 25 4 61.5t4 80.5t4 95.5t2 102.5v329l-8 7q-31 -18 -66 -36t-72 -32q-29 37 -55 68zM401 -53l592 1450 q37 -6 74 -6t74 6l-592 -1450q-37 6 -74 6t-74 -6zM942 188q2 18 4 33t2 31t-2 29.5t-4 29.5q90 129 179 257t188 257q23 -2 44 -4t44 -2t44 2t48 4q-4 -29 -6 -82t-4 -121.5t-2 -146.5v-153l110 10q-2 -20 -4 -39t-2 -35t2 -34.5t4 -41.5l-110 6q0 -47 1 -96t9 -98 q-29 2 -55.5 4t-51.5 2t-51 -2t-55 -4l10 194h-342zM1036 342l8 -12h240v342h-4q-66 -84 -125 -166t-119 -164z" />
<glyph unicode="&#xbd;" horiz-adv-x="1708" d="M49 1221v10q96 33 187.5 69.5t195.5 85.5l37 -10q-6 -74 -10 -174t-4 -192v-76v-92t1 -88t3 -95.5t4 -113.5q-35 2 -61.5 4t-53.5 2t-53.5 -2t-58.5 -4q2 25 4 61.5t4 80.5t4 95.5t2 102.5v329l-8 7q-31 -18 -66 -36t-72 -32q-29 37 -55 68zM408 -53l591 1450 q37 -6 74 -6t74 6l-592 -1450q-37 6 -74 6t-73 -6zM971 668q25 68 92 112.5t184 44.5q86 0 145.5 -17t96.5 -48t53.5 -74t16.5 -94q0 -45 -28 -98.5t-77 -109.5t-116.5 -113.5t-149.5 -108.5l2 -4q88 0 180 1t189 5q-4 -23 -7.5 -42.5t-3.5 -41.5q0 -23 3 -43.5t8 -42.5 q-76 2 -150 4t-149 2q-72 0 -144 -2t-143 -4v57q199 172 281.5 302t82.5 239q0 98 -38.5 133t-84.5 35q-35 0 -59.5 -17.5t-38.5 -44t-19 -55.5t-5 -51l-17 -4q-27 23 -52.5 42t-51.5 38z" />
<glyph unicode="&#xbe;" horiz-adv-x="1708" d="M18 627q23 29 44.5 54.5t39.5 51.5h25q8 -55 40 -100t95 -45q59 0 101.5 50t42.5 126q0 80 -39 131t-105 51q-16 0 -30.5 -2t-30.5 -2v66q10 -2 17 -3t18 -1q147 0 147 170q0 80 -33 112.5t-78 32.5q-59 0 -84.5 -41t-33.5 -104h-25q-18 20 -42 40.5t-46 40.5 q35 57 93.5 89t168.5 32q80 0 134.5 -15t88 -41t48 -61.5t14.5 -74.5q0 -72 -49.5 -117t-139.5 -74v-10q111 -14 169.5 -56t58.5 -149q0 -57 -30 -103t-78 -78t-110.5 -49.5t-125.5 -17.5q-109 0 -170.5 29t-94.5 68zM463 -53l592 1450q37 -6 73 -6q37 0 74 6l-592 -1450 q-37 6 -73 6q-37 0 -74 -6zM942 188q2 18 4 33t2 31t-2 29.5t-4 29.5q90 129 179 257t188 257q23 -2 44 -4t44 -2t44 2t48 4q-4 -29 -6 -82t-4 -121.5t-2 -146.5v-153l110 10q-2 -20 -4 -39t-2 -35t2 -34.5t4 -41.5l-110 6q0 -47 1 -96t9 -98q-29 2 -55.5 4t-51.5 2t-51 -2 t-55 -4l10 194h-342zM1036 342l8 -12h240v342h-4q-66 -84 -125 -166t-119 -164z" />
<glyph unicode="&#xbf;" horiz-adv-x="909" d="M135 -158q0 94 51.5 167t112.5 133.5t112.5 113.5t51.5 113q0 35 -27.5 66.5t-75.5 31.5q-25 0 -45 -7t-43 -20l-18 11q10 20 18.5 40.5t14.5 43.5q31 8 59.5 12t63.5 4q70 0 124 -21.5t91 -57.5t56 -84t19 -101q0 -86 -46 -150.5t-99 -120.5q-39 -39 -66.5 -69.5 t-45 -56t-25.5 -50t-8 -53.5q0 -41 14 -67.5t36.5 -43t50.5 -23.5t56 -7q61 0 106.5 30.5t67.5 79.5h25l8 -139q-45 -35 -118.5 -55.5t-153.5 -20.5q-76 0 -142.5 19.5t-116.5 57.5t-79 94.5t-29 129.5zM299 840q0 70 49 119t119 49t119 -49.5t49 -118.5q0 -70 -49 -119 t-119 -49t-119 49t-49 119z" />
<glyph unicode="&#xc0;" horiz-adv-x="1366" d="M29 -10q25 57 65.5 152.5t91 214t106.5 255t112.5 275.5t110.5 274t97 252q20 -4 39 -7t39 -3t39 3t39 7q66 -176 140.5 -372.5t150.5 -389t147.5 -364.5t130.5 -297q-49 4 -93 7t-87 3t-87 -3t-87 -7q-33 104 -67.5 209.5t-73.5 210.5q-66 2 -131.5 3t-130.5 1 q-53 0 -106.5 -1t-106.5 -3q-41 -104 -76 -209t-64 -211q-25 4 -48 7t-48 3t-49.5 -3t-52.5 -7zM365 1778q0 35 23.5 63.5t72.5 28.5q23 0 43 -8.5t59 -45t105.5 -114.5t181.5 -217h-113q-133 80 -207.5 128t-111.5 77.5t-45 48t-8 39.5zM420 530h375q-45 125 -89 246 t-94 242q-53 -121 -100 -242t-92 -246z" />
<glyph unicode="&#xc1;" horiz-adv-x="1366" d="M29 -10q25 57 65.5 152.5t91 214t106.5 255t112.5 275.5t110.5 274t97 252q20 -4 39 -7t39 -3t39 3t39 7q66 -176 140.5 -372.5t150.5 -389t147.5 -364.5t130.5 -297q-49 4 -93 7t-87 3t-87 -3t-87 -7q-33 104 -67.5 209.5t-73.5 210.5q-66 2 -131.5 3t-130.5 1 q-53 0 -106.5 -1t-106.5 -3q-41 -104 -76 -209t-64 -211q-25 4 -48 7t-48 3t-49.5 -3t-52.5 -7zM420 530h375q-45 125 -89 246t-94 242q-53 -121 -100 -242t-92 -246zM516 1485q115 139 181.5 217t105.5 114.5t59.5 45t42.5 8.5q49 0 72.5 -29t23.5 -63q0 -20 -8 -39 t-45 -48.5t-111.5 -77.5t-207.5 -128h-113z" />
<glyph unicode="&#xc2;" horiz-adv-x="1366" d="M29 -10q25 57 65.5 152.5t91 214t106.5 255t112.5 275.5t110.5 274t97 252q20 -4 39 -7t39 -3t39 3t39 7q66 -176 140.5 -372.5t150.5 -389t147.5 -364.5t130.5 -297q-49 4 -93 7t-87 3t-87 -3t-87 -7q-33 104 -67.5 209.5t-73.5 210.5q-66 2 -131.5 3t-130.5 1 q-53 0 -106.5 -1t-106.5 -3q-41 -104 -76 -209t-64 -211q-25 4 -48 7t-48 3t-49.5 -3t-52.5 -7zM340 1485l246 362h192l248 -362h-115l-229 198l-227 -198h-115zM420 530h375q-45 125 -89 246t-94 242q-53 -121 -100 -242t-92 -246z" />
<glyph unicode="&#xc3;" horiz-adv-x="1366" d="M29 -10q25 57 65.5 152.5t91 214t106.5 255t112.5 275.5t110.5 274t97 252q20 -4 39 -7t39 -3t39 3t39 7q66 -176 140.5 -372.5t150.5 -389t147.5 -364.5t130.5 -297q-49 4 -93 7t-87 3t-87 -3t-87 -7q-33 104 -67.5 209.5t-73.5 210.5q-66 2 -131.5 3t-130.5 1 q-53 0 -106.5 -1t-106.5 -3q-41 -104 -76 -209t-64 -211q-25 4 -48 7t-48 3t-49.5 -3t-52.5 -7zM309 1526q8 51 25.5 97t47.5 82t72 57.5t97 21.5q45 0 86 -14.5t80 -32.5t74.5 -32.5t68.5 -14.5q35 0 60.5 18t48.5 76h88q-8 -51 -25.5 -97.5t-47.5 -82t-72 -57t-97 -21.5 q-45 0 -86 14t-80 32.5t-74.5 33t-68.5 14.5q-35 0 -60.5 -18.5t-48.5 -75.5h-88zM420 530h375q-45 125 -89 246t-94 242q-53 -121 -100 -242t-92 -246z" />
<glyph unicode="&#xc4;" horiz-adv-x="1366" d="M29 -10q25 57 65.5 152.5t91 214t106.5 255t112.5 275.5t110.5 274t97 252q20 -4 39 -7t39 -3t39 3t39 7q66 -176 140.5 -372.5t150.5 -389t147.5 -364.5t130.5 -297q-49 4 -93 7t-87 3t-87 -3t-87 -7q-33 104 -67.5 209.5t-73.5 210.5q-66 2 -131.5 3t-130.5 1 q-53 0 -106.5 -1t-106.5 -3q-41 -104 -76 -209t-64 -211q-25 4 -48 7t-48 3t-49.5 -3t-52.5 -7zM334 1636q0 55 39 94t94 39t94 -38.5t39 -94.5q0 -55 -39 -94t-94 -39t-94 39t-39 94zM420 530h375q-45 125 -89 246t-94 242q-53 -121 -100 -242t-92 -246zM766 1636 q0 55 39 94t94 39t94 -38.5t39 -94.5q0 -55 -39 -94t-94 -39t-94 39t-39 94z" />
<glyph unicode="&#xc5;" horiz-adv-x="1366" d="M29 -10q25 57 65.5 152.5t91 214t106.5 255t112.5 275.5t110.5 274t97 252q20 -4 39 -7t39 -3t39 3t39 7q66 -176 140.5 -372.5t150.5 -389t147.5 -364.5t130.5 -297q-49 4 -93 7t-87 3t-87 -3t-87 -7q-33 104 -67.5 209.5t-73.5 210.5q-66 2 -131.5 3t-130.5 1 q-53 0 -106.5 -1t-106.5 -3q-41 -104 -76 -209t-64 -211q-25 4 -48 7t-48 3t-49.5 -3t-52.5 -7zM420 530h375q-45 125 -89 246t-94 242q-53 -121 -100 -242t-92 -246zM463 1665q0 45 17.5 86t47 70.5t69.5 47t87 17.5q45 0 85 -17.5t70.5 -47t48 -70.5t17.5 -86 q0 -47 -17.5 -87t-48 -69.5t-70.5 -47t-85 -17.5q-47 0 -87 17.5t-69.5 47t-47 69.5t-17.5 87zM567 1665q0 -49 33 -83t84 -34q49 0 83 34t34 83t-34 83t-83 34q-51 0 -84 -34t-33 -83z" />
<glyph unicode="&#xc6;" horiz-adv-x="1820" d="M14 -10q18 33 69.5 118t123.5 202.5t157 260t173 288t172 286.5t151 258q33 -4 136.5 -7t312.5 -3q76 0 144.5 1t124.5 2t97 3t62 4q-4 -18 -6 -37.5t-2 -48.5q0 -33 2 -51.5t6 -40.5q-59 4 -130 8t-137.5 8t-120 6t-75.5 2q-8 -113 -9 -223t-1 -223q133 2 240.5 6 t224.5 10q-6 -35 -8.5 -53t-2.5 -39q0 -16 3 -33.5t8 -50.5q-233 18 -465 19q0 -66 -1 -131.5t-1 -131.5q0 -133 6 -256q117 0 233.5 6.5t235.5 20.5q-4 -23 -6 -41t-2 -51t2 -51.5t6 -36.5q-55 2 -136 6t-223 4q-125 0 -201.5 -1t-122.5 -3t-69.5 -3t-40.5 -3 q8 117 11 229.5t6 251.5q-53 4 -108.5 7t-109.5 3q-66 0 -133 -3t-133 -5q-70 -121 -132 -240.5t-116 -242.5q-27 4 -52 7t-52 3t-54.5 -3t-56.5 -7zM559 614q53 0 101.5 -3t99.5 -3t100 1t101 3v315.5t-3 321.5h-16q-104 -162 -200.5 -319.5t-182.5 -315.5z" />
<glyph unicode="&#xc7;" horiz-adv-x="1366" d="M72 647q0 211 66.5 360.5t178 242.5t259 136.5t309.5 43.5q53 0 112.5 -7.5t114.5 -22t105.5 -32.5t85.5 -39q-20 -51 -31.5 -103t-16.5 -106h-28q-78 96 -160 139.5t-193 43.5q-82 0 -164.5 -37t-150 -113t-109.5 -194.5t-42 -280.5q0 -158 43 -269.5t111.5 -182 t155.5 -103.5t175 -33q49 0 100 11.5t100.5 31t93.5 48t77 63.5l26 -17q-16 -43 -28.5 -87t-16.5 -87q-82 -43 -185.5 -66.5t-225.5 -23.5l-35 -88q16 6 30.5 8t34.5 2q98 0 141.5 -43t43.5 -106q0 -86 -77 -132t-208 -46q-23 0 -50.5 4t-53 10t-47 12t-29.5 10l32 76 q23 -10 52.5 -19t68.5 -9q55 0 87 21.5t32 62.5q0 76 -94 75q-37 0 -57 -8l-23 17l68 157q-160 12 -286 68.5t-213 146.5t-133 209t-46 256z" />
<glyph unicode="&#xc8;" horiz-adv-x="1024" d="M147 -10q4 68 7.5 132t5.5 133t3 142.5t1 159.5v279q0 86 -1 159.5t-3 142t-5 133t-8 132.5q92 -2 182.5 -6t182.5 -4q76 0 144.5 1t125 2t97.5 3t61 4q-4 -18 -6 -37.5t-2 -48.5q0 -33 2 -51.5t6 -40.5q-59 4 -130 8t-137.5 8t-119.5 6t-76 2q-8 -113 -9 -223.5 t-1 -222.5q133 2 240.5 6t224.5 10q-6 -35 -8 -53t-2 -39q0 -16 3 -33.5t7 -50.5q-233 18 -465 19q0 -66 -1 -131.5t-1 -131.5q0 -133 6 -256q117 0 233.5 6.5t235.5 20.5q-4 -23 -6 -41t-2 -51t2 -51.5t6 -36.5q-55 2 -136 6t-222 4q-125 0 -202 -1t-123 -3t-69.5 -3 t-40.5 -3zM246 1778q0 35 23.5 63.5t72.5 28.5q23 0 43.5 -8.5t59 -45t105 -114.5t181.5 -217h-113q-133 80 -207.5 128t-111.5 77.5t-45 48t-8 39.5z" />
<glyph unicode="&#xc9;" horiz-adv-x="1024" d="M147 -10q4 68 7.5 132t5.5 133t3 142.5t1 159.5v279q0 86 -1 159.5t-3 142t-5 133t-8 132.5q92 -2 182.5 -6t182.5 -4q76 0 144.5 1t125 2t97.5 3t61 4q-4 -18 -6 -37.5t-2 -48.5q0 -33 2 -51.5t6 -40.5q-59 4 -130 8t-137.5 8t-119.5 6t-76 2q-8 -113 -9 -223.5 t-1 -222.5q133 2 240.5 6t224.5 10q-6 -35 -8 -53t-2 -39q0 -16 3 -33.5t7 -50.5q-233 18 -465 19q0 -66 -1 -131.5t-1 -131.5q0 -133 6 -256q117 0 233.5 6.5t235.5 20.5q-4 -23 -6 -41t-2 -51t2 -51.5t6 -36.5q-55 2 -136 6t-222 4q-125 0 -202 -1t-123 -3t-69.5 -3 t-40.5 -3zM397 1485q115 139 181.5 217t105.5 114.5t59.5 45t42.5 8.5q49 0 73 -29t24 -63q0 -20 -8.5 -39t-45 -48.5t-111.5 -77.5t-208 -128h-113z" />
<glyph unicode="&#xca;" horiz-adv-x="1024" d="M147 -10q4 68 7.5 132t5.5 133t3 142.5t1 159.5v279q0 86 -1 159.5t-3 142t-5 133t-8 132.5q92 -2 182.5 -6t182.5 -4q76 0 144.5 1t125 2t97.5 3t61 4q-4 -18 -6 -37.5t-2 -48.5q0 -33 2 -51.5t6 -40.5q-59 4 -130 8t-137.5 8t-119.5 6t-76 2q-8 -113 -9 -223.5 t-1 -222.5q133 2 240.5 6t224.5 10q-6 -35 -8 -53t-2 -39q0 -16 3 -33.5t7 -50.5q-233 18 -465 19q0 -66 -1 -131.5t-1 -131.5q0 -133 6 -256q117 0 233.5 6.5t235.5 20.5q-4 -23 -6 -41t-2 -51t2 -51.5t6 -36.5q-55 2 -136 6t-222 4q-125 0 -202 -1t-123 -3t-69.5 -3 t-40.5 -3zM170 1485l246 362h192l248 -362h-115l-229 198l-227 -198h-115z" />
<glyph unicode="&#xcb;" horiz-adv-x="1024" d="M147 -10q4 68 7.5 132t5.5 133t3 142.5t1 159.5v279q0 86 -1 159.5t-3 142t-5 133t-8 132.5q92 -2 182.5 -6t182.5 -4q76 0 144.5 1t125 2t97.5 3t61 4q-4 -18 -6 -37.5t-2 -48.5q0 -33 2 -51.5t6 -40.5q-59 4 -130 8t-137.5 8t-119.5 6t-76 2q-8 -113 -9 -223.5 t-1 -222.5q133 2 240.5 6t224.5 10q-6 -35 -8 -53t-2 -39q0 -16 3 -33.5t7 -50.5q-233 18 -465 19q0 -66 -1 -131.5t-1 -131.5q0 -133 6 -256q117 0 233.5 6.5t235.5 20.5q-4 -23 -6 -41t-2 -51t2 -51.5t6 -36.5q-55 2 -136 6t-222 4q-125 0 -202 -1t-123 -3t-69.5 -3 t-40.5 -3zM164 1636q0 55 39 94t94 39t94 -38.5t39 -94.5q0 -55 -39 -94t-94 -39t-94 39t-39 94zM596 1636q0 55 39 94t94 39t94 -38.5t39 -94.5q0 -55 -39 -94t-94 -39t-94 39t-39 94z" />
<glyph unicode="&#xcc;" horiz-adv-x="681" d="M23 1778q0 35 23.5 63.5t72.5 28.5q23 0 43 -8.5t59 -45t105.5 -114.5t181.5 -217h-113q-133 80 -207.5 128t-111.5 77.5t-45 48t-8 39.5zM174 -10q4 68 7 132t5 133t3 142.5t1 159.5v279q0 86 -1 159.5t-3 142t-5 133t-7 132.5q35 -4 76 -7t92 -3t92 3t76 7 q-4 -68 -7 -132.5t-5 -133t-3 -142t-1 -159.5v-279q0 -86 1 -159.5t3 -142.5t5 -133.5t7 -131.5q-35 4 -76 7t-92 3t-92 -3t-76 -7z" />
<glyph unicode="&#xcd;" horiz-adv-x="681" d="M174 -10q4 68 7 132t5 133t3 142.5t1 159.5v279q0 86 -1 159.5t-3 142t-5 133t-7 132.5q35 -4 76 -7t92 -3t92 3t76 7q-4 -68 -7 -132.5t-5 -133t-3 -142t-1 -159.5v-279q0 -86 1 -159.5t3 -142.5t5 -133.5t7 -131.5q-35 4 -76 7t-92 3t-92 -3t-76 -7zM174 1485 q115 139 181.5 217t105.5 114.5t59.5 45t42.5 8.5q49 0 72.5 -29t23.5 -63q0 -20 -8 -39t-45 -48.5t-111.5 -77.5t-207.5 -128h-113z" />
<glyph unicode="&#xce;" horiz-adv-x="681" d="M-2 1485l246 362h192l248 -362h-115l-229 198l-227 -198h-115zM174 -10q4 68 7 132t5 133t3 142.5t1 159.5v279q0 86 -1 159.5t-3 142t-5 133t-7 132.5q35 -4 76 -7t92 -3t92 3t76 7q-4 -68 -7 -132.5t-5 -133t-3 -142t-1 -159.5v-279q0 -86 1 -159.5t3 -142.5t5 -133.5 t7 -131.5q-35 4 -76 7t-92 3t-92 -3t-76 -7z" />
<glyph unicode="&#xcf;" horiz-adv-x="681" d="M-8 1636q0 55 39 94t94 39t94 -38.5t39 -94.5q0 -55 -39 -94t-94 -39t-94 39t-39 94zM174 -10q4 68 7 132t5 133t3 142.5t1 159.5v279q0 86 -1 159.5t-3 142t-5 133t-7 132.5q35 -4 76 -7t92 -3t92 3t76 7q-4 -68 -7 -132.5t-5 -133t-3 -142t-1 -159.5v-279 q0 -86 1 -159.5t3 -142.5t5 -133.5t7 -131.5q-35 4 -76 7t-92 3t-92 -3t-76 -7zM424 1636q0 55 39 94t94 39t94 -38.5t39 -94.5q0 -55 -39 -94t-94 -39t-94 39t-39 94z" />
<glyph unicode="&#xd0;" horiz-adv-x="1593" d="M2 721q6 31 6 59q0 29 -6 58q94 0 180 -7q0 88 -1 163t-3 143.5t-5 133t-7 132.5q35 -4 76 -7t92 -3q68 0 151.5 5t151.5 5q123 0 205 -3t142 -12.5t109.5 -28t104.5 -46.5q61 -31 114.5 -86.5t93.5 -129t63.5 -164.5t23.5 -196q0 -170 -56.5 -307t-153.5 -235.5 t-226 -151.5t-273 -53q-154 0 -262 5t-188 5q-51 0 -92 -3t-76 -7q4 68 7 132t5 133t3 142.5t1 159.5v174q-43 -4 -87 -5t-93 -5zM485 285.5q0 -60.5 1 -109.5t1 -63q31 -2 74 -4.5t107 -2.5q115 0 208 39t158.5 119t100 199t34.5 278q0 125 -33.5 226.5t-95 172 t-147.5 108.5t-193 38q-74 0 -119.5 -3t-93.5 -7q0 -14 -1 -63.5t-1 -110v-122.5v-103v-46q96 0 164 2.5t139 4.5q-6 -29 -6 -58t6 -59q-72 2 -139 4t-164 2v-215v-103.5v-123z" />
<glyph unicode="&#xd1;" horiz-adv-x="1593" d="M160 -10q2 14 6 65t9 128t9 174.5t8.5 205t6.5 218t2 214.5q0 139 -4 236.5t-7 171.5q51 -10 93 -10q41 0 92 10q223 -246 442 -487.5t447 -487.5v179.5v197.5t-1 197.5t-3.5 179.5t-4.5 140t-6 81q51 -10 92 -10t93 10q-8 -150 -13.5 -274.5t-9.5 -236.5t-6 -215.5 t-3 -211t-1 -224v-251.5q-23 4 -42.5 7t-41.5 3q-39 0 -80 -10q-211 250 -434 497.5t-461 497.5q-4 -117 -4 -238.5v-238.5q0 -123 1 -209t3 -145.5t4 -97.5t4 -66q-25 4 -49.5 7t-46.5 3q-43 0 -94 -10zM455 1526q8 51 25.5 97t47 82t71.5 57.5t97 21.5q45 0 86 -14.5 t80 -32.5t75 -32.5t69 -14.5q35 0 60.5 18t47.5 76h88q-8 -51 -25.5 -97.5t-47 -82t-71.5 -57t-97 -21.5q-45 0 -86 14t-80 32.5t-75 33t-69 14.5q-35 0 -60.5 -18.5t-47.5 -75.5h-88z" />
<glyph unicode="&#xd2;" horiz-adv-x="1705" d="M72 696q0 152 56 285t158.5 233.5t248 158t323.5 57.5q162 0 304.5 -45.5t246.5 -135.5t164.5 -228t60.5 -323q0 -152 -58 -285.5t-161.5 -234t-247 -158t-315.5 -57.5q-162 0 -304 43t-247.5 132t-167 227t-61.5 331zM408 678q0 -164 34.5 -276.5t94 -181t137.5 -99.5 t164 -31q92 0 176 39t146.5 119t100 202.5t37.5 290.5q0 133 -32.5 238.5t-91 179.5t-141.5 114t-181 40q-104 0 -187 -50.5t-140.5 -136.5t-87 -201.5t-29.5 -246.5zM535 1778q0 35 23.5 63.5t72.5 28.5q23 0 43 -8.5t59 -45t105.5 -114.5t181.5 -217h-113 q-133 80 -207.5 128t-111.5 77.5t-45 48t-8 39.5z" />
<glyph unicode="&#xd3;" horiz-adv-x="1705" d="M72 696q0 152 56 285t158.5 233.5t248 158t323.5 57.5q162 0 304.5 -45.5t246.5 -135.5t164.5 -228t60.5 -323q0 -152 -58 -285.5t-161.5 -234t-247 -158t-315.5 -57.5q-162 0 -304 43t-247.5 132t-167 227t-61.5 331zM408 678q0 -164 34.5 -276.5t94 -181t137.5 -99.5 t164 -31q92 0 176 39t146.5 119t100 202.5t37.5 290.5q0 133 -32.5 238.5t-91 179.5t-141.5 114t-181 40q-104 0 -187 -50.5t-140.5 -136.5t-87 -201.5t-29.5 -246.5zM686 1485q115 139 181.5 217t105.5 114.5t59.5 45t42.5 8.5q49 0 72.5 -29t23.5 -63q0 -20 -8 -39 t-45 -48.5t-111.5 -77.5t-207.5 -128h-113z" />
<glyph unicode="&#xd4;" horiz-adv-x="1705" d="M72 696q0 152 56 285t158.5 233.5t248 158t323.5 57.5q162 0 304.5 -45.5t246.5 -135.5t164.5 -228t60.5 -323q0 -152 -58 -285.5t-161.5 -234t-247 -158t-315.5 -57.5q-162 0 -304 43t-247.5 132t-167 227t-61.5 331zM408 678q0 -164 34.5 -276.5t94 -181t137.5 -99.5 t164 -31q92 0 176 39t146.5 119t100 202.5t37.5 290.5q0 133 -32.5 238.5t-91 179.5t-141.5 114t-181 40q-104 0 -187 -50.5t-140.5 -136.5t-87 -201.5t-29.5 -246.5zM510 1485l246 362h192l248 -362h-115l-229 198l-227 -198h-115z" />
<glyph unicode="&#xd5;" horiz-adv-x="1705" d="M72 696q0 152 56 285t158.5 233.5t248 158t323.5 57.5q162 0 304.5 -45.5t246.5 -135.5t164.5 -228t60.5 -323q0 -152 -58 -285.5t-161.5 -234t-247 -158t-315.5 -57.5q-162 0 -304 43t-247.5 132t-167 227t-61.5 331zM408 678q0 -164 34.5 -276.5t94 -181t137.5 -99.5 t164 -31q92 0 176 39t146.5 119t100 202.5t37.5 290.5q0 133 -32.5 238.5t-91 179.5t-141.5 114t-181 40q-104 0 -187 -50.5t-140.5 -136.5t-87 -201.5t-29.5 -246.5zM479 1526q8 51 25.5 97t47.5 82t72 57.5t97 21.5q45 0 86 -14.5t80 -32.5t74.5 -32.5t68.5 -14.5 q35 0 60.5 18t48.5 76h88q-8 -51 -25.5 -97.5t-47.5 -82t-72 -57t-97 -21.5q-45 0 -86 14t-80 32.5t-74.5 33t-68.5 14.5q-35 0 -60.5 -18.5t-48.5 -75.5h-88z" />
<glyph unicode="&#xd6;" horiz-adv-x="1705" d="M72 696q0 152 56 285t158.5 233.5t248 158t323.5 57.5q162 0 304.5 -45.5t246.5 -135.5t164.5 -228t60.5 -323q0 -152 -58 -285.5t-161.5 -234t-247 -158t-315.5 -57.5q-162 0 -304 43t-247.5 132t-167 227t-61.5 331zM408 678q0 -164 34.5 -276.5t94 -181t137.5 -99.5 t164 -31q92 0 176 39t146.5 119t100 202.5t37.5 290.5q0 133 -32.5 238.5t-91 179.5t-141.5 114t-181 40q-104 0 -187 -50.5t-140.5 -136.5t-87 -201.5t-29.5 -246.5zM504 1636q0 55 39 94t94 39t94 -38.5t39 -94.5q0 -55 -39 -94t-94 -39t-94 39t-39 94zM936 1636 q0 55 39 94t94 39t94 -38.5t39 -94.5q0 -55 -39 -94t-94 -39t-94 39t-39 94z" />
<glyph unicode="&#xd7;" horiz-adv-x="1241" d="M139 168l344 346l-344 346l137 135l345 -344l344 344l137 -135l-346 -346l346 -346l-137 -135l-344 344l-347 -344z" />
<glyph unicode="&#xd8;" horiz-adv-x="1705" d="M72 696q0 152 56 285t158.5 233.5t248 158t323.5 57.5q141 0 264 -33t221 -101l195 207q18 -23 35.5 -40t44.5 -33l-188 -201q96 -92 150 -223.5t54 -307.5q0 -152 -58 -285.5t-161.5 -234t-247 -158t-315.5 -57.5q-141 0 -266 32t-228 99l-192 -205q-18 23 -35.5 40.5 t-44.5 33.5l188 199q-94 88 -148 220t-54 314zM408 678q0 -98 13 -177t38 -143l731 777q-57 86 -143 132t-195 46q-104 0 -187 -50.5t-140.5 -136.5t-87 -201.5t-29.5 -246.5zM510 256q59 -90 144 -128t184 -38q92 0 176 39t146.5 119t100 202.5t37.5 290.5q0 166 -53 291z " />
<glyph unicode="&#xd9;" horiz-adv-x="1593" d="M180 1403q41 -4 84 -7t84 -3t84 3t84 7q-10 -100 -15 -191.5t-8.5 -178.5t-4.5 -173t-1 -174q0 -188 27 -302t79 -176.5t128 -83t176 -20.5q123 0 192.5 61.5t105.5 164t44 234.5t8 276q0 141 -4 281.5t-12 281.5q57 -10 104 -10q27 0 51.5 3t51.5 7q-4 -45 -9.5 -121 t-9.5 -175t-6 -219t-2 -253q0 -356 -153.5 -514t-450.5 -158q-131 0 -244.5 30t-197.5 95.5t-132.5 166.5t-48.5 247q0 82 1 146.5t1 119.5t1 106.5t1 106.5q0 164 -2 267.5t-6 154.5zM530 1778q0 35 24 63.5t73 28.5q23 0 43 -8.5t59 -45t105.5 -114.5t181.5 -217h-113 q-133 80 -207.5 128t-111.5 77.5t-45.5 48t-8.5 39.5z" />
<glyph unicode="&#xda;" horiz-adv-x="1593" d="M180 1403q41 -4 84 -7t84 -3t84 3t84 7q-10 -100 -15 -191.5t-8.5 -178.5t-4.5 -173t-1 -174q0 -188 27 -302t79 -176.5t128 -83t176 -20.5q123 0 192.5 61.5t105.5 164t44 234.5t8 276q0 141 -4 281.5t-12 281.5q57 -10 104 -10q27 0 51.5 3t51.5 7q-4 -45 -9.5 -121 t-9.5 -175t-6 -219t-2 -253q0 -356 -153.5 -514t-450.5 -158q-131 0 -244.5 30t-197.5 95.5t-132.5 166.5t-48.5 247q0 82 1 146.5t1 119.5t1 106.5t1 106.5q0 164 -2 267.5t-6 154.5zM702 1485q115 139 181.5 217t105.5 114.5t59.5 45t43.5 8.5q49 0 72.5 -29t23.5 -63 q0 -20 -8.5 -39t-45 -48.5t-111.5 -77.5t-208 -128h-113z" />
<glyph unicode="&#xdb;" horiz-adv-x="1593" d="M180 1403q41 -4 84 -7t84 -3t84 3t84 7q-10 -100 -15 -191.5t-8.5 -178.5t-4.5 -173t-1 -174q0 -188 27 -302t79 -176.5t128 -83t176 -20.5q123 0 192.5 61.5t105.5 164t44 234.5t8 276q0 141 -4 281.5t-12 281.5q57 -10 104 -10q27 0 51.5 3t51.5 7q-4 -45 -9.5 -121 t-9.5 -175t-6 -219t-2 -253q0 -356 -153.5 -514t-450.5 -158q-131 0 -244.5 30t-197.5 95.5t-132.5 166.5t-48.5 247q0 82 1 146.5t1 119.5t1 106.5t1 106.5q0 164 -2 267.5t-6 154.5zM506 1485l246 362h192l248 -362h-115l-229 198l-227 -198h-115z" />
<glyph unicode="&#xdc;" horiz-adv-x="1593" d="M180 1403q41 -4 84 -7t84 -3t84 3t84 7q-10 -100 -15 -191.5t-8.5 -178.5t-4.5 -173t-1 -174q0 -188 27 -302t79 -176.5t128 -83t176 -20.5q123 0 192.5 61.5t105.5 164t44 234.5t8 276q0 141 -4 281.5t-12 281.5q57 -10 104 -10q27 0 51.5 3t51.5 7q-4 -45 -9.5 -121 t-9.5 -175t-6 -219t-2 -253q0 -356 -153.5 -514t-450.5 -158q-131 0 -244.5 30t-197.5 95.5t-132.5 166.5t-48.5 247q0 82 1 146.5t1 119.5t1 106.5t1 106.5q0 164 -2 267.5t-6 154.5zM500 1636q0 55 39 94t94 39t94 -38.5t39 -94.5q0 -55 -39 -94t-94 -39t-94 39t-39 94z M932 1636q0 55 39 94t94 39t94 -38.5t39 -94.5q0 -55 -39 -94t-94 -39t-94 39t-39 94z" />
<glyph unicode="&#xdd;" horiz-adv-x="1251" d="M47 1403q47 -4 92 -7t92 -3t91.5 3t91.5 7q35 -76 79 -168t87 -180t79.5 -160t59.5 -107h4q41 57 82 133t80 158t75.5 165t71.5 159q23 -4 46.5 -7t47.5 -3q25 0 48.5 3t50.5 7q-35 -57 -87.5 -150.5t-111.5 -202t-119.5 -222t-109.5 -210.5q0 -49 -2 -99t-2 -101 q0 -102 3 -207t17 -221q-43 4 -87 7t-87 3t-87 -3t-87 -7q4 98 14 198.5t10 196.5q0 47 -1 95t-3 95q-35 68 -76.5 148t-84.5 162t-86 162.5t-80 149.5t-66 123t-45 83zM530 1485q115 139 181.5 217t105.5 114.5t59.5 45t43.5 8.5q49 0 72.5 -29t23.5 -63q0 -20 -8.5 -39 t-45 -48.5t-111.5 -77.5t-208 -128h-113z" />
<glyph unicode="&#xde;" d="M147 -10q4 68 7.5 132t5.5 133t3 142.5t1 159.5v279q0 86 -1 159.5t-3 142t-5 133t-8 132.5q35 -4 76 -7t92 -3t92.5 3t75.5 7q-4 -59 -7 -118.5t-3 -119.5h199q86 0 160.5 -22.5t129 -67.5t86 -113.5t31.5 -160.5q0 -104 -36.5 -184t-100 -132.5t-148.5 -79t-182 -26.5 h-143q0 -111 4 -202t10 -187q-35 4 -75.5 7t-92.5 3q-51 0 -92 -3t-76 -7zM467 521.5q0 -17.5 2 -32.5q147 0 217 76t70 223q0 55 -12.5 102.5t-38 82.5t-67.5 55.5t-101 20.5h-68q-2 -47 -2 -100.5v-112.5v-279v-35.5z" />
<glyph unicode="&#xdf;" d="M109 -10q8 174 12 325.5t4 266.5q0 86 -8 219t-8 284q0 113 34.5 199t98 144.5t148.5 88t188 29.5q168 0 252.5 -71.5t84.5 -188.5q0 -59 -24.5 -105t-77.5 -100q-59 -59 -80.5 -95t-21.5 -73q0 -51 27.5 -89t68.5 -72.5t90 -68.5t90 -75t68.5 -94t27.5 -125 q0 -80 -35.5 -156.5t-94 -137t-131 -96.5t-144.5 -36q-68 0 -112 13.5t-77 29.5q47 96 48 189h30q31 -47 76 -81t100 -34q63 0 105.5 35t42.5 92q0 53 -27.5 96t-70.5 80t-91.5 73t-91.5 76.5t-70.5 89t-27.5 111.5q0 31 7 59.5t23.5 61.5t43 71t63.5 85q49 61 84 135 t35 133q0 43 -15.5 78t-41 58.5t-58 35.5t-65.5 12q-98 0 -143.5 -72.5t-45.5 -201.5v-744q0 -29 1 -83t3.5 -118.5t5.5 -132t7 -120.5q-27 4 -68 7t-86 3t-86 -3t-67 -7z" />
<glyph unicode="&#xe0;" horiz-adv-x="1024" d="M49 231q0 68 21.5 116t61.5 84t95.5 59.5t124.5 39.5q86 20 136.5 36t75 31t31.5 32.5t7 46.5q0 74 -52 126t-144 52q-35 0 -72 -9t-71 -25.5t-61.5 -37t-41.5 -41.5h-15l-26 123q84 70 184 107t199 37q82 0 150.5 -18.5t118.5 -58.5t78 -103.5t28 -153.5 q0 -131 -3.5 -243t-3.5 -222q0 -49 7.5 -77t21.5 -42t38 -18t54 -4v-50q-59 -31 -100 -43t-88 -12q-76 0 -123 40t-72 110q-47 -66 -109.5 -108t-156.5 -42q-78 0 -133 23.5t-91 61.5t-52.5 86t-16.5 97zM207 1438q0 35 23.5 63.5t72.5 28.5q23 0 43.5 -8.5t59 -45 t105.5 -114.5t181 -217h-112q-133 80 -208 128t-112 77.5t-45 48t-8 39.5zM336 260q0 -76 31.5 -116t85.5 -40q68 0 109.5 51.5t41.5 151.5q0 88 1 134t1 81q-43 -25 -91 -40t-88 -38.5t-65.5 -64.5t-25.5 -119z" />
<glyph unicode="&#xe1;" horiz-adv-x="1024" d="M49 231q0 68 21.5 116t61.5 84t95.5 59.5t124.5 39.5q86 20 136.5 36t75 31t31.5 32.5t7 46.5q0 74 -52 126t-144 52q-35 0 -72 -9t-71 -25.5t-61.5 -37t-41.5 -41.5h-15l-26 123q84 70 184 107t199 37q82 0 150.5 -18.5t118.5 -58.5t78 -103.5t28 -153.5 q0 -131 -3.5 -243t-3.5 -222q0 -49 7.5 -77t21.5 -42t38 -18t54 -4v-50q-59 -31 -100 -43t-88 -12q-76 0 -123 40t-72 110q-47 -66 -109.5 -108t-156.5 -42q-78 0 -133 23.5t-91 61.5t-52.5 86t-16.5 97zM336 260q0 -76 31.5 -116t85.5 -40q68 0 109.5 51.5t41.5 151.5 q0 88 1 134t1 81q-43 -25 -91 -40t-88 -38.5t-65.5 -64.5t-25.5 -119zM377 1145q115 139 181.5 217t105 114.5t59 45t43.5 8.5q49 0 72.5 -28.5t23.5 -63.5q0 -20 -8 -39t-45 -48.5t-111.5 -77.5t-208.5 -128h-112z" />
<glyph unicode="&#xe2;" horiz-adv-x="1024" d="M49 231q0 68 21.5 116t61.5 84t95.5 59.5t124.5 39.5q86 20 136.5 36t75 31t31.5 32.5t7 46.5q0 74 -52 126t-144 52q-35 0 -72 -9t-71 -25.5t-61.5 -37t-41.5 -41.5h-15l-26 123q84 70 184 107t199 37q82 0 150.5 -18.5t118.5 -58.5t78 -103.5t28 -153.5 q0 -131 -3.5 -243t-3.5 -222q0 -49 7.5 -77t21.5 -42t38 -18t54 -4v-50q-59 -31 -100 -43t-88 -12q-76 0 -123 40t-72 110q-47 -66 -109.5 -108t-156.5 -42q-78 0 -133 23.5t-91 61.5t-52.5 86t-16.5 97zM170 1145l246 362h192l248 -362h-115l-229 198l-227 -198h-115z M336 260q0 -76 31.5 -116t85.5 -40q68 0 109.5 51.5t41.5 151.5q0 88 1 134t1 81q-43 -25 -91 -40t-88 -38.5t-65.5 -64.5t-25.5 -119z" />
<glyph unicode="&#xe3;" horiz-adv-x="1024" d="M49 231q0 68 21.5 116t61.5 84t95.5 59.5t124.5 39.5q86 20 136.5 36t75 31t31.5 32.5t7 46.5q0 74 -52 126t-144 52q-35 0 -72 -9t-71 -25.5t-61.5 -37t-41.5 -41.5h-15l-26 123q84 70 184 107t199 37q82 0 150.5 -18.5t118.5 -58.5t78 -103.5t28 -153.5 q0 -131 -3.5 -243t-3.5 -222q0 -49 7.5 -77t21.5 -42t38 -18t54 -4v-50q-59 -31 -100 -43t-88 -12q-76 0 -123 40t-72 110q-47 -66 -109.5 -108t-156.5 -42q-78 0 -133 23.5t-91 61.5t-52.5 86t-16.5 97zM139 1186q8 51 25.5 97t47.5 82t72 57.5t97 21.5q45 0 86 -14.5 t80 -32.5t74.5 -32.5t68.5 -14.5q35 0 60.5 18t48.5 76h88q-8 -51 -25.5 -97.5t-47.5 -82t-72 -57t-97 -21.5q-45 0 -86 14t-80 32.5t-74.5 33t-68.5 14.5q-35 0 -60.5 -18.5t-48.5 -75.5h-88zM336 260q0 -76 31.5 -116t85.5 -40q68 0 109.5 51.5t41.5 151.5q0 88 1 134 t1 81q-43 -25 -91 -40t-88 -38.5t-65.5 -64.5t-25.5 -119z" />
<glyph unicode="&#xe4;" horiz-adv-x="1024" d="M49 231q0 68 21.5 116t61.5 84t95.5 59.5t124.5 39.5q86 20 136.5 36t75 31t31.5 32.5t7 46.5q0 74 -52 126t-144 52q-35 0 -72 -9t-71 -25.5t-61.5 -37t-41.5 -41.5h-15l-26 123q84 70 184 107t199 37q82 0 150.5 -18.5t118.5 -58.5t78 -103.5t28 -153.5 q0 -131 -3.5 -243t-3.5 -222q0 -49 7.5 -77t21.5 -42t38 -18t54 -4v-50q-59 -31 -100 -43t-88 -12q-76 0 -123 40t-72 110q-47 -66 -109.5 -108t-156.5 -42q-78 0 -133 23.5t-91 61.5t-52.5 86t-16.5 97zM164 1296q0 55 39 94.5t94 39.5t94 -39t39 -95q0 -55 -39 -94 t-94 -39t-94 39t-39 94zM336 260q0 -76 31.5 -116t85.5 -40q68 0 109.5 51.5t41.5 151.5q0 88 1 134t1 81q-43 -25 -91 -40t-88 -38.5t-65.5 -64.5t-25.5 -119zM596 1296q0 55 39 94.5t94 39.5t94 -39t39 -95q0 -55 -39 -94t-94 -39t-94 39t-39 94z" />
<glyph unicode="&#xe5;" horiz-adv-x="1024" d="M49 231q0 68 21.5 116t61.5 84t95.5 59.5t124.5 39.5q86 20 136.5 36t75 31t31.5 32.5t7 46.5q0 74 -52 126t-144 52q-35 0 -72 -9t-71 -25.5t-61.5 -37t-41.5 -41.5h-15l-26 123q84 70 184 107t199 37q82 0 150.5 -18.5t118.5 -58.5t78 -103.5t28 -153.5 q0 -131 -3.5 -243t-3.5 -222q0 -49 7.5 -77t21.5 -42t38 -18t54 -4v-50q-59 -31 -100 -43t-88 -12q-76 0 -123 40t-72 110q-47 -66 -109.5 -108t-156.5 -42q-78 0 -133 23.5t-91 61.5t-52.5 86t-16.5 97zM293 1325q0 45 17.5 86t47 70.5t69.5 47t87 17.5q45 0 85 -17.5 t70.5 -47t48 -70.5t17.5 -86q0 -47 -17.5 -87t-48 -69.5t-70.5 -47t-85 -17.5q-47 0 -87 17.5t-69.5 47t-47 69.5t-17.5 87zM336 260q0 -76 31.5 -116t85.5 -40q68 0 109.5 51.5t41.5 151.5q0 88 1 134t1 81q-43 -25 -91 -40t-88 -38.5t-65.5 -64.5t-25.5 -119zM397 1325 q0 -49 33 -83t84 -34q49 0 83 34t34 83t-34 83t-83 34q-51 0 -84 -34t-33 -83z" />
<glyph unicode="&#xe6;" horiz-adv-x="1593" d="M80 219q0 61 11 110.5t43 87.5t89.5 66.5t147.5 53.5q96 25 151.5 41t84 29.5t36.5 27.5t8 35q0 55 -19.5 94t-51 63.5t-70.5 35.5t-78 11q-74 0 -123 -27.5t-104 -82.5q-4 25 -11.5 49.5t-17.5 50.5q70 66 152 105t180 39q100 0 171 -36t112 -83q51 47 125.5 83 t179.5 36q201 0 309 -120t108 -335v-42t-2 -26h-606q0 -84 15.5 -154.5t51.5 -122.5t91 -82t135 -30q141 0 252 92l25 -18l-45 -115q-51 -39 -123 -65.5t-189 -26.5q-90 0 -158.5 16.5t-118.5 45t-86 70.5t-61 91q-14 -37 -41.5 -76.5t-68.5 -71.5t-95.5 -53.5t-123.5 -21.5 q-76 0 -129.5 21.5t-88 57.5t-51 82t-16.5 95zM367 274q0 -80 33.5 -129t93.5 -49q68 0 112.5 59.5t44.5 145.5v236q-147 -31 -215.5 -87.5t-68.5 -175.5zM905 578h334q0 43 -4 100t-20.5 110.5t-50.5 90t-91 36.5q-84 0 -126 -83.5t-42 -219.5v-34z" />
<glyph unicode="&#xe7;" horiz-adv-x="1024" d="M88 483q0 113 38 209t108.5 166t171 110t223.5 40q115 0 196.5 -27t155.5 -70q-25 -41 -46.5 -100t-31.5 -113h-49q-16 90 -64.5 147.5t-142.5 57.5q-121 0 -183.5 -111.5t-62.5 -310.5q0 -186 78 -285.5t228 -99.5q63 0 122.5 30t88.5 67l24 -21q-14 -29 -24.5 -59.5 t-20.5 -61.5q-45 -35 -113.5 -61.5t-162.5 -26.5h-19.5t-17.5 2l-35 -90q16 6 30.5 8t34.5 2q98 0 141.5 -43t43.5 -106q0 -86 -77 -132t-208 -46q-23 0 -50.5 4t-53 10t-47 12t-29.5 10l33 76q23 -10 52.5 -19t67.5 -9q55 0 87 21.5t32 62.5q0 76 -94 75q-37 0 -57 -8 l-23 17l70 163q-115 18 -194 68.5t-128 121t-70.5 153.5t-21.5 167z" />
<glyph unicode="&#xe8;" horiz-adv-x="1024" d="M68 481q0 133 35.5 231.5t99 164t150.5 98.5t190 33q201 0 309.5 -120t108.5 -335v-42t-3 -26h-587q0 -84 16 -154.5t50 -122.5t85 -82t123 -30q141 0 252 92l25 -18l-45 -115q-51 -39 -123 -65.5t-189 -26.5q-100 0 -190 31t-159 94.5t-108.5 160.5t-39.5 232zM207 1438 q0 35 23.5 63.5t72.5 28.5q23 0 43.5 -8.5t59 -45t105.5 -114.5t181 -217h-112q-133 80 -208 128t-112 77.5t-45 48t-8 39.5zM371 578h315q-4 154 -38 245.5t-113 91.5q-45 0 -76 -30.5t-50.5 -78.5t-27.5 -108.5t-10 -119.5z" />
<glyph unicode="&#xe9;" horiz-adv-x="1024" d="M68 481q0 133 35.5 231.5t99 164t150.5 98.5t190 33q201 0 309.5 -120t108.5 -335v-42t-3 -26h-587q0 -84 16 -154.5t50 -122.5t85 -82t123 -30q141 0 252 92l25 -18l-45 -115q-51 -39 -123 -65.5t-189 -26.5q-100 0 -190 31t-159 94.5t-108.5 160.5t-39.5 232zM371 578 h315q-4 154 -38 245.5t-113 91.5q-45 0 -76 -30.5t-50.5 -78.5t-27.5 -108.5t-10 -119.5zM377 1145q115 139 181.5 217t105 114.5t59 45t43.5 8.5q49 0 72.5 -28.5t23.5 -63.5q0 -20 -8 -39t-45 -48.5t-111.5 -77.5t-208.5 -128h-112z" />
<glyph unicode="&#xea;" horiz-adv-x="1024" d="M68 481q0 133 35.5 231.5t99 164t150.5 98.5t190 33q201 0 309.5 -120t108.5 -335v-42t-3 -26h-587q0 -84 16 -154.5t50 -122.5t85 -82t123 -30q141 0 252 92l25 -18l-45 -115q-51 -39 -123 -65.5t-189 -26.5q-100 0 -190 31t-159 94.5t-108.5 160.5t-39.5 232zM170 1145 l246 362h192l248 -362h-115l-229 198l-227 -198h-115zM371 578h315q-4 154 -38 245.5t-113 91.5q-45 0 -76 -30.5t-50.5 -78.5t-27.5 -108.5t-10 -119.5z" />
<glyph unicode="&#xeb;" horiz-adv-x="1024" d="M68 481q0 133 35.5 231.5t99 164t150.5 98.5t190 33q201 0 309.5 -120t108.5 -335v-42t-3 -26h-587q0 -84 16 -154.5t50 -122.5t85 -82t123 -30q141 0 252 92l25 -18l-45 -115q-51 -39 -123 -65.5t-189 -26.5q-100 0 -190 31t-159 94.5t-108.5 160.5t-39.5 232zM164 1296 q0 55 39 94.5t94 39.5t94 -39t39 -95q0 -55 -39 -94t-94 -39t-94 39t-39 94zM371 578h315q-4 154 -38 245.5t-113 91.5q-45 0 -76 -30.5t-50.5 -78.5t-27.5 -108.5t-10 -119.5zM596 1296q0 55 39 94.5t94 39.5t94 -39t39 -95q0 -55 -39 -94t-94 -39t-94 39t-39 94z" />
<glyph unicode="&#xec;" horiz-adv-x="569" d="M-33 1438q0 35 23.5 63.5t72.5 28.5q23 0 43.5 -8.5t59.5 -45t105.5 -114.5t181.5 -217h-113q-133 80 -208 128t-111.5 77.5t-45 48t-8.5 39.5zM131 -10q10 109 13 219t3 235v82q0 125 -3 235.5t-13 219.5q29 -4 68 -7t86 -3t87 3t66 7q-10 -109 -13 -219.5t-3 -235.5 v-82q0 -125 3 -235.5t13 -218.5q-27 4 -66.5 7t-86.5 3t-86 -3t-68 -7z" />
<glyph unicode="&#xed;" horiz-adv-x="569" d="M119 1145q115 139 181.5 217t105 114.5t59 45t43.5 8.5q49 0 72.5 -28.5t23.5 -63.5q0 -20 -8 -39t-45 -48.5t-111.5 -77.5t-208.5 -128h-112zM131 -10q10 109 13 219t3 235v82q0 125 -3 235.5t-13 219.5q29 -4 68 -7t86 -3t87 3t66 7q-10 -109 -13 -219.5t-3 -235.5v-82 q0 -125 3 -235.5t13 -218.5q-27 4 -66.5 7t-86.5 3t-86 -3t-68 -7z" />
<glyph unicode="&#xee;" horiz-adv-x="569" d="M-57 1145l245 362h193l248 -362h-115l-229 198l-228 -198h-114zM131 -10q10 109 13 219t3 235v82q0 125 -3 235.5t-13 219.5q29 -4 68 -7t86 -3t87 3t66 7q-10 -109 -13 -219.5t-3 -235.5v-82q0 -125 3 -235.5t13 -218.5q-27 4 -66.5 7t-86.5 3t-86 -3t-68 -7z" />
<glyph unicode="&#xef;" horiz-adv-x="569" d="M-63 1296q0 55 38.5 94.5t94.5 39.5q55 0 94 -39t39 -95q0 -55 -39 -94t-94 -39t-94 39t-39 94zM131 -10q10 109 13 219t3 235v82q0 125 -3 235.5t-13 219.5q29 -4 68 -7t86 -3t87 3t66 7q-10 -109 -13 -219.5t-3 -235.5v-82q0 -125 3 -235.5t13 -218.5q-27 4 -66.5 7 t-86.5 3t-86 -3t-68 -7zM369 1296q0 55 38.5 94.5t94.5 39.5q55 0 94 -39t39 -95q0 -55 -39 -94t-94 -39t-94 39t-39 94z" />
<glyph unicode="&#xf0;" d="M25 1194q78 16 152.5 38.5t152.5 47.5q-61 53 -131 106.5t-152 100.5q49 12 99.5 26.5t99.5 32.5q152 -96 293 -203q82 25 149.5 46.5t124.5 40.5q18 -43 49 -87q-76 -18 -138 -33.5t-116 -29.5q102 -86 189.5 -172t151 -178t99 -196.5t35.5 -227.5q0 -125 -36.5 -225.5 t-103 -171t-159 -108.5t-202.5 -38q-92 0 -181.5 26.5t-161 86t-115.5 155t-44 230.5q0 137 42 235.5t108.5 162t146.5 94t158 30.5q14 0 26 -1t27 -3q-12 27 -36 61.5t-51.5 67.5t-55 62.5t-52.5 48.5q-72 -23 -145.5 -50.5t-165.5 -64.5q-10 23 -25.5 45t-31.5 45z M383 459q0 -86 10 -160t34 -128t61.5 -85t95.5 -31q96 0 146 121t50 361q0 172 -46 267t-148 95q-94 0 -148.5 -106.5t-54.5 -333.5z" />
<glyph unicode="&#xf1;" d="M109 -10q10 109 13 219t3 235v82q0 125 -3 235.5t-13 219.5q37 -4 72.5 -7t72.5 -3t72.5 3t76.5 7l-8 -154h4q57 84 134 132.5t176 48.5q154 0 236.5 -89.5t82.5 -287.5q0 -104 -4 -184t-4 -160q0 -66 3 -142.5t7 -154.5q-27 4 -67.5 7t-85.5 3t-86 -3t-68 -7 q14 111 18 257t4 331q0 129 -44 189t-123 60q-92 0 -135.5 -79.5t-43.5 -221.5v-82q0 -125 3.5 -235.5t13.5 -218.5q-27 4 -67 7t-87 3t-86 -3t-67 -7zM197 1186q8 51 25.5 97t47 82t71.5 57.5t97 21.5q45 0 86 -14.5t80 -32.5t75 -32.5t69 -14.5q35 0 60.5 18t47.5 76h88 q-8 -51 -25.5 -97.5t-47 -82t-71.5 -57t-98 -21.5q-45 0 -86 14t-79.5 32.5t-74.5 33t-69 14.5q-35 0 -60.5 -18.5t-47.5 -75.5h-88z" />
<glyph unicode="&#xf2;" d="M68 461q0 137 42 239.5t111.5 171t160.5 102.5t187 34q119 0 212 -35t158 -100.5t98.5 -158.5t33.5 -208q0 -125 -37 -225.5t-103.5 -171t-158.5 -108.5t-203 -38q-92 0 -181 26.5t-160.5 86t-115.5 155t-44 230.5zM252 1438q0 35 23.5 63.5t72.5 28.5q23 0 43.5 -8.5 t59 -45t105.5 -114.5t181 -217h-112q-133 80 -208 128t-112 77.5t-45 48t-8 39.5zM371 459q0 -86 10 -160t33.5 -128t61.5 -85t95 -31q96 0 146.5 121t50.5 361q0 178 -46 278t-149 100q-94 0 -148 -111.5t-54 -344.5z" />
<glyph unicode="&#xf3;" d="M68 461q0 137 42 239.5t111.5 171t160.5 102.5t187 34q119 0 212 -35t158 -100.5t98.5 -158.5t33.5 -208q0 -125 -37 -225.5t-103.5 -171t-158.5 -108.5t-203 -38q-92 0 -181 26.5t-160.5 86t-115.5 155t-44 230.5zM371 459q0 -86 10 -160t33.5 -128t61.5 -85t95 -31 q96 0 146.5 121t50.5 361q0 178 -46 278t-149 100q-94 0 -148 -111.5t-54 -344.5zM403 1145q115 139 181.5 217t105.5 114.5t59.5 45t43.5 8.5q49 0 72.5 -28.5t23.5 -63.5q0 -20 -8.5 -39t-45 -48.5t-111.5 -77.5t-208 -128h-113z" />
<glyph unicode="&#xf4;" d="M68 461q0 137 42 239.5t111.5 171t160.5 102.5t187 34q119 0 212 -35t158 -100.5t98.5 -158.5t33.5 -208q0 -125 -37 -225.5t-103.5 -171t-158.5 -108.5t-203 -38q-92 0 -181 26.5t-160.5 86t-115.5 155t-44 230.5zM227 1145l246 362h193l247 -362h-114l-230 198 l-227 -198h-115zM371 459q0 -86 10 -160t33.5 -128t61.5 -85t95 -31q96 0 146.5 121t50.5 361q0 178 -46 278t-149 100q-94 0 -148 -111.5t-54 -344.5z" />
<glyph unicode="&#xf5;" d="M68 461q0 137 42 239.5t111.5 171t160.5 102.5t187 34q119 0 212 -35t158 -100.5t98.5 -158.5t33.5 -208q0 -125 -37 -225.5t-103.5 -171t-158.5 -108.5t-203 -38q-92 0 -181 26.5t-160.5 86t-115.5 155t-44 230.5zM197 1186q8 51 25.5 97t47 82t71.5 57.5t97 21.5 q45 0 86 -14.5t80 -32.5t75 -32.5t69 -14.5q35 0 60.5 18t47.5 76h88q-8 -51 -25.5 -97.5t-47 -82t-71.5 -57t-98 -21.5q-45 0 -86 14t-79.5 32.5t-74.5 33t-69 14.5q-35 0 -60.5 -18.5t-47.5 -75.5h-88zM371 459q0 -86 10 -160t33.5 -128t61.5 -85t95 -31q96 0 146.5 121 t50.5 361q0 178 -46 278t-149 100q-94 0 -148 -111.5t-54 -344.5z" />
<glyph unicode="&#xf6;" d="M68 461q0 137 42 239.5t111.5 171t160.5 102.5t187 34q119 0 212 -35t158 -100.5t98.5 -158.5t33.5 -208q0 -125 -37 -225.5t-103.5 -171t-158.5 -108.5t-203 -38q-92 0 -181 26.5t-160.5 86t-115.5 155t-44 230.5zM221 1296q0 55 39 94.5t94 39.5t94 -39t39 -95 q0 -55 -38.5 -94t-94.5 -39q-55 0 -94 39t-39 94zM371 459q0 -86 10 -160t33.5 -128t61.5 -85t95 -31q96 0 146.5 121t50.5 361q0 178 -46 278t-149 100q-94 0 -148 -111.5t-54 -344.5zM653 1296q0 55 39 94.5t94 39.5t94.5 -39t39.5 -95q0 -55 -39 -94t-95 -39 q-55 0 -94 39t-39 94z" />
<glyph unicode="&#xf7;" horiz-adv-x="1241" d="M102 422v192h1037v-192h-1037zM453 92q0 70 49 119t119 49t118.5 -49t48.5 -119t-49 -119t-118 -49q-70 0 -119 49t-49 119zM453 944q0 70 49 119t119 49t118.5 -49t48.5 -119t-49 -119t-118 -49q-70 0 -119 49t-49 119z" />
<glyph unicode="&#xf8;" d="M27 -53l155 174q-53 59 -83.5 143t-30.5 197q0 137 42 239.5t111.5 171t160.5 102.5t187 34q193 0 322 -95l151 170q16 -23 33 -36t37 -25l-154 -172q113 -129 113 -344q0 -125 -37 -225.5t-103.5 -171t-158.5 -108.5t-203 -38q-86 0 -168 22.5t-149 73.5l-156 -174 q-16 23 -32.5 36t-36.5 26zM371 459q0 -63 6 -121l368 412q-23 80 -64.5 122.5t-107.5 42.5q-94 0 -148 -111.5t-54 -344.5zM397 221q20 -78 62.5 -122t111.5 -44q96 0 146.5 121t50.5 361q0 27 -1 50t-3 46z" />
<glyph unicode="&#xf9;" d="M109 981q27 -4 67.5 -7t85.5 -3t86 3t68 7q-14 -111 -18.5 -257t-4.5 -331q0 -129 44 -189.5t124 -60.5q92 0 135 80t43 221v82q0 125 -3 235.5t-13 219.5q27 -4 66.5 -7t87.5 -3q47 0 85.5 3t67.5 7q-10 -109 -13 -219.5t-3 -235.5v-82q0 -125 3 -235.5t13 -218.5 q-37 4 -72.5 7t-72.5 3t-73 -3t-77 -7l8 153h-4q-57 -84 -134 -132t-175 -48q-154 0 -236.5 89t-82.5 288q0 104 4 184t4 160q0 66 -3 142.5t-7 154.5zM252 1438q0 35 23.5 63.5t72.5 28.5q23 0 43.5 -8.5t59 -45t105.5 -114.5t181 -217h-112q-133 80 -208 128t-112 77.5 t-45 48t-8 39.5z" />
<glyph unicode="&#xfa;" d="M109 981q27 -4 67.5 -7t85.5 -3t86 3t68 7q-14 -111 -18.5 -257t-4.5 -331q0 -129 44 -189.5t124 -60.5q92 0 135 80t43 221v82q0 125 -3 235.5t-13 219.5q27 -4 66.5 -7t87.5 -3q47 0 85.5 3t67.5 7q-10 -109 -13 -219.5t-3 -235.5v-82q0 -125 3 -235.5t13 -218.5 q-37 4 -72.5 7t-72.5 3t-73 -3t-77 -7l8 153h-4q-57 -84 -134 -132t-175 -48q-154 0 -236.5 89t-82.5 288q0 104 4 184t4 160q0 66 -3 142.5t-7 154.5zM403 1145q115 139 181.5 217t105.5 114.5t59.5 45t43.5 8.5q49 0 72.5 -28.5t23.5 -63.5q0 -20 -8.5 -39t-45 -48.5 t-111.5 -77.5t-208 -128h-113z" />
<glyph unicode="&#xfb;" d="M109 981q27 -4 67.5 -7t85.5 -3t86 3t68 7q-14 -111 -18.5 -257t-4.5 -331q0 -129 44 -189.5t124 -60.5q92 0 135 80t43 221v82q0 125 -3 235.5t-13 219.5q27 -4 66.5 -7t87.5 -3q47 0 85.5 3t67.5 7q-10 -109 -13 -219.5t-3 -235.5v-82q0 -125 3 -235.5t13 -218.5 q-37 4 -72.5 7t-72.5 3t-73 -3t-77 -7l8 153h-4q-57 -84 -134 -132t-175 -48q-154 0 -236.5 89t-82.5 288q0 104 4 184t4 160q0 66 -3 142.5t-7 154.5zM227 1145l246 362h193l247 -362h-114l-230 198l-227 -198h-115z" />
<glyph unicode="&#xfc;" d="M109 981q27 -4 67.5 -7t85.5 -3t86 3t68 7q-14 -111 -18.5 -257t-4.5 -331q0 -129 44 -189.5t124 -60.5q92 0 135 80t43 221v82q0 125 -3 235.5t-13 219.5q27 -4 66.5 -7t87.5 -3q47 0 85.5 3t67.5 7q-10 -109 -13 -219.5t-3 -235.5v-82q0 -125 3 -235.5t13 -218.5 q-37 4 -72.5 7t-72.5 3t-73 -3t-77 -7l8 153h-4q-57 -84 -134 -132t-175 -48q-154 0 -236.5 89t-82.5 288q0 104 4 184t4 160q0 66 -3 142.5t-7 154.5zM221 1296q0 55 39 94.5t94 39.5t94 -39t39 -95q0 -55 -38.5 -94t-94.5 -39q-55 0 -94 39t-39 94zM653 1296q0 55 39 94.5 t94 39.5t94.5 -39t39.5 -95q0 -55 -39 -94t-95 -39q-55 0 -94 39t-39 94z" />
<glyph unicode="&#xfd;" horiz-adv-x="1024" d="M37 981q39 -4 77 -7t76 -3q39 0 76 3t76 7q59 -162 119.5 -321.5t126.5 -321.5q37 94 67.5 175t58 156.5t53.5 151.5t52 160q23 -4 42.5 -7t39.5 -3t41 3t45 7q-10 -25 -48 -113t-92 -216t-119.5 -283.5t-132.5 -317.5t-129.5 -317.5t-109.5 -282.5q-23 4 -43 7t-43 3 t-43 -3t-43 -7q68 135 133.5 268.5t126.5 266.5q-49 123 -110.5 270t-118.5 288.5t-105.5 258.5t-72.5 178zM346 1145q115 139 181.5 217t105.5 114.5t59.5 45t42.5 8.5q49 0 72.5 -28.5t23.5 -63.5q0 -20 -8 -39t-45 -48.5t-111.5 -77.5t-207.5 -128h-113z" />
<glyph unicode="&#xfe;" d="M109 -549q4 86 7 170t5 170t3 177t1 192v112v559q0 100 -1 191.5t-3 177.5t-5 170t-7 170q27 -4 67.5 -7t85.5 -3t86 3t68 7q-4 -86 -7 -170t-5.5 -170t-3.5 -177t-1 -192h4q35 84 109 130.5t162 46.5q78 0 149.5 -29t127 -90.5t88 -157.5t32.5 -229q0 -145 -35 -247.5 t-92 -167t-129 -94.5t-147 -30q-92 0 -160 38t-105 112h-4v-172.5t2 -195.5t5.5 -177t9.5 -117q-27 4 -68 7t-86 3t-86 -3t-67 -7zM389 463q0 -186 49 -275.5t140 -89.5q88 0 139 97.5t51 300.5t-50 294t-132 91q-39 0 -74 -22.5t-62.5 -72t-44 -129t-16.5 -194.5z" />
<glyph unicode="&#xff;" horiz-adv-x="1024" d="M37 981q39 -4 77 -7t76 -3q39 0 76 3t76 7q59 -162 119.5 -321.5t126.5 -321.5q37 94 67.5 175t58 156.5t53.5 151.5t52 160q23 -4 42.5 -7t39.5 -3t41 3t45 7q-10 -25 -48 -113t-92 -216t-119.5 -283.5t-132.5 -317.5t-129.5 -317.5t-109.5 -282.5q-23 4 -43 7t-43 3 t-43 -3t-43 -7q68 135 133.5 268.5t126.5 266.5q-49 123 -110.5 270t-118.5 288.5t-105.5 258.5t-72.5 178zM184 1296q0 55 39 94.5t94 39.5t94.5 -39t39.5 -95q0 -55 -39 -94t-95 -39q-55 0 -94 39t-39 94zM616 1296q0 55 39 94.5t95 39.5q55 0 94 -39t39 -95 q0 -55 -39 -94t-94 -39t-94.5 39t-39.5 94z" />
<glyph unicode="&#x152;" horiz-adv-x="2048" d="M57 686q0 176 58.5 314.5t158 233.5t230.5 145.5t276 50.5q86 0 157 -18.5t128 -49.5t99 -71t71 -81l4 4q-4 47 -5 93.5t-3 95.5q84 -2 166 -6t166 -4q76 0 144.5 1t124.5 2t97 3t62 4q-4 -18 -6.5 -37.5t-2.5 -48.5q0 -33 2.5 -51.5t6.5 -40.5q-59 4 -130 8t-137.5 8 t-120 6t-75.5 2q-8 -113 -9 -223.5t-1 -222.5q133 2 240.5 6t223.5 10q-6 -35 -8 -53t-2 -39q0 -16 3 -33.5t7 -50.5q-233 18 -464 19q0 -66 -1 -131.5t-1 -131.5q0 -133 6 -256q117 0 233.5 6.5t235.5 20.5q-4 -23 -6.5 -41t-2.5 -51t2.5 -51.5t6.5 -36.5q-55 2 -136 6 t-223 4q-180 0 -278.5 -3t-139.5 -7q2 49 6.5 96t8.5 100l-4 4q-49 -66 -108.5 -109.5t-121 -69t-125 -37t-120.5 -11.5q-139 0 -265.5 50t-221.5 143.5t-150.5 227.5t-55.5 302zM393 666q0 -141 33 -251t89 -184.5t130 -112.5t156 -38q84 0 161.5 42t138 125t96.5 204.5 t36 281.5q0 143 -38 253t-97.5 181.5t-134 108.5t-150.5 37q-90 0 -167 -42t-133 -124t-88 -203t-32 -278z" />
<glyph unicode="&#x153;" horiz-adv-x="1820" d="M68 461q0 137 42 239.5t111.5 171t160.5 102.5t187 34q117 0 217.5 -38t182.5 -130q72 92 162 130t192 38q201 0 309.5 -120t108.5 -335v-42t-2 -26h-641q0 -84 20.5 -154.5t61.5 -122.5t102 -82t143 -30q141 0 252 92l25 -18l-45 -115q-51 -39 -123 -65.5t-188 -26.5 q-121 0 -223.5 42t-172.5 128q-66 -82 -163 -126t-218 -44q-92 0 -181 26.5t-160.5 86t-115.5 155t-44 230.5zM371 459q0 -195 56 -303.5t175 -108.5q104 0 162.5 110t58.5 339q0 113 -17.5 191.5t-46 129.5t-69.5 74.5t-86 23.5q-98 0 -165.5 -111.5t-67.5 -344.5z M1098 578h368v92q0 109 -46 177t-120 68q-102 0 -152 -89t-50 -248z" />
<glyph unicode="&#x178;" horiz-adv-x="1251" d="M47 1403q47 -4 92 -7t92 -3t91.5 3t91.5 7q35 -76 79 -168t87 -180t79.5 -160t59.5 -107h4q41 57 82 133t80 158t75.5 165t71.5 159q23 -4 46.5 -7t47.5 -3q25 0 48.5 3t50.5 7q-35 -57 -87.5 -150.5t-111.5 -202t-119.5 -222t-109.5 -210.5q0 -49 -2 -99t-2 -101 q0 -102 3 -207t17 -221q-43 4 -87 7t-87 3t-87 -3t-87 -7q4 98 14 198.5t10 196.5q0 47 -1 95t-3 95q-35 68 -76.5 148t-84.5 162t-86 162.5t-80 149.5t-66 123t-45 83zM328 1636q0 55 39 94t94 39t94 -38.5t39 -94.5q0 -55 -39 -94t-94 -39t-94 39t-39 94zM760 1636 q0 55 39 94t94 39t94 -38.5t39 -94.5q0 -55 -39 -94t-94 -39t-94 39t-39 94z" />
<glyph unicode="&#x2c6;" horiz-adv-x="681" d="M-2 1145l246 362h192l248 -362h-115l-229 198l-227 -198h-115z" />
<glyph unicode="&#x2dc;" horiz-adv-x="681" d="M-33 1186q8 51 25.5 97t47.5 82t72 57.5t97 21.5q45 0 86 -14.5t80 -32.5t74.5 -32.5t68.5 -14.5q35 0 60.5 18t48.5 76h88q-8 -51 -25.5 -97.5t-47.5 -82t-72 -57t-97 -21.5q-45 0 -86 14t-80 32.5t-74.5 33t-68.5 14.5q-35 0 -60.5 -18.5t-48.5 -75.5h-88z" />
<glyph unicode="&#x2000;" horiz-adv-x="943" />
<glyph unicode="&#x2001;" horiz-adv-x="1886" />
<glyph unicode="&#x2002;" horiz-adv-x="943" />
<glyph unicode="&#x2003;" horiz-adv-x="1886" />
<glyph unicode="&#x2004;" horiz-adv-x="628" />
<glyph unicode="&#x2005;" horiz-adv-x="471" />
<glyph unicode="&#x2006;" horiz-adv-x="314" />
<glyph unicode="&#x2007;" horiz-adv-x="314" />
<glyph unicode="&#x2008;" horiz-adv-x="235" />
<glyph unicode="&#x2009;" horiz-adv-x="377" />
<glyph unicode="&#x200a;" horiz-adv-x="104" />
<glyph unicode="&#x2010;" horiz-adv-x="681" d="M86 336v225h510v-225h-510z" />
<glyph unicode="&#x2011;" horiz-adv-x="681" d="M86 336v225h510v-225h-510z" />
<glyph unicode="&#x2012;" horiz-adv-x="681" d="M86 336v225h510v-225h-510z" />
<glyph unicode="&#x2013;" horiz-adv-x="1024" d="M0 365v167h1024v-167h-1024z" />
<glyph unicode="&#x2014;" horiz-adv-x="2048" d="M0 365v167h2048v-167h-2048z" />
<glyph unicode="&#x2018;" horiz-adv-x="569" d="M74 877q0 12 3 26.5t16 38t37 62t66 98l102 144.5t146 204l52 -20q-51 -231 -85 -365.5t-64 -205.5t-58.5 -90t-69.5 -19q-25 0 -50.5 8t-47 23.5t-34.5 40t-13 55.5z" />
<glyph unicode="&#x2019;" horiz-adv-x="569" d="M74 770q51 229 85 364.5t63.5 206t58 90t69.5 19.5q25 0 50.5 -8t47 -23.5t35 -40t13.5 -55.5q0 -12 -3.5 -26.5t-16.5 -38t-36.5 -62.5t-65.5 -98.5t-102.5 -144.5t-146.5 -203z" />
<glyph unicode="&#x201a;" horiz-adv-x="569" d="M43 -379q51 229 85 364.5t63.5 206t58.5 90t69 19.5q25 0 50.5 -8t47 -23.5t35 -40t13.5 -55.5q0 -12 -3 -26.5t-16.5 -38t-37 -62.5t-65.5 -98.5t-102.5 -144.5t-146.5 -203z" />
<glyph unicode="&#x201c;" horiz-adv-x="1024" d="M66 877q0 12 3 26.5t16 38t36.5 62t65.5 98t102.5 144.5t146.5 204l51 -20q-51 -231 -84.5 -365.5t-63.5 -205.5t-58.5 -90t-69.5 -19q-25 0 -50.5 8t-47 23.5t-34.5 40t-13 55.5zM489 877q0 12 3.5 26.5t16.5 38t36.5 62t65.5 98t102.5 144.5t146.5 204l51 -20 q-51 -231 -84.5 -365.5t-63.5 -205.5t-58.5 -90t-69.5 -19q-25 0 -50.5 8t-47 23.5t-35 40t-13.5 55.5z" />
<glyph unicode="&#x201d;" horiz-adv-x="1024" d="M133 770q51 229 85 364.5t63.5 206t58.5 90t70 19.5q25 0 50 -8t46.5 -23.5t35 -40t13.5 -55.5q0 -12 -3 -26.5t-16.5 -38t-37 -62.5t-65.5 -98.5t-102.5 -144.5t-146.5 -203zM557 770q51 229 85 364.5t63.5 206t58.5 90t70 19.5q25 0 50 -8t46.5 -23.5t35 -40 t13.5 -55.5q0 -12 -3 -26.5t-16.5 -38t-37 -62.5t-65.5 -98.5t-102.5 -144.5t-146.5 -203z" />
<glyph unicode="&#x201e;" horiz-adv-x="1024" d="M43 -379q51 229 85 364.5t63.5 206t58.5 90t69 19.5q25 0 50.5 -8t47 -23.5t35 -40t13.5 -55.5q0 -12 -3 -26.5t-16.5 -38t-37 -62.5t-65.5 -98.5t-102.5 -144.5t-146.5 -203zM467 -379q51 229 85 364.5t63.5 206t58 90t69.5 19.5q25 0 50.5 -8t47 -23.5t35 -40 t13.5 -55.5q0 -12 -3 -26.5t-16.5 -38t-37 -62.5t-65.5 -98.5t-102.5 -144.5t-146.5 -203z" />
<glyph unicode="&#x2022;" horiz-adv-x="1241" d="M272 696q0 72 28 135.5t75 110.5t110.5 74.5t135.5 27.5t135 -27.5t110 -74.5t75 -110.5t28 -135.5t-28 -135t-75 -110.5t-110.5 -75t-134.5 -27.5q-72 0 -135.5 27.5t-110.5 75t-75 110.5t-28 135z" />
<glyph unicode="&#x2026;" horiz-adv-x="2048" d="M174 131q0 70 49 119t119 49t119 -49t49 -119t-49 -119t-119 -49t-119 49t-49 119zM856 131q0 70 49 119t119 49t119 -49t49 -119t-49 -119t-119 -49t-119 49t-49 119zM1538 131q0 70 49 119t119 49t119 -49t49 -119t-49 -119t-119 -49t-119 49t-49 119z" />
<glyph unicode="&#x202f;" horiz-adv-x="377" />
<glyph unicode="&#x2039;" horiz-adv-x="681" d="M129 551q66 100 132.5 199.5t127.5 201.5q35 -29 66.5 -50t66.5 -40q-59 -78 -117.5 -155.5t-111.5 -155.5q53 -78 111.5 -158t119.5 -157q-68 -37 -135 -93q-61 102 -126.5 202.5t-133.5 205.5z" />
<glyph unicode="&#x203a;" horiz-adv-x="681" d="M158 236q61 78 119.5 157.5t111.5 157.5q-53 78 -111.5 155.5t-117.5 155.5q35 18 66.5 40t66.5 50q61 -102 127.5 -201.5t132.5 -199.5q-68 -104 -133.5 -204.5t-126.5 -203.5q-68 55 -135 93z" />
<glyph unicode="&#x205f;" horiz-adv-x="471" />
<glyph unicode="&#x20ac;" d="M25 489q29 63 34 152q25 -4 50.5 -6t56.5 -4v82v22.5t2 24.5q-35 0 -72 -1t-65 -5q14 31 24.5 65.5t10.5 81.5q25 -4 53 -5t67 -1h2q27 131 84.5 223t138.5 149.5t181 84t215 26.5q96 0 170 -21.5t156 -62.5q-23 -59 -40.5 -112.5t-25.5 -96.5h-18q-10 25 -29 54.5 t-46.5 54.5t-66.5 42t-88 17q-152 0 -228.5 -90t-103.5 -270h306q70 0 124 2t113 6q-14 -33 -25.5 -73t-15.5 -80q-33 4 -76 6t-84 4q-47 2 -98 2h-254q-2 -20 -2 -41v-41v-47h236q59 0 122.5 3t118.5 7q-14 -35 -25.5 -74t-13.5 -82q-33 4 -72.5 6.5t-76.5 4.5q-43 2 -86 2 h-193q10 -86 34 -159t64 -127t97 -84t135 -30q47 0 84 13.5t65.5 35t49 48t35.5 53.5l28 -4q-12 -59 -19 -108.5t-9 -88.5q-61 -41 -134 -57.5t-116 -16.5q-117 0 -220.5 29t-185.5 92.5t-138 161.5t-77 240q-39 0 -77 -1t-76 -6z" />
<glyph unicode="&#x2122;" horiz-adv-x="1996" d="M115 1296q2 12 4 25.5t2 28.5q0 12 -2 25.5t-4 25.5q20 -2 57 -3t82 -2t92 -2t88 -1q39 0 87 1t93 2t82 2t58 3q-2 -12 -4 -25.5t-2 -25.5q0 -14 2 -27.5t4 -26.5q-43 4 -72 7.5t-53.5 4.5t-47 1h-51.5q0 -18 -1 -49t-2 -83.5t-2 -131t-1 -189.5q0 -86 1 -165t5 -126 q-23 2 -47 3t-49 1t-49.5 -1t-46.5 -3q4 47 5 126t1 165q0 111 -1 189.5t-2 131t-2 83t-1 49.5h-51.5t-47 -1t-53 -4.5t-71.5 -7.5zM817 565q39 209 67.5 417t57.5 419q12 -4 23.5 -6t21.5 -2q14 0 27.5 2t25.5 6q33 -72 74 -156t82 -165t76 -150.5t53 -112.5 q80 147 148.5 291.5t138.5 292.5q14 -4 26.5 -6t26.5 -2q12 0 25.5 2t25.5 6q25 -213 49.5 -421t57.5 -415q-29 2 -55.5 3t-55.5 1q-23 0 -46.5 -1t-47.5 -3q-6 139 -18.5 279.5t-26.5 281.5h-4q-35 -72 -77 -156.5t-82 -164.5t-69.5 -145.5t-40.5 -94.5h-53 q-25 57 -61.5 133t-74.5 154t-71.5 147.5t-52.5 114.5h-4q-8 -61 -17.5 -138t-17.5 -154t-13 -144.5t-5 -112.5q-16 2 -31.5 3t-32.5 1q-12 0 -24.5 -1t-24.5 -3z" />
<glyph unicode="&#xe000;" horiz-adv-x="983" d="M0 0v983h983v-983h-983z" />
</font>
</defs>
</svg>
