<?xml version="1.0" standalone="no"?>
<!DOCTYPE svg PUBLIC "-//W3C//DTD SVG 1.1//EN" "http://www.w3.org/Graphics/SVG/1.1/DTD/svg11.dtd" >
<svg xmlns="http://www.w3.org/2000/svg">
<metadata></metadata>
<defs>
<font id="univers_45_lightregular" horiz-adv-x="1139" >
<font-face units-per-em="2048" ascent="1638" descent="-410" />
<missing-glyph horiz-adv-x="569" />
<glyph horiz-adv-x="2048" />
<glyph horiz-adv-x="2048" />
<glyph unicode="&#xd;" horiz-adv-x="569" />
<glyph unicode=" "  horiz-adv-x="569" />
<glyph unicode="&#x09;" horiz-adv-x="569" />
<glyph unicode="&#xa0;" horiz-adv-x="569" />
<glyph unicode="!" horiz-adv-x="797" d="M317 0v177h164v-177h-164zM317 1472h164l-26 -1124h-112z" />
<glyph unicode="&#x22;" horiz-adv-x="569" d="M111 1008v464h107v-464h-107zM337 1008v464h107v-464h-107z" />
<glyph unicode="#" d="M59 463v123h244l43 288h-231v123h250l65 427h119l-65 -427h281l65 427h119l-65 -427h204v-123h-223l-43 -288h210v-123h-228l-72 -463h-119l72 463h-281l-72 -463h-119l72 463h-226zM422 586h281l43 288h-281z" />
<glyph unicode="$" d="M85 354h143q0 -118 67 -184q68 -65 218 -77v567q-248 79 -325 174q-76 95 -76 223q0 165 124 278q125 114 277 119v96h103v-96q182 0 298 -107t116 -245h-141q0 91 -69 157q-69 67 -204 76v-565q241 -71 340 -161t99 -248q0 -178 -124 -285q-123 -106 -315 -106v-112 h-103v112q-193 4 -311 104q-117 101 -117 280zM255 1063q0 -87 62 -155t196 -109v532q-113 0 -186 -81q-72 -81 -72 -187zM616 93q134 12 215 86t81 184q0 100 -72 162q-71 62 -224 112v-544z" />
<glyph unicode="%" horiz-adv-x="2048" d="M224 1064q0 161 88 275q88 115 237 115q147 0 239 -112q92 -111 92 -278q0 -162 -92 -276q-91 -114 -239 -114q-140 0 -233 110q-92 110 -92 280zM336 1064q0 -126 57 -212q58 -86 157 -86q101 0 159 84q59 85 59 214q0 130 -60 214q-59 84 -158 84q-102 0 -158 -87 q-56 -86 -56 -211zM528 0l793 1454h119l-793 -1454h-119zM1136 360q0 161 88 275q88 115 237 115q147 0 239 -112q92 -111 92 -278q0 -162 -90 -276q-89 -114 -241 -114q-146 0 -236 114q-89 114 -89 276zM1248 360q0 -126 58 -212q59 -86 156 -86q103 0 160 84 q58 85 58 214q0 130 -60 214q-59 84 -158 84q-102 0 -158 -87q-56 -86 -56 -211z" />
<glyph unicode="&#x26;" horiz-adv-x="1479" d="M96 408q0 125 85 228q85 104 284 232q-109 119 -152 201q-42 82 -42 164q0 123 91 196q91 74 234 74q145 0 237 -72q93 -71 93 -188q0 -106 -68 -197q-67 -91 -205 -190l434 -461q48 107 73 248q26 141 26 300h141q-17 -250 -54 -400q-36 -149 -95 -244l277 -299h-191 l-174 193q-58 -79 -182 -152q-123 -72 -268 -72q-232 0 -388 119t-156 320zM239 406q0 -127 112 -221q113 -93 273 -93q109 0 203 44q94 45 188 145l-465 497q-160 -105 -236 -189q-75 -83 -75 -183zM414 1230q0 -51 36 -121q37 -70 124 -169q70 56 139 134q70 78 70 156 q0 67 -51 108q-50 42 -132 42q-96 0 -141 -39q-45 -38 -45 -111z" />
<glyph unicode="'" horiz-adv-x="569" d="M224 1008v464h107v-464h-107z" />
<glyph unicode="(" horiz-adv-x="569" d="M160 633q0 -171 49 -350q48 -178 168 -488h102q-74 204 -125 420q-51 217 -51 425q0 185 48 398q47 213 128 434h-102q-128 -354 -172 -507q-45 -152 -45 -332z" />
<glyph unicode=")" horiz-adv-x="569" d="M90 -205q74 204 125 420q51 217 51 425q0 185 -48 398q-47 213 -128 434h102q128 -354 172 -507q45 -152 45 -332q0 -171 -49 -350q-48 -178 -168 -488h-102z" />
<glyph unicode="*" d="M208 1062v106l288 -16l-182 261l107 59l136 -279l139 279l105 -56l-182 -264l288 16v-106l-288 16l182 -264l-107 -56l-137 282l-141 -282l-102 59l182 261z" />
<glyph unicode="+" horiz-adv-x="1352" d="M160 453v123h448v448h123v-448h448v-123h-448v-448h-123v448h-448z" />
<glyph unicode="," horiz-adv-x="569" d="M128 -251l87 416h166l-146 -416h-107z" />
<glyph unicode="-" horiz-adv-x="569" d="M32 485v123h512v-123h-512z" />
<glyph unicode="." horiz-adv-x="569" d="M202 0v177h164v-177h-164z" />
<glyph unicode="/" horiz-adv-x="569" d="M-46 -199l528 1671h128l-528 -1671h-128z" />
<glyph unicode="0" d="M98 712q0 365 116 553q117 189 359 189q237 0 352 -187q116 -187 116 -555q0 -383 -121 -563q-121 -179 -347 -179q-242 0 -359 191q-116 191 -116 551zM241 693q0 -277 82 -439q82 -161 249 -161q160 0 243 154q83 155 83 480q0 302 -83 453t-243 151q-167 0 -249 -160 q-82 -159 -82 -478z" />
<glyph unicode="1" d="M240 1072v133q66 22 165 89q100 67 157 130h130v-1424h-132v1285q-129 -121 -320 -213z" />
<glyph unicode="2" d="M103 0v142l80 73q271 247 464 486q193 240 193 384q0 109 -81 177q-80 69 -207 69q-144 0 -219 -84q-74 -83 -74 -193h-143q0 175 117 287q118 113 327 113q180 0 301 -99q122 -99 122 -270q0 -158 -158 -373q-158 -214 -375 -413l-188 -176h739v-123h-898z" />
<glyph unicode="3" d="M65 370h143q0 -121 94 -199q95 -78 228 -78q157 0 249 85q93 86 93 219q0 136 -93 211q-92 75 -238 75q-23 0 -76 -6v133q24 -4 53 -4q153 0 242 73q90 74 90 194q0 118 -92 188q-91 70 -219 70q-141 0 -223 -75q-82 -74 -88 -186h-143q0 166 125 275t318 109 q201 0 333 -103q132 -102 132 -288q0 -133 -90 -215q-89 -81 -205 -103q141 -29 229 -126t88 -234q0 -195 -147 -305t-335 -110q-214 0 -341 114t-127 286z" />
<glyph unicode="4" d="M45 334v128l623 962h177v-977h226v-113h-226v-334h-132v334h-668zM159 447h554v849z" />
<glyph unicode="5" d="M125 354h143q3 -122 86 -192q83 -69 217 -69q152 0 240 102t88 275q0 160 -82 254q-81 95 -239 95q-103 0 -183 -56t-104 -157h-137l34 818h782v-123h-657l-22 -511q136 152 320 152q190 0 310 -137q121 -136 121 -341q0 -220 -129 -357q-128 -137 -340 -137 q-200 0 -324 105q-124 106 -124 279z" />
<glyph unicode="6" d="M92 637q0 427 129 622q130 195 389 195q198 0 310 -101q113 -101 113 -267h-143q0 96 -76 170q-76 75 -198 75q-182 0 -282 -155q-99 -154 -99 -487q105 236 379 236q208 0 322 -130q115 -129 115 -340q0 -207 -120 -346t-322 -139q-251 0 -384 165t-133 502zM260 438 q0 -137 89 -241t235 -104q150 0 237 102q87 103 87 249q0 163 -79 265q-78 103 -222 103q-164 0 -256 -108q-91 -107 -91 -266z" />
<glyph unicode="7" d="M112 1301v123h896v-117l-545 -1307h-154l560 1301h-757z" />
<glyph unicode="8" d="M87 393q0 131 85 226q86 96 226 124q-135 17 -215 111t-80 217q0 175 130 279q131 104 334 104q197 0 330 -105t133 -278q0 -120 -76 -207t-213 -121q146 -33 225 -128q80 -95 80 -222q0 -200 -137 -312q-137 -111 -346 -111q-205 0 -341 113q-135 113 -135 310zM230 388 q0 -131 85 -213q86 -82 252 -82q161 0 248 82q88 82 88 211q0 140 -92 218q-91 79 -239 79q-166 0 -254 -83q-88 -82 -88 -212zM235 1071q0 -115 85 -190q86 -75 246 -75q157 0 243 72q87 72 87 196q0 121 -89 194q-88 73 -239 73q-158 0 -246 -78q-87 -78 -87 -192z" />
<glyph unicode="9" d="M92 990q0 201 123 332q123 132 315 132q280 0 400 -183q121 -182 121 -524q0 -374 -129 -576q-129 -201 -412 -201q-186 0 -294 107t-120 277h143q2 -126 73 -194q72 -67 212 -67q192 0 288 165q96 166 96 514q-37 -90 -129 -158q-91 -67 -244 -67q-206 0 -325 128 q-118 129 -118 315zM235 980q0 -140 84 -230t221 -90q155 0 248 97q93 98 93 241q0 137 -88 235q-87 98 -235 98q-165 0 -244 -100q-79 -99 -79 -251z" />
<glyph unicode=":" horiz-adv-x="569" d="M202 0v177h164v-177h-164zM202 852v177h164v-177h-164z" />
<glyph unicode=";" horiz-adv-x="569" d="M167 -251l87 416h166l-146 -416h-107zM218 852v177h164v-177h-164z" />
<glyph unicode="&#x3c;" horiz-adv-x="1352" d="M165 460l1024 -464v131l-864 387l864 389v131l-1024 -464v-110z" />
<glyph unicode="=" horiz-adv-x="1352" d="M160 253v123h1024v-123h-1024zM160 648v123h1024v-123h-1024z" />
<glyph unicode="&#x3e;" horiz-adv-x="1352" d="M163 -4v131l864 387l-864 389v131l1024 -464v-110z" />
<glyph unicode="?" horiz-adv-x="1024" d="M211 1349v126q73 28 220 28q195 0 315 -96q121 -96 121 -272q0 -80 -33 -149q-33 -68 -74 -111l-194 -196q-57 -55 -73 -92q-15 -36 -15 -94v-140h-123v195q0 73 30 119t67 80l185 180q36 33 66 91q31 58 31 117q0 118 -78 181q-78 64 -253 64q-94 0 -192 -31zM335 0v177 h164v-177h-164z" />
<glyph unicode="@" horiz-adv-x="1638" d="M80 741q0 309 223 535q224 227 556 227q282 0 485 -178q203 -177 203 -453q0 -232 -149 -413q-148 -180 -320 -180q-137 0 -166 96q-99 -96 -253 -96q-131 0 -214 84q-82 84 -82 216q0 239 154 426t362 187q163 0 235 -128l32 90h134l-201 -609q-23 -73 -23 -106 q0 -48 58 -48q116 0 213 156t97 329q0 229 -164 376q-164 148 -399 148q-293 0 -476 -198q-182 -198 -182 -472q0 -286 192 -473q192 -186 465 -186q150 0 294 71q145 72 242 210h119q-94 -179 -279 -282q-185 -102 -388 -102q-321 0 -545 224q-223 225 -223 549zM517 595 q0 -83 45 -138t119 -55q125 0 234 181t109 343q0 54 -38 98q-38 45 -101 45q-147 0 -258 -156q-110 -156 -110 -318z" />
<glyph unicode="A" horiz-adv-x="1366" d="M0 1503zM19 0l592 1472h156l592 -1472h-145l-158 399h-743l-157 -399h-137zM359 522h647l-319 829zM689 1599zM1280 0z" />
<glyph unicode="B" horiz-adv-x="1366" d="M204 0v1472h493q224 0 340 -107q116 -106 116 -268q0 -117 -78 -210t-203 -121q176 -31 259 -126q84 -95 84 -251q0 -178 -117 -284q-117 -105 -329 -105h-565zM337 123h345q199 0 294 66q96 67 96 222q0 165 -117 226t-354 61h-264v-575zM337 821h326q165 0 256 72 q91 73 91 196q0 126 -88 193q-87 67 -267 67h-318v-528z" />
<glyph unicode="C" horiz-adv-x="1366" d="M125 736q0 353 170 560q171 207 473 207q221 0 352 -107q132 -106 140 -277h-143q-9 107 -97 184t-251 77q-247 0 -374 -178q-127 -177 -127 -466q0 -287 127 -466q127 -178 370 -178q161 0 257 79q96 80 111 182h143q-14 -141 -152 -263q-138 -121 -356 -121 q-304 0 -474 206q-169 207 -169 561zM763 1599zM794 0z" />
<glyph unicode="D" horiz-adv-x="1479" d="M0 1503zM187 0v1472h407q366 0 558 -192q192 -191 192 -544q0 -366 -201 -551q-200 -185 -536 -185h-420zM320 123h286q288 0 441 150q154 151 154 463q0 311 -170 462t-498 151h-213v-1226zM643 1599z" />
<glyph unicode="E" horiz-adv-x="1251" d="M0 1503zM208 0v1472h885v-123h-752v-528h723v-123h-723v-575h783v-123h-916zM651 1599zM1069 0z" />
<glyph unicode="F" d="M195 0v1472h837v-123h-704v-520h679v-123h-679v-706h-133z" />
<glyph unicode="G" horiz-adv-x="1479" d="M131 736q0 329 172 548t457 219q222 0 367 -118q146 -118 155 -282h-152q-9 110 -108 193q-99 84 -260 84q-237 0 -363 -187q-125 -186 -125 -457q0 -320 146 -482q147 -162 407 -162q138 0 338 61v476h-363v123h496v-691q-240 -92 -524 -92q-307 0 -475 209 q-168 210 -168 558zM778 1599zM823 0z" />
<glyph unicode="H" horiz-adv-x="1479" d="M202 0v1472h133v-643h811v643h133v-1472h-133v706h-811v-706h-133z" />
<glyph unicode="I" horiz-adv-x="569" d="M0 1503zM218 0v1472h133v-1472h-133zM283 1599zM286 0z" />
<glyph unicode="J" horiz-adv-x="1024" d="M27 369h143q9 -122 85 -200q76 -77 193 -77q120 0 190 99q71 99 71 257v1024h133v-1033q0 -210 -115 -340q-114 -130 -318 -130q-171 0 -267 110q-95 110 -115 290z" />
<glyph unicode="K" horiz-adv-x="1251" d="M216 0v1472h133v-650l664 650h168l-684 -667l746 -805h-183l-711 771v-771h-133zM730 0z" />
<glyph unicode="L" d="M0 1503zM204 0v1472h133v-1349h736v-123h-869zM323 1599zM652 0z" />
<glyph unicode="M" horiz-adv-x="1933" d="M202 0v1472h212l557 -1276l570 1276h202v-1472h-133v1369l-571 -1369h-133l-571 1363v-1363h-133z" />
<glyph unicode="N" horiz-adv-x="1479" d="M0 1503zM189 0v1472h152l824 -1299v1299h133v-1472h-168l-808 1277v-1277h-133zM765 1599zM769 0z" />
<glyph unicode="O" horiz-adv-x="1593" d="M137 736q0 347 176 557q177 210 480 210q304 0 479 -206q176 -205 176 -561q0 -336 -175 -552q-174 -215 -481 -215q-302 0 -479 202q-176 202 -176 565zM280 736q0 -290 136 -467t381 -177q232 0 370 174q138 175 138 470q0 291 -135 467q-135 177 -373 177 q-243 0 -380 -180t-137 -464zM793 1599z" />
<glyph unicode="P" horiz-adv-x="1251" d="M204 0v1472h376h37q284 0 426 -108t142 -306q0 -206 -151 -310q-150 -104 -455 -104h-242v-644h-133zM337 767h333q181 0 276 71q96 72 96 218q0 147 -94 220t-278 73h-333v-582z" />
<glyph unicode="Q" horiz-adv-x="1593" d="M137 736q0 353 179 560t477 207q304 0 479 -205q176 -204 176 -559q0 -171 -61 -337t-195 -279h304v-123h-494q-102 -31 -212 -31q-301 0 -477 202t-176 565zM280 736q0 -285 134 -465q134 -179 383 -179q236 0 372 179q136 180 136 465q0 294 -135 469t-373 175 q-241 0 -379 -180t-138 -464z" />
<glyph unicode="R" horiz-adv-x="1366" d="M0 1503zM210 0v1472h487q248 0 371 -99q123 -98 123 -290q0 -119 -81 -203t-212 -114q123 -21 182 -93q60 -72 77 -255l18 -194q16 -168 60 -224h-156q-29 62 -42 193l-20 218q-18 186 -78 236q-60 51 -201 51h-24h-371v-698h-133zM343 821h308q212 0 304 63 q93 63 93 201q0 133 -83 198q-83 66 -245 66h-377v-528zM643 1599zM693 0z" />
<glyph unicode="S" horiz-adv-x="1251" d="M128 385h143q0 -136 87 -215q87 -78 271 -78q159 0 261 79q103 80 103 202q0 91 -54 152t-171 101l-225 74q-188 65 -286 161q-97 97 -97 240q0 182 138 292q139 110 330 110q210 0 336 -97q127 -96 140 -255h-143q0 106 -81 167q-81 62 -235 62q-142 0 -242 -70 t-100 -189q0 -171 218 -263l338 -127q143 -52 210 -136q67 -83 67 -212q0 -203 -148 -309q-148 -105 -360 -105q-252 0 -376 125t-124 291zM627 0zM631 1599z" />
<glyph unicode="T" d="M0 1503zM32 1349v123h1093v-123h-480v-1349h-133v1349h-480zM579 1599zM583 0z" />
<glyph unicode="U" horiz-adv-x="1479" d="M0 1503zM202 533v939h133v-949q0 -201 110 -316t296 -115q177 0 291 111t114 320v949h133v-957q0 -248 -141 -397t-393 -149q-249 0 -396 145t-147 419zM741 1599zM892 0z" />
<glyph unicode="V" horiz-adv-x="1251" d="M16 1472h145l481 -1345l481 1345h133l-544 -1472h-152z" />
<glyph unicode="W" horiz-adv-x="2048" d="M16 1472h139l348 -1340l441 1340h160l458 -1345l343 1345h127l-384 -1472h-187l-439 1346l-435 -1346h-187z" />
<glyph unicode="X" horiz-adv-x="1251" d="M17 0l525 759l-498 713h175l414 -621l434 621h150l-511 -713l528 -759h-176l-444 661l-445 -661h-152z" />
<glyph unicode="Y" horiz-adv-x="1251" d="M0 1503zM16 1472h170l451 -713l457 713h143l-544 -834v-638h-133v638zM627 1599z" />
<glyph unicode="Z" d="M0 1503zM79 0v121l816 1228h-816v123h976v-121l-818 -1228h818v-123h-976zM567 1599z" />
<glyph unicode="[" horiz-adv-x="569" d="M177 -205h277v102h-144v1473h144v102h-277v-1677z" />
<glyph unicode="\" horiz-adv-x="569" d="M-90 1472h133l619 -1472h-133z" />
<glyph unicode="]" horiz-adv-x="569" d="M115 -103h144v1473h-144v102h277v-1677h-277v102z" />
<glyph unicode="^" horiz-adv-x="1352" d="M160 489l464 928h106l464 -928h-115l-404 805l-396 -805h-119z" />
<glyph unicode="_" horiz-adv-x="1024" d="M0 -139h1024v-115h-1024v115z" />
<glyph unicode="`" horiz-adv-x="569" d="M48 1440h163l189 -288h-90zM286 1152z" />
<glyph unicode="a" horiz-adv-x="1024" d="M73 288q0 141 117 241t424 100h125v99q0 104 -59 159q-59 56 -180 56q-118 0 -179 -43q-60 -42 -71 -132h-133q18 146 114 217q97 71 270 71q165 0 263 -79q98 -78 98 -263v-496q0 -46 10 -218h-127q-4 79 -4 158q-21 -66 -115 -128q-93 -62 -219 -62q-147 0 -241 86 q-93 87 -93 234zM206 282q0 -92 61 -147q62 -54 168 -54q146 0 225 91q79 92 79 262v82h-59q-285 0 -380 -60q-94 -59 -94 -174zM491 1152zM813 0z" />
<glyph unicode="b" d="M134 0q10 188 10 219v1253h123v-608q119 192 364 192q200 0 310 -151t110 -389q0 -242 -112 -395q-111 -153 -301 -153q-243 0 -371 192q0 -84 -6 -160h-127zM267 529q0 -224 93 -336t255 -112q146 0 224 116q79 116 79 315q0 193 -84 312q-83 119 -231 119 q-153 0 -245 -111q-91 -111 -91 -303z" />
<glyph unicode="c" horiz-adv-x="1024" d="M94 512q0 235 124 389q125 155 336 155q173 0 283 -102t110 -250h-133q-3 107 -72 173q-68 66 -205 66q-146 0 -228 -128t-82 -303q0 -182 86 -307q87 -124 233 -124q118 0 191 74q74 75 77 165h133q-14 -156 -117 -254q-102 -98 -280 -98q-212 0 -334 151 q-122 152 -122 393zM544 0zM554 1152z" />
<glyph unicode="d" d="M94 516q0 251 116 395q116 145 304 145q244 0 364 -192v608h123v-1254q0 -31 10 -218h-127q-6 79 -6 167q-129 -199 -371 -199q-188 0 -301 151q-112 152 -112 397zM227 512q0 -191 77 -311t228 -120q159 0 252 113q94 114 94 335q0 189 -90 301q-89 113 -246 113 q-153 0 -234 -120t-81 -311z" />
<glyph unicode="e" d="M102 512q0 238 127 391q128 153 336 153q233 0 351 -150q119 -149 119 -421h-800q1 -180 93 -292q93 -112 268 -112q111 0 194 73q83 74 100 166h133q-46 -178 -164 -265q-117 -87 -300 -87q-215 0 -336 150q-121 151 -121 394zM239 598h663q-11 157 -98 251 q-86 94 -236 94q-146 0 -231 -100q-84 -100 -98 -245zM569 1152zM660 0z" />
<glyph unicode="f" horiz-adv-x="682" d="M48 911v113h208v224q0 121 61 184q62 63 186 63q56 0 116 -23v-99q-40 9 -80 9q-94 0 -127 -42q-33 -41 -33 -133v-183h240v-113h-240v-911h-123v911h-208z" />
<glyph unicode="g" d="M92 526q0 242 118 386t320 144q213 0 340 -192q0 83 6 160h127q-10 -147 -10 -223v-713v-69q0 -200 -123 -310q-123 -109 -322 -109q-200 0 -306 75t-106 197h135q0 -70 81 -115q82 -44 209 -44q118 0 213 77q96 77 96 231v176q-44 -82 -134 -137q-89 -55 -203 -55 q-212 0 -327 140q-114 140 -114 381zM225 530q0 -178 88 -295q89 -117 237 -117q145 0 232 114q88 115 88 305q0 174 -93 290t-235 116q-145 0 -231 -123t-86 -290zM543 1152z" />
<glyph unicode="h" d="M163 0v1472h123v-608q107 192 331 192q171 0 264 -105q93 -104 93 -316v-635h-123v634q0 159 -72 234t-195 75q-141 0 -220 -98q-78 -98 -78 -252v-593h-123z" />
<glyph unicode="i" horiz-adv-x="455" d="M155 1328v153h143v-153h-143zM165 0v1024h123v-1024h-123zM227 0z" />
<glyph unicode="j" horiz-adv-x="455" d="M5 -287h31q67 0 98 27q31 28 31 122v1162h123v-1113v-58q0 -145 -53 -199t-179 -54h-51v113zM155 1328v153h143v-153h-143z" />
<glyph unicode="k" horiz-adv-x="1024" d="M177 0v1472h123v-864l498 416h158l-521 -440l563 -584h-156l-542 556v-556h-123zM565 0z" />
<glyph unicode="l" horiz-adv-x="455" d="M165 0v1472h123v-1472h-123zM227 0zM227 1568z" />
<glyph unicode="m" horiz-adv-x="1821" d="M151 1024h127q6 -87 6 -160q114 192 332 192q122 0 212 -70q90 -69 115 -154q138 224 359 224q173 0 265 -107q93 -107 93 -314v-635h-123v656q0 137 -71 212t-196 75q-141 0 -220 -99q-78 -98 -78 -250v-594h-123v656q0 137 -71 212t-196 75q-141 0 -220 -99 q-78 -98 -78 -253v-591h-123v804q0 67 -10 220z" />
<glyph unicode="n" d="M153 1024h127q6 -87 6 -160q115 192 331 192q175 0 266 -109t91 -312v-635h-123v656q0 137 -71 212t-196 75q-141 0 -220 -98q-78 -98 -78 -252v-593h-123v804q0 67 -10 220zM569 0zM569 1152z" />
<glyph unicode="o" d="M90 512q0 244 132 394q133 150 347 150q229 0 357 -157q129 -156 129 -387q0 -245 -135 -395q-135 -149 -351 -149q-218 0 -349 158q-130 158 -130 386zM223 512q0 -174 96 -303q96 -128 254 -128q171 0 260 133t89 298q0 185 -96 308q-95 123 -254 123q-165 0 -257 -128 t-92 -303zM573 1152z" />
<glyph unicode="p" d="M134 1024h127q6 -77 6 -160q128 192 371 192q190 0 301 -154q112 -153 112 -394q0 -243 -113 -392q-112 -148 -307 -148q-249 0 -364 192v-560h-123v1202q0 112 -10 222zM267 497q0 -182 85 -299t251 -117q148 0 231 118q84 119 84 316q0 192 -79 310q-78 118 -224 118 q-164 0 -256 -114q-92 -113 -92 -332z" />
<glyph unicode="q" d="M94 508q0 259 117 403q118 145 296 145q242 0 371 -192q0 84 6 162h127q-10 -100 -10 -223v-1203h-123v560q-116 -192 -364 -192q-197 0 -309 151q-111 152 -111 389zM227 515q0 -195 82 -315q82 -119 233 -119q165 0 250 117q86 117 86 299q0 219 -92 332 q-92 114 -254 114q-147 0 -226 -118q-79 -117 -79 -310z" />
<glyph unicode="r" horiz-adv-x="682" d="M153 1024h127q6 -87 6 -160q40 102 103 147q64 45 167 45h82v-116q-43 3 -78 3q-131 0 -203 -89q-71 -89 -71 -243v-611h-123v804q0 117 -10 220zM225 0zM399 1152z" />
<glyph unicode="s" horiz-adv-x="1024" d="M93 272h133q4 -87 77 -139t209 -52q115 0 193 52q79 53 79 154q0 66 -47 108q-46 43 -194 79l-159 39q-123 31 -190 94q-66 63 -66 164q0 130 102 207q102 78 282 78q172 0 266 -68q94 -67 106 -220h-133q-8 89 -70 132t-186 43q-112 0 -173 -46q-61 -45 -61 -118 q0 -56 39 -91q40 -34 114 -52l244 -65q141 -37 200 -109q59 -71 59 -158q0 -154 -123 -245q-122 -91 -308 -91q-182 0 -288 84q-105 85 -105 220zM504 0zM504 1152z" />
<glyph unicode="t" horiz-adv-x="682" d="M44 911v113h208v219l123 53v-272h240v-113h-240v-678q0 -76 36 -114q37 -38 111 -38q57 0 101 12v-107q-49 -18 -120 -18q-134 0 -193 56q-58 56 -58 198v689h-208zM436 0z" />
<glyph unicode="u" d="M0 1056zM163 389v635h123v-656q0 -137 70 -212q71 -75 197 -75q140 0 219 95q79 96 79 255v593h123v-804q0 -68 10 -220h-127q-6 86 -6 160q-116 -192 -331 -192q-176 0 -267 111q-90 111 -90 310zM567 1152zM917 0z" />
<glyph unicode="v" horiz-adv-x="1024" d="M32 1024h135l351 -856l351 856h135l-416 -1024h-140z" />
<glyph unicode="w" horiz-adv-x="1706" d="M33 1024h135l314 -864l319 864h148l298 -868l303 868h135l-384 -1024h-121l-310 892l-332 -892h-121z" />
<glyph unicode="x" horiz-adv-x="1024" d="M37 0l391 524l-374 500h163l299 -408l302 408h131l-367 -492l400 -532h-161l-326 444l-322 -444h-136z" />
<glyph unicode="y" horiz-adv-x="1024" d="M0 1056zM17 1024h150l346 -857l347 857h133l-570 -1424h-135l157 395zM513 1152z" />
<glyph unicode="z" horiz-adv-x="909" d="M0 1056zM83 0v112l606 799h-606v113h752v-112l-602 -799h602v-113h-752zM459 1152z" />
<glyph unicode="{" horiz-adv-x="569" d="M80 578v112q78 11 111 64q33 54 33 186v297q0 118 56 176q56 59 144 59h88v-103h-58q-52 0 -75 -38t-23 -108v-304q0 -92 -33 -160q-32 -67 -93 -124q59 -51 92 -119q34 -68 34 -160v-299q0 -67 21 -107q21 -39 81 -39h54v-103h-93q-102 0 -149 66q-46 66 -46 160v291 q0 119 -29 178q-28 60 -115 75z" />
<glyph unicode="|" horiz-adv-x="455" d="M160 -502v2048h123v-2048h-123z" />
<glyph unicode="}" horiz-adv-x="569" d="M64 -89h59q54 0 75 41q22 42 22 105v301q0 73 26 143q27 71 100 140q-52 38 -89 111q-37 74 -37 170v300q0 73 -24 110q-23 37 -70 37h-62v103h81q92 0 149 -59q58 -58 58 -168v-295q0 -126 30 -183q31 -57 114 -69v-112q-88 -15 -116 -76q-28 -60 -28 -173v-304 q0 -106 -57 -166q-56 -59 -138 -59h-93v103z" />
<glyph unicode="~" horiz-adv-x="1352" d="M163 441q57 88 128 149q72 62 159 62q82 0 240 -72t220 -72h12q47 0 95 48t87 128l83 -69q-44 -92 -117 -157q-72 -65 -160 -65q-90 0 -250 72t-201 72h-9q-56 0 -112 -49q-55 -48 -108 -143z" />
<glyph unicode="&#xa1;" horiz-adv-x="797" d="M316 -362l26 1124h112l26 -1124h-164zM316 933v177h164v-177h-164z" />
<glyph unicode="&#xa2;" d="M143 514q0 239 126 393q127 154 337 154q34 0 66 -4l73 260h80l-75 -277q112 -41 178 -131q67 -89 67 -200h-132q-3 78 -40 131q-36 53 -104 81l-228 -820q48 -18 100 -18q117 0 191 68q74 69 81 171h132q-27 -185 -131 -269q-104 -83 -269 -83q-72 0 -133 19l-73 -259 h-92l82 292q-110 61 -173 192q-63 132 -63 300zM275 516q0 -124 35 -219q36 -95 104 -152l226 799q-26 4 -53 4q-139 0 -226 -122q-86 -121 -86 -310z" />
<glyph unicode="&#xa3;" d="M94 764v123h152v71q0 265 116 380q116 116 338 116q170 0 276 -82t106 -206h-143q0 71 -70 118t-186 47q-151 0 -228 -92q-77 -91 -77 -270v-82h331v-123h-331v-641h659v-123h-914v123h123v641h-152z" />
<glyph unicode="&#xa4;" d="M48 611q0 169 99 305l-88 89l107 107l90 -90q121 101 306 101q159 0 301 -101l92 90l107 -107l-87 -89q96 -135 96 -312q0 -162 -96 -297l87 -87l-107 -107l-92 87q-130 -100 -308 -100q-163 0 -299 100l-90 -87l-107 107l90 89q-101 136 -101 302zM191 611 q0 -151 108 -260q109 -108 261 -108t260 108q108 109 108 261t-107 260t-259 108q-154 0 -263 -109q-108 -108 -108 -260z" />
<glyph unicode="&#xa5;" d="M16 1424h170l403 -656l408 656h143l-494 -772h414v-123h-416v-128h416v-123h-416v-278h-132v278h-416v123h416v128h-416v123h410z" />
<glyph unicode="&#xa6;" horiz-adv-x="455" d="M160 -351v720h123v-720h-123zM160 673v720h123v-720h-123z" />
<glyph unicode="&#xa7;" d="M228 730q0 71 50 133q51 63 174 115q-105 55 -152 116q-46 62 -46 129q0 130 94 204t269 74q91 0 221 -37v-107q-95 31 -208 31q-127 0 -185 -42q-58 -41 -58 -121q0 -43 33 -81q33 -37 118 -73l170 -74q103 -42 150 -92q47 -49 47 -117q0 -71 -55 -134 q-55 -62 -163 -115q114 -43 172 -108q59 -65 59 -154q0 -144 -107 -230t-287 -86q-146 0 -270 45v115q122 -47 245 -47q132 0 209 52t77 146q0 42 -32 80t-129 72l-185 66q-109 39 -160 97t-51 143zM361 739q0 -40 29 -73q30 -32 84 -52l102 -39q103 45 149 88q47 43 47 97 q0 37 -23 66q-23 30 -81 55l-131 55q-112 -60 -144 -104t-32 -93z" />
<glyph unicode="&#xa8;" horiz-adv-x="569" d="M32 1264v180h152v-180h-152zM288 1152zM392 1264v180h152v-180h-152z" />
<glyph unicode="&#xa9;" horiz-adv-x="1638" d="M48 736q0 318 225 543t543 225t543 -225t225 -543t-225 -543t-543 -225t-543 225t-225 543zM176 736q0 -265 187 -453q188 -187 453 -187t452 187q188 188 188 453t-188 452q-187 188 -452 188t-453 -188q-187 -187 -187 -452zM432 740q0 198 112 319q112 122 302 122 q139 0 235 -76q96 -75 119 -215h-112q-18 83 -85 135q-66 53 -154 53q-138 0 -216 -94t-78 -239t83 -244t215 -99q88 0 155 55q68 56 80 140h112q-10 -125 -109 -212q-98 -86 -236 -86q-187 0 -305 123t-118 318z" />
<glyph unicode="&#xaa;" horiz-adv-x="614" d="M27 1056q0 87 77 146t253 59h99v39q0 79 -34 104q-34 26 -122 26q-71 0 -106 -24q-34 -23 -40 -69h-98q9 81 71 128q62 48 181 48q115 0 174 -52q59 -51 59 -155v-295q0 -68 7 -129h-92v85q-25 -45 -81 -76q-56 -30 -123 -30q-100 0 -163 54q-62 54 -62 141zM125 1052 q0 -54 35 -81t103 -27q99 0 146 50q47 51 47 137v47h-60q-155 -2 -213 -34q-58 -31 -58 -92z" />
<glyph unicode="&#xab;" d="M211 544l218 -400h102l-190 400l190 400h-105zM579 544l218 -400h102l-190 400l190 400h-105z" />
<glyph unicode="&#xac;" horiz-adv-x="1352" d="M160 646v123h1024v-539h-123v416h-901z" />
<glyph unicode="&#xad;" horiz-adv-x="569" d="M32 485v123h512v-123h-512z" />
<glyph unicode="&#xae;" horiz-adv-x="1638" d="M48 736q0 318 225 543t543 225t543 -225t225 -543t-225 -543t-543 -225t-543 225t-225 543zM176 736q0 -265 187 -453q188 -187 453 -187t452 187q188 188 188 453t-188 452q-187 188 -452 188t-453 -188q-187 -187 -187 -452zM528 307v874h387q153 0 227 -61 q74 -60 74 -181q0 -111 -67 -174t-206 -75l262 -383h-128l-246 383h-191v-383h-112zM640 793h276q86 0 131 35q46 36 46 113q0 67 -49 102t-153 35h-251v-285z" />
<glyph unicode="&#xaf;" horiz-adv-x="569" d="M32 1296v124h496v-124h-496zM278 1152z" />
<glyph unicode="&#xb0;" horiz-adv-x="819" d="M96 1146q0 128 89 218q90 90 221 90q128 0 219 -90t91 -218q0 -131 -91 -222q-91 -90 -219 -90q-131 0 -221 90q-89 91 -89 222zM188 1142q0 -89 64 -153q65 -63 156 -63q88 0 152 64q64 65 64 156q0 88 -65 152t-155 64q-89 0 -153 -65q-63 -65 -63 -155z" />
<glyph unicode="&#xb1;" horiz-adv-x="1352" d="M160 2v123h1019v-123h-1019zM160 557v123h448v352h123v-352h448v-123h-448v-352h-123v352h-448z" />
<glyph unicode="&#xb2;" horiz-adv-x="682" d="M64 576v86l47 41q161 144 281 292q121 148 121 232q0 57 -44 93q-43 37 -116 37q-85 0 -134 -43q-48 -43 -48 -99h-100q0 101 75 170q76 70 206 70q117 0 194 -58q78 -58 78 -158q0 -95 -74 -206q-74 -110 -260 -298l-60 -61h406v-98h-572z" />
<glyph unicode="&#xb3;" horiz-adv-x="682" d="M43 807h111q0 -60 54 -101q55 -41 140 -41q92 0 149 41t57 116q0 74 -57 117q-57 44 -151 44q-25 0 -47 -5v96h35q93 0 149 36q57 37 57 117q0 58 -50 94t-138 36q-89 0 -134 -36q-44 -35 -52 -90h-111q0 98 83 161q84 63 203 63q138 0 224 -60q86 -59 86 -173 q0 -83 -59 -133q-59 -49 -136 -63q106 -21 157 -75q52 -53 52 -142q0 -110 -90 -176t-223 -66q-148 0 -229 69q-80 69 -80 171z" />
<glyph unicode="&#xb4;" horiz-adv-x="569" d="M176 1152l189 288h163l-262 -288h-90zM285 1152z" />
<glyph unicode="&#xb5;" d="M163 -400v1424h123v-656q0 -137 70 -212q71 -75 197 -75q138 0 218 95q80 96 80 255v593h123v-804q0 -68 10 -220h-127q-6 86 -6 160q-56 -94 -137 -143t-192 -49q-49 0 -111 14t-125 41v-423h-123z" />
<glyph unicode="&#xb6;" horiz-adv-x="1331" d="M128 1074q0 185 117 291q118 107 343 107h446v-1776h-132v1653h-242v-1653h-132v992q-158 0 -279 113q-121 114 -121 273z" />
<glyph unicode="&#xb7;" horiz-adv-x="569" d="M204 431v177h163v-177h-163z" />
<glyph unicode="&#xb8;" horiz-adv-x="569" d="M48 -320l14 53q138 -45 200 -45q53 0 78 21q26 22 26 62q0 37 -26 55q-26 19 -77 19q-20 0 -71 -6l64 177h48l-32 -112q104 0 156 -35q52 -34 52 -100q0 -60 -58 -96t-141 -36q-99 0 -233 43zM272 0z" />
<glyph unicode="&#xb9;" horiz-adv-x="682" d="M112 1200v91q104 30 212 133h100v-848h-104v751q-78 -74 -208 -127z" />
<glyph unicode="&#xba;" horiz-adv-x="684" d="M16 1190q0 138 85 230q85 93 232 93q151 0 233 -93q83 -93 83 -230q0 -146 -88 -238q-88 -91 -231 -91q-140 0 -227 91q-87 92 -87 238zM121 1189q0 -103 58 -174q59 -71 155 -71q95 0 152 70q58 70 58 175q0 103 -58 172q-57 69 -152 69q-100 0 -157 -73 q-56 -72 -56 -168z" />
<glyph unicode="&#xbb;" d="M240 144l190 400l-190 400h105l215 -400l-218 -400h-102zM608 144l190 400l-190 400h105l215 -400l-218 -400h-102z" />
<glyph unicode="&#xbc;" horiz-adv-x="1708" d="M218 1200v91q104 30 212 133h100v-848h-104v751q-78 -74 -208 -127zM378 0l853 1454h107l-848 -1454h-112zM842 200v62l420 595h124v-559h131v-98h-131v-204h-104v204h-440zM987 298h295v449z" />
<glyph unicode="&#xbd;" horiz-adv-x="1708" d="M153 1200v91q104 30 212 133h100v-848h-104v751q-78 -74 -208 -127zM312 0l853 1454h107l-848 -1454h-112zM961 -4v86l47 41q161 144 281 292q121 148 121 232q0 57 -44 93q-43 37 -116 37q-85 0 -134 -43q-48 -43 -48 -99h-100q0 101 75 170q76 70 206 70q117 0 194 -58 q78 -58 78 -158q0 -95 -74 -206q-74 -110 -260 -298l-60 -61h406v-98h-572z" />
<glyph unicode="&#xbe;" horiz-adv-x="1708" d="M115 807h111q0 -60 54 -101q55 -41 140 -41q92 0 149 41t57 116q0 74 -57 117q-57 44 -151 44q-25 0 -47 -5v96h35q93 0 149 36q57 37 57 117q0 58 -50 94t-138 36q-89 0 -134 -36q-44 -35 -52 -90h-111q0 98 83 161q84 63 203 63q138 0 224 -60q86 -59 86 -173 q0 -83 -59 -133q-59 -49 -136 -63q106 -21 157 -75q52 -53 52 -142q0 -110 -90 -176t-223 -66q-148 0 -229 69q-80 69 -80 171zM450 0l853 1454h107l-848 -1454h-112zM913 200v62l420 595h124v-559h131v-98h-131v-204h-104v204h-440zM1058 298h295v449z" />
<glyph unicode="&#xbf;" horiz-adv-x="1024" d="M157 -25q0 80 33 149q33 68 74 111l194 196q57 55 73 92q15 36 15 94v140h123v-195q0 -73 -30 -119t-67 -80l-185 -180q-36 -33 -66 -91q-31 -58 -31 -117q0 -118 78 -181q78 -64 253 -64q94 0 192 31v-126q-73 -28 -220 -28q-195 0 -315 96q-121 96 -121 272zM525 933 v177h164v-177h-164z" />
<glyph unicode="&#xc0;" horiz-adv-x="1366" d="M0 1503zM19 0l592 1472h156l592 -1472h-145l-158 399h-743l-157 -399h-137zM359 522h647l-319 829zM451 1887h163l189 -288h-90zM689 1599zM689 1599zM1280 0z" />
<glyph unicode="&#xc1;" horiz-adv-x="1366" d="M0 1503zM19 0l592 1472h156l592 -1472h-145l-158 399h-743l-157 -399h-137zM359 522h647l-319 829zM580 1599l189 288h163l-262 -288h-90zM689 1599zM689 1599zM1280 0z" />
<glyph unicode="&#xc2;" horiz-adv-x="1366" d="M0 1503zM19 0l592 1472h156l592 -1472h-145l-158 399h-743l-157 -399h-137zM359 522h647l-319 829zM406 1599l208 288h149l208 -288h-97l-187 210l-184 -210h-97zM689 1599zM689 1599zM1280 0z" />
<glyph unicode="&#xc3;" horiz-adv-x="1366" d="M0 1503zM19 0l592 1472h156l592 -1472h-145l-158 399h-743l-157 -399h-137zM359 522h647l-319 829zM409 1675q12 76 63 122q51 47 119 47q36 0 107 -23q72 -22 105 -22q39 0 62 24q24 25 24 44h80q-21 -87 -64 -131t-109 -44q-37 0 -103 22q-66 23 -108 23q-50 0 -71 -16 t-25 -46h-80zM689 1599zM689 1599zM1280 0z" />
<glyph unicode="&#xc4;" horiz-adv-x="1366" d="M0 1503zM19 0l592 1472h156l592 -1472h-145l-158 399h-743l-157 -399h-137zM359 522h647l-319 829zM433 1711v180h152v-180h-152zM689 1599zM689 1599zM793 1711v180h152v-180h-152zM1280 0z" />
<glyph unicode="&#xc5;" horiz-adv-x="1366" d="M0 1503zM19 0l592 1472h156l592 -1472h-145l-158 399h-743l-157 -399h-137zM359 522h647l-319 829zM509 1777q0 73 52 125q52 53 128 53q72 0 124 -53q53 -52 53 -125q0 -76 -54 -127q-53 -51 -126 -51t-125 51t-52 127zM578 1777q0 -46 32 -78t78 -32q45 0 77 32t32 78 q0 45 -33 77q-32 33 -77 33q-46 0 -78 -33q-31 -32 -31 -77zM689 1599zM689 1599zM1280 0z" />
<glyph unicode="&#xc6;" horiz-adv-x="2048" d="M17 0l864 1472h1021v-123h-803l88 -528h678v-123h-660l96 -575h620v-123h-736l-69 399h-712l-239 -399h-148zM472 522h627l-140 824z" />
<glyph unicode="&#xc7;" horiz-adv-x="1366" d="M125 736q0 353 170 560q171 207 473 207q221 0 352 -107q132 -106 140 -277h-143q-9 107 -97 184t-251 77q-247 0 -374 -178q-127 -177 -127 -466q0 -287 127 -466q127 -178 370 -178q161 0 257 79q96 80 111 182h143q-14 -141 -152 -263q-138 -121 -356 -121 q-304 0 -474 206q-169 207 -169 561zM570 -320l14 53q138 -45 200 -45q53 0 78 21q26 22 26 62q0 37 -26 55q-26 19 -77 19q-20 0 -71 -6l64 177h48l-32 -112q104 0 156 -35q52 -34 52 -100q0 -60 -58 -96t-141 -36q-99 0 -233 43zM763 1599zM794 0zM794 0z" />
<glyph unicode="&#xc8;" horiz-adv-x="1251" d="M0 1503zM208 0v1472h885v-123h-752v-528h723v-123h-723v-575h783v-123h-916zM413 1887h163l189 -288h-90zM651 1599zM651 1599zM1069 0z" />
<glyph unicode="&#xc9;" horiz-adv-x="1251" d="M0 1503zM208 0v1472h885v-123h-752v-528h723v-123h-723v-575h783v-123h-916zM542 1599l189 288h163l-262 -288h-90zM651 1599zM651 1599zM1069 0z" />
<glyph unicode="&#xca;" horiz-adv-x="1251" d="M0 1503zM208 0v1472h885v-123h-752v-528h723v-123h-723v-575h783v-123h-916zM368 1599l208 288h149l208 -288h-97l-187 210l-184 -210h-97zM651 1599zM651 1599zM1069 0z" />
<glyph unicode="&#xcb;" horiz-adv-x="1251" d="M0 1503zM208 0v1472h885v-123h-752v-528h723v-123h-723v-575h783v-123h-916zM395 1711v180h152v-180h-152zM651 1599zM651 1599zM755 1711v180h152v-180h-152zM1069 0z" />
<glyph unicode="&#xcc;" horiz-adv-x="569" d="M0 1503zM45 1887h163l189 -288h-90zM218 0v1472h133v-1472h-133zM283 1599zM283 1599zM286 0z" />
<glyph unicode="&#xcd;" horiz-adv-x="569" d="M0 1503zM174 1599l189 288h163l-262 -288h-90zM218 0v1472h133v-1472h-133zM283 1599zM283 1599zM286 0z" />
<glyph unicode="&#xce;" horiz-adv-x="569" d="M0 1503zM0 1599l208 288h149l208 -288h-97l-187 210l-184 -210h-97zM218 0v1472h133v-1472h-133zM283 1599zM283 1599zM286 0z" />
<glyph unicode="&#xcf;" horiz-adv-x="569" d="M0 1503zM27 1711v180h152v-180h-152zM218 0v1472h133v-1472h-133zM283 1599zM283 1599zM286 0zM387 1711v180h152v-180h-152z" />
<glyph unicode="&#xd0;" horiz-adv-x="1479" d="M48 767v92h139v613h407q348 0 549 -183t201 -553q0 -366 -201 -551q-200 -185 -536 -185h-420v767h-139zM320 123h286q290 0 442 150q153 151 153 463q0 306 -167 459q-167 154 -501 154h-213v-490h448v-92h-448v-644z" />
<glyph unicode="&#xd1;" horiz-adv-x="1479" d="M0 1503zM189 0v1472h152l824 -1299v1299h133v-1472h-168l-808 1277v-1277h-133zM485 1675q12 76 63 122q51 47 119 47q36 0 107 -23q72 -22 105 -22q39 0 62 24q24 25 24 44h80q-21 -87 -64 -131t-109 -44q-37 0 -103 22q-66 23 -108 23q-50 0 -71 -16t-25 -46h-80z M765 1599zM765 1599zM769 0z" />
<glyph unicode="&#xd2;" horiz-adv-x="1593" d="M137 736q0 347 176 557q177 210 480 210q304 0 479 -206q176 -205 176 -561q0 -336 -175 -552q-174 -215 -481 -215q-302 0 -479 202q-176 202 -176 565zM280 736q0 -290 136 -467t381 -177q232 0 370 174q138 175 138 470q0 291 -135 467q-135 177 -373 177 q-243 0 -380 -180t-137 -464zM555 1887h163l189 -288h-90zM793 1599zM793 1599z" />
<glyph unicode="&#xd3;" horiz-adv-x="1593" d="M137 736q0 347 176 557q177 210 480 210q304 0 479 -206q176 -205 176 -561q0 -336 -175 -552q-174 -215 -481 -215q-302 0 -479 202q-176 202 -176 565zM280 736q0 -290 136 -467t381 -177q232 0 370 174q138 175 138 470q0 291 -135 467q-135 177 -373 177 q-243 0 -380 -180t-137 -464zM684 1599l189 288h163l-262 -288h-90zM793 1599zM793 1599z" />
<glyph unicode="&#xd4;" horiz-adv-x="1593" d="M137 736q0 347 176 557q177 210 480 210q304 0 479 -206q176 -205 176 -561q0 -336 -175 -552q-174 -215 -481 -215q-302 0 -479 202q-176 202 -176 565zM280 736q0 -290 136 -467t381 -177q232 0 370 174q138 175 138 470q0 291 -135 467q-135 177 -373 177 q-243 0 -380 -180t-137 -464zM510 1599l208 288h149l208 -288h-97l-187 210l-184 -210h-97zM793 1599zM793 1599z" />
<glyph unicode="&#xd5;" horiz-adv-x="1593" d="M137 736q0 347 176 557q177 210 480 210q304 0 479 -206q176 -205 176 -561q0 -336 -175 -552q-174 -215 -481 -215q-302 0 -479 202q-176 202 -176 565zM280 736q0 -290 136 -467t381 -177q232 0 370 174q138 175 138 470q0 291 -135 467q-135 177 -373 177 q-243 0 -380 -180t-137 -464zM513 1675q12 76 63 122q51 47 119 47q36 0 107 -23q72 -22 105 -22q39 0 62 24q24 25 24 44h80q-21 -87 -64 -131t-109 -44q-37 0 -103 22q-66 23 -108 23q-50 0 -71 -16t-25 -46h-80zM793 1599zM793 1599z" />
<glyph unicode="&#xd6;" horiz-adv-x="1593" d="M137 736q0 347 176 557q177 210 480 210q304 0 479 -206q176 -205 176 -561q0 -336 -175 -552q-174 -215 -481 -215q-302 0 -479 202q-176 202 -176 565zM280 736q0 -290 136 -467t381 -177q232 0 370 174q138 175 138 470q0 291 -135 467q-135 177 -373 177 q-243 0 -380 -180t-137 -464zM537 1711v180h152v-180h-152zM793 1599zM793 1599zM897 1711v180h152v-180h-152z" />
<glyph unicode="&#xd7;" horiz-adv-x="1352" d="M176 79l432 433l-432 433l71 71l433 -432l433 432l71 -71l-432 -433l432 -433l-71 -71l-433 432l-433 -432z" />
<glyph unicode="&#xd8;" horiz-adv-x="1593" d="M110 25l169 190q-142 198 -142 518q0 348 179 559q180 211 479 211q286 0 458 -183l170 183l56 -52l-174 -196q143 -198 143 -516q0 -352 -179 -561t-475 -209q-289 0 -461 185l-163 -185zM280 732q0 -244 96 -408l782 890q-136 166 -365 166q-243 0 -378 -181t-135 -467 zM425 258q137 -166 371 -166q242 0 375 180q134 180 134 461q0 244 -97 411z" />
<glyph unicode="&#xd9;" horiz-adv-x="1479" d="M0 1503zM202 533v939h133v-949q0 -201 110 -316t296 -115q177 0 291 111t114 320v949h133v-957q0 -248 -141 -397t-393 -149q-249 0 -396 145t-147 419zM503 1887h163l189 -288h-90zM741 1599zM741 1599zM892 0z" />
<glyph unicode="&#xda;" horiz-adv-x="1479" d="M0 1503zM202 533v939h133v-949q0 -201 110 -316t296 -115q177 0 291 111t114 320v949h133v-957q0 -248 -141 -397t-393 -149q-249 0 -396 145t-147 419zM632 1599l189 288h163l-262 -288h-90zM741 1599zM741 1599zM892 0z" />
<glyph unicode="&#xdb;" horiz-adv-x="1479" d="M0 1503zM202 533v939h133v-949q0 -201 110 -316t296 -115q177 0 291 111t114 320v949h133v-957q0 -248 -141 -397t-393 -149q-249 0 -396 145t-147 419zM458 1599l208 288h149l208 -288h-97l-187 210l-184 -210h-97zM741 1599zM741 1599zM892 0z" />
<glyph unicode="&#xdc;" horiz-adv-x="1479" d="M0 1503zM202 533v939h133v-949q0 -201 110 -316t296 -115q177 0 291 111t114 320v949h133v-957q0 -248 -141 -397t-393 -149q-249 0 -396 145t-147 419zM485 1711v180h152v-180h-152zM741 1599zM741 1599zM845 1711v180h152v-180h-152zM892 0z" />
<glyph unicode="&#xdd;" horiz-adv-x="1251" d="M0 1503zM16 1472h170l451 -713l457 713h143l-544 -834v-638h-133v638zM518 1599l189 288h163l-262 -288h-90zM627 1599zM627 1599z" />
<glyph unicode="&#xde;" horiz-adv-x="1251" d="M204 0v1472h133v-314h305q263 0 403 -103q140 -102 140 -315q0 -208 -136 -313t-407 -105h-305v-322h-133zM337 445h333q184 0 278 72q94 73 94 221q0 155 -96 226t-276 71h-333v-590z" />
<glyph unicode="&#xdf;" horiz-adv-x="1251" d="M179 0v1044q0 218 109 338q110 120 320 120q155 0 260 -89q106 -88 106 -217q0 -66 -54 -141q-54 -74 -102 -119q-42 -43 -61 -73q-18 -29 -18 -56q0 -70 112 -139l149 -88q88 -56 132 -116q44 -59 44 -149q0 -155 -99 -251q-98 -96 -250 -96q-153 0 -241 91 q-87 92 -87 230h133q0 -91 54 -150q54 -58 139 -58q103 0 160 53q58 53 58 172q0 112 -134 189l-128 72q-70 40 -123 103q-52 63 -52 131q0 95 117 207q118 113 118 188q0 85 -73 139t-180 54q-133 0 -210 -97q-76 -97 -76 -299v-993h-123z" />
<glyph unicode="&#xe0;" horiz-adv-x="1024" d="M73 288q0 141 117 241t424 100h125v99q0 104 -59 159q-59 56 -180 56q-118 0 -179 -43q-60 -42 -71 -132h-133q18 146 114 217q97 71 270 71q165 0 263 -79q98 -78 98 -263v-496q0 -46 10 -218h-127q-4 79 -4 158q-21 -66 -115 -128q-93 -62 -219 -62q-147 0 -241 86 q-93 87 -93 234zM206 282q0 -92 61 -147q62 -54 168 -54q146 0 225 91q79 92 79 262v82h-59q-285 0 -380 -60q-94 -59 -94 -174zM253 1440h163l189 -288h-90zM491 1152zM491 1152zM813 0z" />
<glyph unicode="&#xe1;" horiz-adv-x="1024" d="M73 288q0 141 117 241t424 100h125v99q0 104 -59 159q-59 56 -180 56q-118 0 -179 -43q-60 -42 -71 -132h-133q18 146 114 217q97 71 270 71q165 0 263 -79q98 -78 98 -263v-496q0 -46 10 -218h-127q-4 79 -4 158q-21 -66 -115 -128q-93 -62 -219 -62q-147 0 -241 86 q-93 87 -93 234zM206 282q0 -92 61 -147q62 -54 168 -54q146 0 225 91q79 92 79 262v82h-59q-285 0 -380 -60q-94 -59 -94 -174zM382 1152l189 288h163l-262 -288h-90zM491 1152zM491 1152zM813 0z" />
<glyph unicode="&#xe2;" horiz-adv-x="1024" d="M73 288q0 141 117 241t424 100h125v99q0 104 -59 159q-59 56 -180 56q-118 0 -179 -43q-60 -42 -71 -132h-133q18 146 114 217q97 71 270 71q165 0 263 -79q98 -78 98 -263v-496q0 -46 10 -218h-127q-4 79 -4 158q-21 -66 -115 -128q-93 -62 -219 -62q-147 0 -241 86 q-93 87 -93 234zM206 282q0 -92 61 -147q62 -54 168 -54q146 0 225 91q79 92 79 262v82h-59q-285 0 -380 -60q-94 -59 -94 -174zM208 1152l208 288h149l208 -288h-97l-187 210l-184 -210h-97zM491 1152zM491 1152zM813 0z" />
<glyph unicode="&#xe3;" horiz-adv-x="1024" d="M73 288q0 141 117 241t424 100h125v99q0 104 -59 159q-59 56 -180 56q-118 0 -179 -43q-60 -42 -71 -132h-133q18 146 114 217q97 71 270 71q165 0 263 -79q98 -78 98 -263v-496q0 -46 10 -218h-127q-4 79 -4 158q-21 -66 -115 -128q-93 -62 -219 -62q-147 0 -241 86 q-93 87 -93 234zM206 282q0 -92 61 -147q62 -54 168 -54q146 0 225 91q79 92 79 262v82h-59q-285 0 -380 -60q-94 -59 -94 -174zM211 1228q12 76 63 122q51 47 119 47q36 0 107 -23q72 -22 105 -22q39 0 62 24q24 25 24 44h80q-21 -87 -64 -131t-109 -44q-37 0 -103 22 q-66 23 -108 23q-50 0 -71 -16t-25 -46h-80zM491 1152zM491 1152zM813 0z" />
<glyph unicode="&#xe4;" horiz-adv-x="1024" d="M73 288q0 141 117 241t424 100h125v99q0 104 -59 159q-59 56 -180 56q-118 0 -179 -43q-60 -42 -71 -132h-133q18 146 114 217q97 71 270 71q165 0 263 -79q98 -78 98 -263v-496q0 -46 10 -218h-127q-4 79 -4 158q-21 -66 -115 -128q-93 -62 -219 -62q-147 0 -241 86 q-93 87 -93 234zM206 282q0 -92 61 -147q62 -54 168 -54q146 0 225 91q79 92 79 262v82h-59q-285 0 -380 -60q-94 -59 -94 -174zM235 1264v180h152v-180h-152zM491 1152zM491 1152zM595 1264v180h152v-180h-152zM813 0z" />
<glyph unicode="&#xe5;" horiz-adv-x="1024" d="M73 288q0 141 117 241t424 100h125v99q0 104 -59 159q-59 56 -180 56q-118 0 -179 -43q-60 -42 -71 -132h-133q18 146 114 217q97 71 270 71q165 0 263 -79q98 -78 98 -263v-496q0 -46 10 -218h-127q-4 79 -4 158q-21 -66 -115 -128q-93 -62 -219 -62q-147 0 -241 86 q-93 87 -93 234zM206 282q0 -92 61 -147q62 -54 168 -54q146 0 225 91q79 92 79 262v82h-59q-285 0 -380 -60q-94 -59 -94 -174zM311 1330q0 73 52 125q52 53 128 53q72 0 124 -53q53 -52 53 -125q0 -76 -54 -127q-53 -51 -126 -51t-125 51t-52 127zM380 1330q0 -46 32 -78 t78 -32q45 0 77 32t32 78q0 45 -33 77q-32 33 -77 33q-46 0 -78 -33q-31 -32 -31 -77zM491 1152zM491 1152zM813 0z" />
<glyph unicode="&#xe6;" horiz-adv-x="1706" d="M73 287q0 129 114 227t329 98h229v102q0 103 -61 166q-60 63 -179 63q-111 0 -178 -43q-66 -42 -77 -132h-133q20 144 112 216q93 72 258 72q152 0 240 -67q88 -66 103 -150q36 93 124 155t212 62q210 0 321 -134q111 -133 111 -421h-720q0 -189 73 -305 q74 -115 230 -115q108 0 185 79q78 80 90 160h129q-40 -165 -147 -259q-106 -93 -257 -93q-134 0 -230 69q-95 69 -133 173q-35 -103 -144 -173q-109 -69 -275 -69q-142 0 -234 86q-92 87 -92 233zM206 288q0 -103 66 -155t172 -52q148 0 224 91q77 91 77 256v71h-230 q-162 0 -236 -61q-73 -60 -73 -150zM878 614h587q0 159 -78 244q-77 85 -222 85q-128 0 -208 -99q-79 -99 -79 -230z" />
<glyph unicode="&#xe7;" horiz-adv-x="1024" d="M94 512q0 235 124 389q125 155 336 155q173 0 283 -102t110 -250h-133q-3 107 -72 173q-68 66 -205 66q-146 0 -228 -128t-82 -303q0 -182 86 -307q87 -124 233 -124q118 0 191 74q74 75 77 165h133q-14 -156 -117 -254q-102 -98 -280 -98q-212 0 -334 151 q-122 152 -122 393zM320 -320l14 53q138 -45 200 -45q53 0 78 21q26 22 26 62q0 37 -26 55q-26 19 -77 19q-20 0 -71 -6l64 177h48l-32 -112q104 0 156 -35q52 -34 52 -100q0 -60 -58 -96t-141 -36q-99 0 -233 43zM544 0zM544 0zM554 1152z" />
<glyph unicode="&#xe8;" d="M102 512q0 238 127 391q128 153 336 153q233 0 351 -150q119 -149 119 -421h-800q1 -180 93 -292q93 -112 268 -112q111 0 194 73q83 74 100 166h133q-46 -178 -164 -265q-117 -87 -300 -87q-215 0 -336 150q-121 151 -121 394zM239 598h663q-11 157 -98 251 q-86 94 -236 94q-146 0 -231 -100q-84 -100 -98 -245zM331 1440h163l189 -288h-90zM569 1152zM569 1152zM660 0z" />
<glyph unicode="&#xe9;" d="M102 512q0 238 127 391q128 153 336 153q233 0 351 -150q119 -149 119 -421h-800q1 -180 93 -292q93 -112 268 -112q111 0 194 73q83 74 100 166h133q-46 -178 -164 -265q-117 -87 -300 -87q-215 0 -336 150q-121 151 -121 394zM239 598h663q-11 157 -98 251 q-86 94 -236 94q-146 0 -231 -100q-84 -100 -98 -245zM460 1152l189 288h163l-262 -288h-90zM569 1152zM569 1152zM660 0z" />
<glyph unicode="&#xea;" d="M102 512q0 238 127 391q128 153 336 153q233 0 351 -150q119 -149 119 -421h-800q1 -180 93 -292q93 -112 268 -112q111 0 194 73q83 74 100 166h133q-46 -178 -164 -265q-117 -87 -300 -87q-215 0 -336 150q-121 151 -121 394zM239 598h663q-11 157 -98 251 q-86 94 -236 94q-146 0 -231 -100q-84 -100 -98 -245zM286 1152l208 288h149l208 -288h-97l-187 210l-184 -210h-97zM569 1152zM569 1152zM660 0z" />
<glyph unicode="&#xeb;" d="M102 512q0 238 127 391q128 153 336 153q233 0 351 -150q119 -149 119 -421h-800q1 -180 93 -292q93 -112 268 -112q111 0 194 73q83 74 100 166h133q-46 -178 -164 -265q-117 -87 -300 -87q-215 0 -336 150q-121 151 -121 394zM239 598h663q-11 157 -98 251 q-86 94 -236 94q-146 0 -231 -100q-84 -100 -98 -245zM313 1264v180h152v-180h-152zM569 1152zM569 1152zM660 0zM673 1264v180h152v-180h-152z" />
<glyph unicode="&#xec;" horiz-adv-x="455" d="M-11 1440h163l189 -288h-90zM0 1056zM165 0v1024h123v-1024h-123zM227 1152zM227 1152z" />
<glyph unicode="&#xed;" horiz-adv-x="455" d="M0 1056zM118 1152l189 288h163l-262 -288h-90zM165 0v1024h123v-1024h-123zM227 1152zM227 1152z" />
<glyph unicode="&#xee;" horiz-adv-x="455" d="M-56 1152l208 288h149l208 -288h-97l-187 210l-184 -210h-97zM0 1056zM165 0v1024h123v-1024h-123zM227 1152zM227 1152z" />
<glyph unicode="&#xef;" horiz-adv-x="455" d="M-29 1264v180h152v-180h-152zM0 1056zM165 0v1024h123v-1024h-123zM227 1152zM227 1152zM331 1264v180h152v-180h-152z" />
<glyph unicode="&#xf0;" d="M90 485q0 222 126 369q126 148 335 148q129 0 219 -65q90 -64 145 -190q-8 156 -92 310t-234 248l-190 -111l-60 60l165 98q-78 45 -190 69l35 83q149 -29 264 -91l195 117l62 -58l-178 -106q187 -124 275 -328q88 -203 88 -486q0 -277 -125 -431q-124 -153 -361 -153 q-221 0 -350 147t-129 370zM223 485q0 -173 97 -292q97 -118 253 -118t252 116q97 117 97 294q0 179 -101 294q-100 116 -249 116q-156 0 -253 -117q-96 -116 -96 -293z" />
<glyph unicode="&#xf1;" d="M153 1024h127q6 -87 6 -160q115 192 331 192q175 0 266 -109t91 -312v-635h-123v656q0 137 -71 212t-196 75q-141 0 -220 -98q-78 -98 -78 -252v-593h-123v804q0 67 -10 220zM289 1228q12 76 63 122q51 47 119 47q36 0 107 -23q72 -22 105 -22q39 0 62 24q24 25 24 44h80 q-21 -87 -64 -131t-109 -44q-37 0 -103 22q-66 23 -108 23q-50 0 -71 -16t-25 -46h-80zM569 0zM569 1152zM569 1152z" />
<glyph unicode="&#xf2;" d="M90 512q0 244 132 394q133 150 347 150q229 0 357 -157q129 -156 129 -387q0 -245 -135 -395q-135 -149 -351 -149q-218 0 -349 158q-130 158 -130 386zM223 512q0 -174 96 -303q96 -128 254 -128q171 0 260 133t89 298q0 185 -96 308q-95 123 -254 123q-165 0 -257 -128 t-92 -303zM335 1440h163l189 -288h-90zM573 1152zM573 1152z" />
<glyph unicode="&#xf3;" d="M90 512q0 244 132 394q133 150 347 150q229 0 357 -157q129 -156 129 -387q0 -245 -135 -395q-135 -149 -351 -149q-218 0 -349 158q-130 158 -130 386zM223 512q0 -174 96 -303q96 -128 254 -128q171 0 260 133t89 298q0 185 -96 308q-95 123 -254 123q-165 0 -257 -128 t-92 -303zM464 1152l189 288h163l-262 -288h-90zM573 1152zM573 1152z" />
<glyph unicode="&#xf4;" d="M90 512q0 244 132 394q133 150 347 150q229 0 357 -157q129 -156 129 -387q0 -245 -135 -395q-135 -149 -351 -149q-218 0 -349 158q-130 158 -130 386zM223 512q0 -174 96 -303q96 -128 254 -128q171 0 260 133t89 298q0 185 -96 308q-95 123 -254 123q-165 0 -257 -128 t-92 -303zM290 1152l208 288h149l208 -288h-97l-187 210l-184 -210h-97zM573 1152zM573 1152z" />
<glyph unicode="&#xf5;" d="M90 512q0 244 132 394q133 150 347 150q229 0 357 -157q129 -156 129 -387q0 -245 -135 -395q-135 -149 -351 -149q-218 0 -349 158q-130 158 -130 386zM223 512q0 -174 96 -303q96 -128 254 -128q171 0 260 133t89 298q0 185 -96 308q-95 123 -254 123q-165 0 -257 -128 t-92 -303zM293 1228q12 76 63 122q51 47 119 47q36 0 107 -23q72 -22 105 -22q39 0 62 24q24 25 24 44h80q-21 -87 -64 -131t-109 -44q-37 0 -103 22q-66 23 -108 23q-50 0 -71 -16t-25 -46h-80zM573 1152zM573 1152z" />
<glyph unicode="&#xf6;" d="M90 512q0 244 132 394q133 150 347 150q229 0 357 -157q129 -156 129 -387q0 -245 -135 -395q-135 -149 -351 -149q-218 0 -349 158q-130 158 -130 386zM223 512q0 -174 96 -303q96 -128 254 -128q171 0 260 133t89 298q0 185 -96 308q-95 123 -254 123q-165 0 -257 -128 t-92 -303zM317 1264v180h152v-180h-152zM573 1152zM573 1152zM677 1264v180h152v-180h-152z" />
<glyph unicode="&#xf7;" horiz-adv-x="1352" d="M163 453v123h1018v-123h-1018zM595 5v176h154v-176h-154zM595 848v176h154v-176h-154z" />
<glyph unicode="&#xf8;" d="M67 19l126 135q-103 147 -103 356q0 243 131 394q131 152 349 152q202 0 333 -131l119 131l50 -51l-123 -135q106 -148 106 -360q0 -233 -130 -388q-129 -154 -356 -154q-201 0 -333 131l-119 -131zM223 513q0 -143 63 -255l530 572q-97 113 -243 113q-162 0 -256 -124 q-94 -123 -94 -306zM328 199q90 -118 245 -118q173 0 261 133t88 298q0 146 -65 258z" />
<glyph unicode="&#xf9;" d="M0 1056zM163 389v635h123v-656q0 -137 70 -212q71 -75 197 -75q140 0 219 95q79 96 79 255v593h123v-804q0 -68 10 -220h-127q-6 86 -6 160q-116 -192 -331 -192q-176 0 -267 111q-90 111 -90 310zM329 1440h163l189 -288h-90zM567 1152zM567 1152zM917 0z" />
<glyph unicode="&#xfa;" d="M0 1056zM163 389v635h123v-656q0 -137 70 -212q71 -75 197 -75q140 0 219 95q79 96 79 255v593h123v-804q0 -68 10 -220h-127q-6 86 -6 160q-116 -192 -331 -192q-176 0 -267 111q-90 111 -90 310zM458 1152l189 288h163l-262 -288h-90zM567 1152zM567 1152zM917 0z" />
<glyph unicode="&#xfb;" d="M0 1056zM163 389v635h123v-656q0 -137 70 -212q71 -75 197 -75q140 0 219 95q79 96 79 255v593h123v-804q0 -68 10 -220h-127q-6 86 -6 160q-116 -192 -331 -192q-176 0 -267 111q-90 111 -90 310zM284 1152l208 288h149l208 -288h-97l-187 210l-184 -210h-97zM567 1152z M567 1152zM917 0z" />
<glyph unicode="&#xfc;" d="M0 1056zM163 389v635h123v-656q0 -137 70 -212q71 -75 197 -75q140 0 219 95q79 96 79 255v593h123v-804q0 -68 10 -220h-127q-6 86 -6 160q-116 -192 -331 -192q-176 0 -267 111q-90 111 -90 310zM311 1264v180h152v-180h-152zM567 1152zM567 1152zM671 1264v180h152 v-180h-152zM917 0z" />
<glyph unicode="&#xfd;" horiz-adv-x="1024" d="M0 1056zM17 1024h150l346 -857l347 857h133l-570 -1424h-135l157 395zM404 1152l189 288h163l-262 -288h-90zM513 1152zM513 1152z" />
<glyph unicode="&#xfe;" d="M133 -400v1872h123v-608q104 192 371 192q195 0 304 -155q109 -154 109 -393t-112 -390q-112 -150 -308 -150q-127 0 -218 49t-146 143v-560h-123zM256 495q0 -182 84 -298q85 -116 252 -116q151 0 233 117q82 118 82 317q0 187 -76 307q-75 121 -227 121 q-164 0 -256 -114t-92 -334z" />
<glyph unicode="&#xff;" horiz-adv-x="1024" d="M0 1056zM17 1024h150l346 -857l347 857h133l-570 -1424h-135l157 395zM257 1264v180h152v-180h-152zM513 1152zM513 1152zM617 1264v180h152v-180h-152z" />
<glyph unicode="&#x152;" horiz-adv-x="2048" d="M125 736q0 353 168 560q169 207 450 207q245 0 390 -160v129h769v-123h-636v-528h607v-123h-607v-575h667v-123h-800v161q-139 -192 -382 -192q-284 0 -455 203q-171 204 -171 564zM268 736q0 -280 125 -462q126 -182 342 -182q183 0 288 96q106 97 106 294v480 q0 210 -97 314q-96 104 -286 104q-226 0 -352 -184t-126 -460z" />
<glyph unicode="&#x153;" horiz-adv-x="1821" d="M90 512q0 242 130 393t333 151q133 0 231 -65q99 -64 153 -191q32 109 127 182q96 74 219 74q213 0 328 -148q116 -147 116 -423h-720q0 -191 71 -298q72 -106 225 -106q104 0 182 76q79 77 96 163h133q-31 -152 -143 -252q-111 -100 -267 -100q-154 0 -247 69 q-92 69 -120 187q-33 -104 -134 -180q-100 -76 -250 -76q-205 0 -334 149q-129 150 -129 395zM223 512q0 -184 91 -308q92 -123 240 -123q155 0 237 114q83 114 83 307q0 208 -82 324q-82 117 -221 117q-165 0 -257 -124q-91 -124 -91 -307zM1007 598h587q0 160 -75 252 q-74 93 -223 93q-140 0 -215 -107q-74 -106 -74 -238z" />
<glyph unicode="&#x178;" horiz-adv-x="1251" d="M0 1503zM16 1472h170l451 -713l457 713h143l-544 -834v-638h-133v638zM371 1711v180h152v-180h-152zM627 1599zM627 1599zM731 1711v180h152v-180h-152z" />
<glyph unicode="&#x2c6;" horiz-adv-x="569" d="M0 1152l208 288h149l208 -288h-97l-187 210l-184 -210h-97zM283 1152z" />
<glyph unicode="&#x2dc;" horiz-adv-x="569" d="M0 1228q12 76 63 122q51 47 119 47q36 0 107 -23q72 -22 105 -22q39 0 62 24q24 25 24 44h80q-21 -87 -64 -131t-109 -44q-37 0 -103 22q-66 23 -108 23q-50 0 -71 -16t-25 -46h-80zM280 1152z" />
<glyph unicode="&#x2000;" horiz-adv-x="977" />
<glyph unicode="&#x2001;" horiz-adv-x="1955" />
<glyph unicode="&#x2002;" horiz-adv-x="977" />
<glyph unicode="&#x2003;" horiz-adv-x="1955" />
<glyph unicode="&#x2004;" horiz-adv-x="651" />
<glyph unicode="&#x2005;" horiz-adv-x="488" />
<glyph unicode="&#x2006;" horiz-adv-x="325" />
<glyph unicode="&#x2007;" horiz-adv-x="325" />
<glyph unicode="&#x2008;" horiz-adv-x="244" />
<glyph unicode="&#x2009;" horiz-adv-x="391" />
<glyph unicode="&#x200a;" horiz-adv-x="108" />
<glyph unicode="&#x2010;" horiz-adv-x="569" d="M32 485v123h512v-123h-512z" />
<glyph unicode="&#x2011;" horiz-adv-x="569" d="M32 485v123h512v-123h-512z" />
<glyph unicode="&#x2012;" horiz-adv-x="569" d="M32 485v123h512v-123h-512z" />
<glyph unicode="&#x2013;" horiz-adv-x="1024" d="M0 485v123h1024v-123h-1024z" />
<glyph unicode="&#x2014;" horiz-adv-x="2048" d="M0 485v123h2048v-123h-2048z" />
<glyph unicode="&#x2018;" horiz-adv-x="569" d="M153 1056l149 416h107l-90 -416h-166z" />
<glyph unicode="&#x2019;" horiz-adv-x="569" d="M160 1056l90 416h166l-149 -416h-107z" />
<glyph unicode="&#x201a;" horiz-adv-x="569" d="M160 -257l90 416h166l-149 -416h-107z" />
<glyph unicode="&#x201c;" d="M235 1056l149 416h107l-90 -416h-166zM619 1056l149 416h107l-90 -416h-166z" />
<glyph unicode="&#x201d;" d="M264 1056l90 416h166l-149 -416h-107zM648 1056l90 416h166l-149 -416h-107z" />
<glyph unicode="&#x201e;" d="M264 -257l90 416h166l-149 -416h-107zM648 -257l90 416h166l-149 -416h-107z" />
<glyph unicode="&#x2022;" horiz-adv-x="1024" d="M138 743q0 153 107 260q107 108 261 108q153 0 260 -108q108 -107 108 -260q0 -154 -108 -261q-107 -107 -260 -107q-154 0 -261 107t-107 261z" />
<glyph unicode="&#x2026;" horiz-adv-x="2048" d="M261 0v177h164v-177h-164zM949 0v177h164v-177h-164zM1637 0v177h164v-177h-164z" />
<glyph unicode="&#x202f;" horiz-adv-x="391" />
<glyph unicode="&#x2039;" horiz-adv-x="569" d="M121 544l215 -400h105l-190 400l190 400h-102z" />
<glyph unicode="&#x203a;" horiz-adv-x="569" d="M128 144l190 400l-190 400h102l218 -400l-215 -400h-105z" />
<glyph unicode="&#x205f;" horiz-adv-x="488" />
<glyph unicode="&#x20ac;" d="M25 545l36 123h125q0 84 6 144h-167l36 123h145q47 247 181 383q135 136 325 136q202 0 314 -114t119 -265h-143q-13 111 -92 183q-78 73 -200 73q-132 0 -229 -95q-96 -94 -134 -301h574l-36 -123h-552q-4 -60 -4 -144h512l-36 -123h-465q34 -225 132 -339 q98 -113 247 -113q121 0 201 73q81 74 98 183h143q-19 -159 -137 -269q-117 -110 -304 -110q-218 0 -354 147q-135 147 -171 428h-170z" />
<glyph unicode="&#x2122;" horiz-adv-x="1925" d="M65 1389v83h654v-83h-271v-765h-112v765h-271zM873 624v848h202l249 -629l248 629h202v-848h-112v768l-304 -768h-69l-304 768v-768h-112z" />
<glyph unicode="&#xe000;" horiz-adv-x="1025" d="M0 0v1025h1025v-1025h-1025z" />
<glyph unicode="&#xfb01;" d="M44 911v113h208v220q0 124 60 187q61 64 187 64q63 0 116 -23v-99q-41 9 -80 9q-94 0 -127 -42q-33 -41 -33 -139v-177h240v-113h-240v-911h-123v911h-208zM818 1328v153h143v-153h-143zM828 0v1024h123v-1024h-123z" />
<glyph unicode="&#xfb02;" d="M44 911v113h208v220q0 124 60 187q61 64 187 64q58 0 116 -23v-99q-37 9 -80 9q-94 0 -127 -42q-33 -41 -33 -125v-191h240v-113h-240v-911h-123v911h-208zM828 0v1472h123v-1472h-123z" />
</font>
</defs>
</svg>
