<?xml version="1.0" standalone="no"?>
<!DOCTYPE svg PUBLIC "-//W3C//DTD SVG 1.1//EN" "http://www.w3.org/Graphics/SVG/1.1/DTD/svg11.dtd" >
<svg xmlns="http://www.w3.org/2000/svg">
<metadata>
This is a custom SVG webfont generated by Font Squirrel.
Copyright   : C2007 House IndustriesBrand Design Co Inc All Rights Reserved
Designer    : Christian Schwartz
Foundry     : House Industries
Foundry URL : httpwwwhouseindustriescom
</metadata>
<defs>
<font id="webfontMTLVClax" horiz-adv-x="1597" >
<font-face units-per-em="2048" ascent="1597" descent="-451" />
<missing-glyph horiz-adv-x="421" />
<glyph unicode=" "  horiz-adv-x="421" />
<glyph unicode="&#x09;" horiz-adv-x="421" />
<glyph unicode="&#xa0;" horiz-adv-x="421" />
<glyph unicode="!" horiz-adv-x="550" d="M168 473l129 920h303l-223 -920h-209zM229.5 -12q-69.5 0 -118 48t-48.5 122q0 72 48.5 121t118 49t118.5 -49.5t49 -120.5q0 -74 -49 -122t-118.5 -48z" />
<glyph unicode="&#x22;" horiz-adv-x="819" d="M569 887l58 506h293l-129 -506h-222zM184 887l60 506h288l-126 -506h-222z" />
<glyph unicode="#" horiz-adv-x="972" d="M285 862h-140l37 207h154l51 199h211l-51 -199h145l51 199h211l-51 -199h119l-37 -207h-133l-39 -157h143l-36 -207h-158l-51 -207h-211l51 207h-145l-52 -207h-211l52 207h-115l37 207h129zM641 862h-145l-39 -157h145z" />
<glyph unicode="$" horiz-adv-x="974" d="M289 -238l41 232q-246 45 -346 256l211 106q57 -119 172 -153l41 237l-19 6q-283 94 -283 332q0 145 108 227t280 82h26l37 205h133l-39 -223q168 -43 258 -176l-186 -129q-39 70 -109 98l-36 -209l22 -8q158 -57 232.5 -136t74.5 -202q0 -164 -121.5 -243.5 t-320.5 -81.5h-4l-39 -220h-133zM496 188q156 12 155 101q0 39 -25.5 64.5t-90.5 47.5zM453 692l32 195q-131 -6 -131 -92q1 -68 99 -103z" />
<glyph unicode="%" horiz-adv-x="1794" d="M436 444q-141 0 -232 91.5t-91 222.5q0 145 97 237t236 92q143 0 233.5 -88t90.5 -219q0 -145 -97.5 -240.5t-236.5 -95.5zM358 0l859 1069h260l-859 -1069h-260zM1389 -18q-141 0 -232.5 91t-91.5 222q0 145 97.5 237.5t236.5 92.5q143 0 233 -88t90 -220 q0 -145 -97 -240t-236 -95zM438 643q45 0 77 37t32 92q0 57 -29 87t-72 30q-47 0 -77.5 -35t-30.5 -94q0 -53 29.5 -85t70.5 -32zM1391 180q45 0 76.5 37t31.5 92q0 57 -28.5 87t-71.5 30q-47 0 -78 -35t-31 -94q0 -53 30 -85t71 -32z" />
<glyph unicode="&#x26;" horiz-adv-x="1394" d="M791 750l174 -277q63 115 82 266h247q-37 -287 -190 -483q25 -27 70 -27h118l-41 -229h-112q-152 0 -234 80q-162 -98 -342 -98q-238 0 -367.5 110.5t-129.5 280.5q0 145 91 247.5t275 186.5q-66 127 -65 262q0 152 104 246t281 94q145 0 240 -86t95 -219 q1 -219 -296 -354zM690 907q156 72 156 183q0 45 -26.5 76.5t-69.5 31.5q-51 0 -83 -36t-32 -91q0 -78 47 -151zM766 272l-234 369q-170 -92 -170 -248q0 -74 53.5 -122t145.5 -48q113 0 205 49z" />
<glyph unicode="'" horiz-adv-x="432" d="M184 887l60 506h288l-126 -506h-222z" />
<glyph unicode="(" horiz-adv-x="690" d="M356 -272q-104 135 -174.5 318t-70.5 388q0 199 48 368t137 296t170 210t189 165l127 -146q-391 -356 -391 -897q0 -328 146 -592z" />
<glyph unicode=")" horiz-adv-x="690" d="M102 -272l-131 145q391 356 391 897q0 328 -145 592l180 111q104 -135 175 -318.5t71 -388.5q0 -199 -48 -368t-136 -296t-169.5 -209.5t-187.5 -164.5z" />
<glyph unicode="*" horiz-adv-x="847" d="M389 733l86 234l-184 -148l-94 211l233 41l-223 86l135 189l152 -183l-41 230h239l-86 -234l180 156l95 -215l-236 -41l225 -86l-135 -187l-147 177l41 -230h-240z" />
<glyph unicode="+" horiz-adv-x="825" d="M535 436l-41 -229h-234l41 229h-219l41 226h217l41 229h233l-41 -229h218l-41 -226h-215z" />
<glyph unicode="," horiz-adv-x="491" d="M-2 -233l127 243q-90 49 -90 152q0 70 48 118t117.5 48t118 -49.5t48.5 -120.5q0 -74 -72 -170l-162 -221h-135z" />
<glyph unicode="-" horiz-adv-x="598" d="M59 377l43 237h463l-43 -237h-463z" />
<glyph unicode="." horiz-adv-x="491" d="M200.5 -12q-69.5 0 -117.5 48t-48 122q0 72 48 121t117.5 49t118 -49.5t48.5 -120.5q0 -74 -48.5 -122t-118 -48z" />
<glyph unicode="/" horiz-adv-x="811" d="M-150 -262l865 1741h268l-864 -1741h-269z" />
<glyph unicode="0" horiz-adv-x="1253" d="M628.5 -18q-227.5 0 -384 152.5t-156.5 385.5q0 258 175 412.5t402.5 154.5t384 -152.5t156.5 -385.5q0 -258 -175 -412.5t-402.5 -154.5zM635 221q123 0 204 86t81 242q0 137 -72 218t-189 81q-121 0 -202.5 -87t-81.5 -241q0 -137 71.5 -218t188.5 -81z" />
<glyph unicode="1" horiz-adv-x="657" d="M172 0l150 846h-197l39 223h471l-189 -1069h-274z" />
<glyph unicode="2" horiz-adv-x="972" d="M-14 0v25l452 426q117 109 159 165t42 117q0 49 -28.5 81t-86.5 32q-113 0 -172 -146l-250 64q53 170 169 246.5t268 76.5q186 0 282.5 -95t96.5 -230q0 -111 -55.5 -198t-186.5 -210l-74 -69q-37 -35 -106 -70q76 10 116 10h265l-39 -225h-852z" />
<glyph unicode="3" horiz-adv-x="1042" d="M449 -211q-186 0 -308.5 81t-175.5 204l244 121q70 -166 233 -166q90 0 152.5 54t62.5 159q0 92 -65.5 146t-169.5 54q-94 0 -176 -39l-17 25l289 336q20 23 45 46.5t39 35.5l16 12q-78 -10 -135 -10h-297l39 221h817v-22l-305 -357q-16 -18 -39 -38l-34 -29l-15 -11 q117 -29 207 -122t90 -252q0 -193 -132 -321t-365 -128z" />
<glyph unicode="4" horiz-adv-x="1112" d="M864 205h142l-37 -205h-142l-32 -193h-273l35 193h-582l33 188l983 893h29zM594 205l33 188q8 47 39 131l-19 -19l-38 -39l-38 -38l-172 -156q-45 -41 -98 -73q55 6 113 6h180z" />
<glyph unicode="5" horiz-adv-x="993" d="M416 -211q-176 0 -291 79t-160 198l248 110q55 -147 193 -147q100 0 149 52t49 138q0 80 -58.5 133.5t-162.5 53.5q-123 0 -240 -80l-16 10l129 733h688l-39 -221h-454l-39 -234q49 12 96 13q174 0 281.5 -118t107.5 -280q0 -184 -129 -312t-352 -128z" />
<glyph unicode="6" horiz-adv-x="1071" d="M522 -18q-197 0 -324.5 120.5t-127.5 311.5q0 195 206 426l365 407h317l-309 -344q-41 -45 -168 -119q66 29 150 29q152 0 261 -110.5t109 -282.5q0 -203 -136 -320.5t-343 -117.5zM530 219q86 0 138.5 57.5t52.5 143.5q0 80 -49 134t-131 54q-88 0 -140.5 -56 t-52.5 -142q0 -80 50 -135.5t132 -55.5z" />
<glyph unicode="7" horiz-adv-x="983" d="M27 -193l612 1041h-502l39 221h871v-22l-728 -1240h-292z" />
<glyph unicode="8" horiz-adv-x="1083" d="M510 -18q-197 0 -322 107.5t-125 266.5q0 109 71 200t208 134q-111 78 -111 219q0 156 116 256.5t308 100.5q188 0 290 -94.5t102 -229.5q0 -90 -56.5 -162.5t-154.5 -113.5q170 -84 170 -274.5t-142.5 -300t-353.5 -109.5zM530 217q86 0 141.5 51t55.5 142 q0 74 -48 119.5t-132 45.5q-88 0 -144.5 -52t-56.5 -142q0 -70 51 -117t133 -47zM627 778q59 0 99 40t40 108q0 53 -33 87t-88 34q-59 0 -100 -39t-41 -109q0 -51 34 -86t89 -35z" />
<glyph unicode="9" horiz-adv-x="1071" d="M147 -193l320 351q43 47 168 131q-63 -33 -150 -33q-154 0 -264 108.5t-110 280.5q0 203 136 322.5t339 119.5q199 0 327.5 -118.5t128.5 -313.5q0 -205 -227 -458l-346 -390h-322zM571 461q88 0 140.5 57t52.5 144q0 84 -49 136t-133 52q-88 0 -139.5 -57.5 t-51.5 -143.5q0 -84 49 -136t131 -52z" />
<glyph unicode=":" horiz-adv-x="503" d="M288.5 463q-69.5 0 -117.5 48t-48 122q0 72 49 121t116.5 49t117 -49t49.5 -121q0 -74 -48.5 -122t-118 -48zM206.5 -12q-69.5 0 -117.5 48t-48 122q0 72 49 121t116.5 49t117 -49.5t49.5 -120.5q0 -74 -48.5 -122t-118 -48z" />
<glyph unicode=";" horiz-adv-x="503" d="M288.5 463q-69.5 0 -117.5 48t-48 122q0 72 49 121t116.5 49t117 -49t49.5 -121q0 -74 -48.5 -122t-118 -48zM4 -233l127 243q-90 49 -90 152q0 70 48 118t118 48q68 0 117 -49.5t49 -120.5q0 -74 -72 -170l-162 -221h-135z" />
<glyph unicode="&#x3c;" horiz-adv-x="718" d="M598 147l-535 340v23l658 338l-43 -246l-254 -115l213 -114z" />
<glyph unicode="=" horiz-adv-x="813" d="M98 571l41 236h670l-41 -236h-670zM39 236l43 235h670l-43 -235h-670z" />
<glyph unicode="&#x3e;" horiz-adv-x="718" d="M27 147l43 246l254 115l-213 115l39 225l534 -340v-23z" />
<glyph unicode="?" horiz-adv-x="1030" d="M412 473l57 326h72q119 0 178 56t59 144q0 76 -44 123t-120 47q-125 0 -211 -133l-208 123q55 109 168.5 179.5t254.5 70.5q205 0 319 -116.5t114 -295.5q0 -164 -103.5 -270t-261.5 -127l-22 -127h-252zM487.5 -12q-69.5 0 -117.5 48t-48 122q0 72 48 121t117.5 49 t118.5 -49.5t49 -120.5q0 -74 -49 -122t-118.5 -48z" />
<glyph unicode="@" horiz-adv-x="1835" d="M918 -424q-389 0 -617.5 224.5t-228.5 572.5q0 260 122.5 461.5t323.5 306t438 104.5q371 0 592 -213t221 -528q0 -256 -111.5 -384t-301.5 -128q-104 0 -174 46t-97 116q-82 -172 -254 -172q-154 0 -250 108.5t-96 280.5q0 193 106.5 311.5t256.5 118.5q174 0 244 -160 l18 139h258l-80 -448q-29 -150 80 -150q74 0 124 79t50 249q0 252 -162.5 392t-423.5 140q-279 0 -460 -186t-181 -485q0 -268 159 -430t448 -162q164 0 313 49l72 -186q-153 -66 -389 -66zM907 199q63 0 104.5 58t41.5 144q0 74 -39 126.5t-96 52.5q-70 0 -112 -53.5 t-42 -151.5q0 -84 38.5 -130t104.5 -46z" />
<glyph unicode="A" horiz-adv-x="1333" d="M-31 0l848 1405h23l377 -1405h-285l-51 197h-514l-117 -197h-281zM500 420h325l-55 217q-35 137 -35 229q-35 -106 -106 -225z" />
<glyph unicode="B" horiz-adv-x="1243" d="M66 0l243 1393h488q188 0 288.5 -96.5t100.5 -247.5q0 -252 -256 -322q217 -72 217 -299q0 -190 -130 -309t-353 -119h-598zM389 244h283q84 0 138 56t54 142q0 74 -47 117t-129 43h-235zM496 838h221q92 0 140 46t48 128q0 137 -147 137h-207z" />
<glyph unicode="C" horiz-adv-x="1447" d="M805 -18q-285 0 -475.5 197.5t-190.5 488.5q0 317 217 529t518 212q199 0 327 -69.5t229 -217.5l-230 -149q-117 186 -334 186q-190 0 -312 -142.5t-122 -350.5q0 -190 109.5 -312.5t273.5 -122.5q215 0 342 160l211 -162q-211 -247 -563 -247z" />
<glyph unicode="D" horiz-adv-x="1366" d="M66 0l245 1393h365q305 0 479 -174.5t174 -468.5q0 -348 -218 -549t-570 -201h-475zM389 246h158q240 0 365.5 142t125.5 374q0 182 -98 283.5t-299 101.5h-92z" />
<glyph unicode="E" horiz-adv-x="1179" d="M66 0l245 1393h903l-43 -246h-624l-58 -328h547l-43 -241h-547l-59 -332h653l-45 -246h-929z" />
<glyph unicode="F" horiz-adv-x="1110" d="M66 0l245 1393h879l-43 -246h-598l-66 -371h543l-45 -250h-543l-92 -526h-280z" />
<glyph unicode="G" horiz-adv-x="1529" d="M862 -18q-332 0 -523.5 189t-191.5 499q0 330 219.5 534.5t526.5 204.5q186 0 303 -46t209 -136l-197 -191q-127 123 -321.5 123t-322.5 -132t-128 -355q0 -205 113 -324t317 -119q145 0 260 54l41 235h-329l43 244h585l-110 -637q-209 -143 -494 -143z" />
<glyph unicode="H" horiz-adv-x="1423" d="M66 0l245 1393h281l-105 -594h582l107 594h280l-246 -1393h-280l96 551h-584l-96 -551h-280z" />
<glyph unicode="I" horiz-adv-x="575" d="M74 0l245 1393h281l-246 -1393h-280z" />
<glyph unicode="J" horiz-adv-x="995" d="M406 -18q-156 0 -259.5 75.5t-148.5 188.5l244 133q33 -70 69.5 -108t100.5 -38q72 0 111.5 39t58.5 146l172 975h280l-178 -1010q-37 -215 -147 -308t-303 -93z" />
<glyph unicode="K" horiz-adv-x="1302" d="M66 0l243 1393h283l-80 -457q-14 -82 -59 -234q78 129 178 234l436 457h324l-582 -611l387 -782h-315l-277 580l-186 -170l-70 -410h-282z" />
<glyph unicode="L" horiz-adv-x="1114" d="M66 0l245 1393h281l-203 -1147h619l-43 -246h-899z" />
<glyph unicode="M" horiz-adv-x="1658" d="M66 0l247 1407h21l522 -758l811 758h25l-248 -1407h-268l92 522l55 254q-94 -129 -176 -207l-326 -309h-22l-217 309q-74 102 -125 205q0 -2 -4 -45t-11.5 -104.5t-15.5 -102.5l-92 -522h-268z" />
<glyph unicode="N" horiz-adv-x="1398" d="M1157 -12l-565 678q-35 43 -129 198q0 -115 -27 -254l-108 -610h-262l247 1405h27l567 -680q72 -88 129 -201q0 115 25 256l108 613h263l-248 -1405h-27z" />
<glyph unicode="O" d="M815 -18q-289 0 -482.5 194.5t-193.5 495.5q0 330 215 533.5t525 203.5q289 0 483 -194.5t194 -495.5q0 -330 -216 -533.5t-525 -203.5zM825 231q201 0 322 134.5t121 359.5q0 197 -110.5 315.5t-287.5 118.5q-201 0 -321.5 -134t-120.5 -359q0 -197 110.5 -316 t286.5 -119z" />
<glyph unicode="P" horiz-adv-x="1208" d="M66 0l243 1393h449q209 0 339 -108q132 -109 132 -327q0 -237 -156 -366q-158 -131 -401 -131h-246l-80 -461h-280zM469 705h217q119 0 187.5 61t68.5 186q0 98 -58.5 147.5t-156.5 49.5h-180z" />
<glyph unicode="Q" d="M1329 182l154 -200l-209 -162l-168 219q-123 -57 -291 -57q-289 0 -482.5 194.5t-193.5 495.5q0 330 215 533.5t525 203.5q289 0 483 -194.5t194 -495.5q0 -320 -227 -537zM952 240l-141 186l209 162l156 -205q92 123 92 342q0 197 -110.5 315.5t-287.5 118.5 q-201 0 -321.5 -134t-120.5 -359q0 -197 110.5 -319t286.5 -122q72 1 127 15z" />
<glyph unicode="R" horiz-adv-x="1280" d="M856 0l-215 487h-211l-84 -487h-280l243 1393h465q205 0 337 -111t134 -313q0 -164 -90 -280t-242 -167l238 -522h-295zM471 721h234q119 0 186 62.5t67 172.5q0 92 -59 142.5t-156 50.5h-196z" />
<glyph unicode="S" horiz-adv-x="1077" d="M516 -18q-182 0 -319.5 85t-194.5 197l221 150q115 -186 293 -187q88 0 142.5 40t54.5 108q0 55 -35 91t-139 103l-66 43q-137 90 -199.5 183.5t-62.5 226.5q0 166 115.5 276.5t326.5 110.5q260 0 406 -217l-207 -166q-98 141 -211 141q-74 0 -114 -38.5t-40 -94.5 q0 -51 32 -89t112 -89l67 -43q158 -100 229.5 -189t71.5 -229q0 -201 -134 -307t-349 -106z" />
<glyph unicode="T" horiz-adv-x="1177" d="M377 0l203 1147h-392l43 246h1061l-43 -246h-387l-203 -1147h-282z" />
<glyph unicode="U" horiz-adv-x="1370" d="M662 -18q-264 0 -407 157q-108 120 -108 297q0 56 11 117l147 840h283l-152 -861q-8 -44 -8 -81q0 -89 44 -143q62 -77 204 -77q129 0 198.5 67t94.5 206l157 889h283l-166 -934q-43 -236 -193 -356.5t-388 -120.5z" />
<glyph unicode="V" horiz-adv-x="1325" d="M608 -12l-397 1405h285l141 -523q16 -57 31.5 -145t23.5 -147l6 -60q88 213 160 338l309 537h291l-821 -1405h-29z" />
<glyph unicode="W" horiz-adv-x="1912" d="M473 -12l-262 1405h291l92 -541q31 -178 31 -281q2 6 20.5 47t50 105.5t60.5 110.5l362 571h29l151 -555q12 -45 26 -112l24 -115l8 -52q2 8 16 48t41 106t51 109l295 559h287l-750 -1405h-26l-180 655q-10 39 -21.5 97.5t-16.5 97.5t-5 45l-19 -39l-48 -93 q-28 -54 -50 -92l-430 -671h-27z" />
<glyph unicode="X" horiz-adv-x="1314" d="M-27 0l582 766l-260 627h303l90 -226q35 -90 62 -223q2 6 18 39t45 84t55 86l179 240h305l-475 -629l317 -764h-303l-143 358q-35 80 -64 226q0 -2 -8 -18l-22 -39l-28 -50l-34 -56q-18 -30 -35 -50l-278 -371h-306z" />
<glyph unicode="Y" horiz-adv-x="1271" d="M422 0l90 516l-317 877h301l129 -373q37 -106 65 -281q84 168 156 275l258 379h297l-608 -875l-91 -518h-280z" />
<glyph unicode="Z" horiz-adv-x="1218" d="M4 0v25l797 1124h-518l43 244h946v-25l-799 -1124h596l-43 -244h-1022z" />
<glyph unicode="[" horiz-adv-x="675" d="M0 -262l307 1741h496l-39 -228h-225l-228 -1286h226l-41 -227h-496z" />
<glyph unicode="\" horiz-adv-x="811" d="M465 -262l-264 1741h254l264 -1741h-254z" />
<glyph unicode="]" horiz-adv-x="675" d="M-61 -262l41 227h225l227 1286h-225l39 228h495l-307 -1741h-495z" />
<glyph unicode="^" horiz-adv-x="880" d="M197 915l407 492h21l235 -492h-209l-92 156l-141 -156h-221z" />
<glyph unicode="_" horiz-adv-x="567" d="M-125 -262l43 239h576l-43 -239h-576z" />
<glyph unicode="`" horiz-adv-x="1003" d="M463 1024l-187 385h312l80 -385h-205z" />
<glyph unicode="a" horiz-adv-x="1089" d="M410 -18q-145 0 -243.5 114.5t-98.5 302.5q0 227 119.5 359.5t293.5 132.5q197 0 281 -158l18 139h271l-109 -618q-1 -8 -1 -15q0 -37 38 -36h61l-34 -203h-103q-135 0 -180 29.5t-57 91.5l-2 10q-53 -80 -109.5 -114.5t-144.5 -34.5zM518 215q86 0 139.5 66.5 t53.5 171.5q0 94 -44 148t-124 54q-88 0 -140.5 -66.5t-52.5 -176.5q0 -92 44 -144.5t124 -52.5z" />
<glyph unicode="b" horiz-adv-x="1097" d="M623 -18q-209 0 -299 180l-21 -162h-270l260 1479h270l-127 -723q100 135 248 135q152 0 252 -114.5t100 -303.5q0 -219 -121.5 -355t-291.5 -136zM551 215q94 0 148.5 66.5t54.5 177.5q0 92 -47.5 144t-131.5 52q-90 0 -146 -66.5t-56 -170.5q0 -92 47 -147.5t131 -55.5 z" />
<glyph unicode="c" horiz-adv-x="931" d="M530 -18q-203 0 -330.5 121.5t-127.5 324.5q0 205 137 334t344 129q242 0 367 -174l-199 -156q-59 94 -170 94q-90 0 -144.5 -63.5t-54.5 -163.5t45 -156.5t133 -56.5t166 66l156 -179q-121 -120 -322 -120z" />
<glyph unicode="d" horiz-adv-x="1110" d="M420 -18q-150 0 -251 114.5t-101 302.5q0 227 122.5 359.5t301.5 132.5q199 0 286 -148l129 736h271l-215 -1225q-1 -8 -2 -15q0 -37 38 -36h62l-35 -203h-102q-135 0 -182.5 30.5t-55.5 94.5l-2 14q-88 -157 -264 -157zM528 215q90 0 146.5 66.5t56.5 171.5 q0 92 -47 147t-131 55q-94 0 -148.5 -66.5t-54.5 -176.5q0 -92 47 -144.5t131 -52.5z" />
<glyph unicode="e" horiz-adv-x="1079" d="M350 356q31 -156 215 -155q111 0 213 75l158 -176q-154 -119 -373 -118q-225 0 -356 121.5t-131 320.5q0 209 143 338t350 129q227 0 343 -151q91 -119 92 -289q0 -45 -7 -95h-647zM354 510h381q2 76 -45 121t-129 45q-170 0 -207 -166z" />
<glyph unicode="f" horiz-adv-x="761" d="M246 649h-144l39 223h144l55 312q57 322 346 321q162 0 256 -110l-158 -178q-33 47 -86 47q-74 0 -90 -86l-53 -306h225l-39 -223h-225l-149 -848q-27 -150 -89.5 -192.5t-211.5 -42.5h-142l39 203h82q25 0 37 10t18 41z" />
<glyph unicode="g" horiz-adv-x="1095" d="M406 -455q-145 0 -256 50.5t-168 117.5l180 174q98 -113 246 -112q201 0 241 227l21 115q-96 -135 -248 -135q-150 0 -251 114.5t-101 302.5q0 227 122.5 359.5t301.5 132.5q207 0 290 -158l19 139h270l-160 -909q-71 -418 -507 -418zM530 215q90 0 146.5 66.5 t56.5 171.5q0 92 -47 147t-131 55q-94 0 -148.5 -66.5t-54.5 -176.5q0 -92 47 -144.5t131 -52.5z" />
<glyph unicode="h" horiz-adv-x="1075" d="M33 0l260 1479h270l-133 -756q109 168 277 168q145 0 220 -113q52 -78 52 -190q0 -49 -10 -105l-41 -229q-1 -8 -2 -15q0 -37 39 -36h61l-35 -203h-88q-147 0 -208 59q-43 42 -43 127q0 34 7 76l37 213q5 29 5 54q0 122 -128 122q-82 0 -126 -42t-60 -136l-84 -473h-270z " />
<glyph unicode="i" horiz-adv-x="532" d="M389 1024q-70 0 -119 47t-49 121q0 72 48 119t118 47t120 -47t50 -119q0 -74 -49 -121t-119 -47zM319 0q-154 0 -205 51q-35 34 -35 111q0 39 9 90l109 620h270l-109 -618q-1 -8 -1 -15q0 -37 38 -36h62l-35 -203h-103z" />
<glyph unicode="j" horiz-adv-x="526" d="M389 1024q-70 0 -119 47t-49 121q0 72 48 119t118 47t120 -47t50 -119q0 -74 -49 -121t-119 -47zM-35 -455q-158 0 -246 99l140 168q35 -37 84 -37q61 0 73 75l181 1022h270l-178 -1011q-56 -316 -324 -316z" />
<glyph unicode="k" horiz-adv-x="1005" d="M348 256l-45 -256h-270l260 1479h270l-133 -754q-16 -94 -49 -199l330 346h307l-354 -362l127 -256q16 -33 29.5 -42t39.5 -9h64l-35 -203h-98q-109 0 -156 37t-96 137l-86 174z" />
<glyph unicode="l" horiz-adv-x="532" d="M319 0q-154 0 -205 51q-35 34 -35 111q0 39 9 90l215 1227h270l-215 -1225q-1 -8 -1 -15q0 -37 38 -36h78l-35 -203h-119z" />
<glyph unicode="m" horiz-adv-x="1585" d="M33 0l153 872h271l-31 -141q102 160 268 160q170 0 230 -164q109 164 301 164q145 0 216 -112q48 -76 48 -186q0 -51 -10 -110l-41 -229q-1 -8 -2 -15q0 -37 39 -36h61l-35 -203h-102q-154 0 -206 51q-35 34 -35 111q0 39 9 90l39 223q6 33 6 61q0 116 -106 115 q-76 0 -116 -42t-56 -136l-84 -473h-270l84 475q6 33 5 60q0 116 -108 116q-78 0 -118 -42t-56 -136l-84 -473h-270z" />
<glyph unicode="n" horiz-adv-x="1075" d="M33 0l153 872h271l-33 -157q106 176 283 176q145 0 220 -113q52 -78 52 -190q0 -49 -10 -105l-41 -229q-1 -8 -2 -15q0 -37 39 -36h61l-35 -203h-102q-154 0 -206 51q-35 34 -35 111q0 39 9 90l39 223q5 29 5 54q0 122 -128 122q-82 0 -126 -42t-60 -136l-84 -473h-270z " />
<glyph unicode="o" horiz-adv-x="1085" d="M532 -18q-195 0 -327.5 125.5t-132.5 316.5q0 209 139 338t346 129q197 0 329 -125t132 -320q0 -207 -139.5 -335.5t-346.5 -128.5zM541 211q92 0 145 65.5t53 172.5q0 96 -51 152t-139 56q-92 0 -145.5 -65.5t-53.5 -171.5q0 -96 51.5 -152.5t139.5 -56.5z" />
<glyph unicode="p" horiz-adv-x="1097" d="M-43 -434l229 1306h271l-29 -127q106 145 256 146q152 0 252 -114.5t100 -303.5q0 -219 -121.5 -355t-291.5 -136q-203 0 -293 170l-103 -586h-270zM551 215q94 0 148.5 66.5t54.5 177.5q0 92 -47.5 144t-131.5 52q-90 0 -146 -66.5t-56 -170.5q0 -92 47 -147.5 t131 -55.5z" />
<glyph unicode="q" horiz-adv-x="1103" d="M846 -434q-154 0 -206 51q-35 34 -35 111q0 39 9 90l54 299q-96 -135 -248 -135q-150 0 -251 114.5t-101 302.5q0 227 122.5 359.5t301.5 132.5q207 0 290 -158l19 139h270l-186 -1052q-1 -8 -2 -15q0 -37 39 -36h61l-35 -203h-102zM528 215q90 0 146.5 66.5t56.5 171.5 q0 92 -47 147t-131 55q-94 0 -148.5 -66.5t-54.5 -176.5q0 -92 47 -144.5t131 -52.5z" />
<glyph unicode="r" horiz-adv-x="776" d="M33 0l153 872h271l-35 -167q106 186 268 186q70 0 131 -35l-102 -248q-45 29 -113 29q-96 0 -153.5 -54.5t-81.5 -195.5l-68 -387h-270z" />
<glyph unicode="s" horiz-adv-x="845" d="M383 -18q-260 0 -375 180l187 131q72 -100 192 -100q104 0 105 53q0 8 -2.5 14t-8.5 11l-13 10.5t-23 12.5l-28 13l-40 18l-49 21q-98 45 -148.5 106.5t-50.5 157.5q0 133 92 207t236 74q197 0 309 -137l-176 -148q-57 78 -133 78q-80 0 -80 -53q0 -23 24.5 -39.5 t100.5 -48.5q127 -55 186.5 -111.5t59.5 -159.5q0 -137 -93.5 -213.5t-271.5 -76.5z" />
<glyph unicode="t" horiz-adv-x="741" d="M436.5 -18q-141.5 0 -219.5 79q-55 56 -55 166q0 46 10 101l57 321h-127l39 223h127l56 312h268l-55 -312h211l-39 -223h-211l-58 -330q-5 -24 -4 -42q0 -66 56 -66q43 0 94 31l86 -191q-94 -69 -235.5 -69z" />
<glyph unicode="u" horiz-adv-x="1081" d="M360 -18q-145 0 -220 112q-52 78 -52 190q0 49 10 105l84 483h273l-84 -475q-5 -29 -5 -54q0 -122 128 -122q82 0 126 42t60 136l84 473h270l-108 -618q-1 -8 -2 -15q0 -37 39 -36h61l-35 -203h-102q-135 0 -182.5 30.5t-55.5 94.5l-2 14q-111 -157 -287 -157z" />
<glyph unicode="v" horiz-adv-x="980" d="M451 -18l-355 890h283l90 -254q20 -59 51 -210q37 111 96 210l144 254h282l-565 -890h-26z" />
<glyph unicode="w" horiz-adv-x="1382" d="M385 -23l-287 895h283l74 -249q8 -31 17 -76t16.5 -77t7.5 -34q29 84 94 187l172 272h20l113 -272q16 -41 53 -187q25 74 86 187l131 249h279l-508 -895h-23l-139 349q-10 27 -21.5 67.5t-17.5 69.5t-6 35l-4 -13q-6 -12 -13 -28l-17 -37q-9 -20 -21 -42l-23 -38 l-243 -363h-23z" />
<glyph unicode="x" horiz-adv-x="1024" d="M-41 0l397 457l-215 415h297l47 -108q25 -61 47 -150q29 88 78 148l90 110h308l-342 -393l249 -479h-299l-67 143q-45 90 -64 176q-2 -6 -15 -33.5t-36.5 -69.5t-44.5 -66l-125 -150h-305z" />
<glyph unicode="y" horiz-adv-x="980" d="M25 -434l303 526l-232 780h289l78 -329q8 -33 16 -84t15.5 -90t7.5 -41q31 127 82 215l180 329h280l-741 -1306h-278z" />
<glyph unicode="z" horiz-adv-x="894" d="M-2 0v23l459 628h-328l39 221h741v-22l-458 -629h335l-38 -221h-750z" />
<glyph unicode="{" horiz-adv-x="831" d="M494 -262q-137 0 -221.5 76.5t-55.5 240.5l55 312q12 72 -5 98.5t-74 26.5h-127l40 227h121q63 0 90 27.5t43 117.5l58 330q51 285 311 285h227l-38 -228h-146q-70 0 -82 -75l-63 -373q-18 -111 -72.5 -153t-153.5 -54q182 -27 148 -227l-60 -330q-6 -37 5.5 -55.5 t54.5 -18.5h141l-41 -227h-155z" />
<glyph unicode="|" horiz-adv-x="557" d="M27 -262l307 1741h260l-307 -1741h-260z" />
<glyph unicode="}" horiz-adv-x="831" d="M-68 -262l39 227h146q70 0 82 76l65 367q18 111 72.5 152.5t152.5 53.5q-182 27 -147 228l57 336q6 37 -5 55t-54 18h-141l41 228h155q137 0 221 -77t56 -241l-56 -317q-14 -72 5.5 -98.5t76.5 -26.5h127l-41 -227h-120q-63 0 -91 -28t-45 -118l-57 -323 q-49 -285 -311 -285h-228z" />
<glyph unicode="~" horiz-adv-x="755" d="M236 424l-179 18q18 139 82 213t152 74q70 0 129 -41q10 -8 27.5 -20.5t25.5 -17.5t18.5 -9t20.5 -4q49 0 63 92l179 -18q-14 -139 -79 -213t-155 -74q-70 0 -129 41l-29 19q-16 11 -23 17.5t-18.5 10.5t-21.5 4q-49 0 -63 -92z" />
<glyph unicode="&#xa1;" horiz-adv-x="550" d="M420 1065q-70 0 -119 49t-49 121q0 74 49 122t118.5 48t118 -48t48.5 -122q0 -72 -49 -121t-117 -49zM49 0l223 920h209l-129 -920h-303z" />
<glyph unicode="&#xa2;" horiz-adv-x="931" d="M387 0q-145 41 -230 154.5t-85 273.5q0 203 134 331t339 132l39 217h133l-41 -229q154 -31 246 -162l-201 -152q-29 49 -86 80l-78 -436q63 6 139 67l156 -174q-121 -121 -322 -120h-12l-39 -220h-133zM504 659q-74 -14 -116 -74.5t-42 -156.5q0 -139 82 -195z" />
<glyph unicode="&#xa3;" horiz-adv-x="1161" d="M379 508h-209l35 203h135q-18 106 -18 170q0 176 116.5 280.5t315.5 104.5q266 0 385 -226l-217 -133q-35 61 -73 90t-97 29q-70 0 -113 -45t-43 -119q0 -66 10 -151h283l-35 -203h-223q4 -66 4 -102q0 -80 -23 -154q80 -43 146 -43q94 0 176 86l151 -164 q-123 -150 -331 -149q-129 0 -250 94q-100 -94 -250 -94q-119 0 -185.5 62t-66.5 153q0 104 70.5 161.5t175.5 57.5q76 0 145 -33q-2 37 -14 125zM365 203q-63 53 -111 53q-29 0 -47.5 -15.5t-18.5 -39.5q0 -59 70 -60q72 1 107 62z" />
<glyph unicode="&#xa5;" horiz-adv-x="1148" d="M362 0l39 221h-338l29 170h324l-45 121h-256l28 170h164l-143 387h287l100 -319q12 -39 22.5 -95.5t16.5 -95.5l6 -39q41 121 109 223l219 326h290l-282 -387h166l-29 -170h-262l-88 -121h328l-29 -170h-342l-39 -221h-275z" />
<glyph unicode="&#xa7;" horiz-adv-x="1054" d="M301 795q-37 68 -37 161q0 137 103.5 223.5t250.5 86.5q260 0 347 -203l-217 -107q-37 94 -123 95q-53 0 -79 -25t-26 -63q0 -61 66 -93l198 -90q121 -53 174.5 -123.5t53.5 -171.5q0 -186 -215 -256q31 -57 30 -141q0 -141 -99 -220t-286 -79q-147 0 -250.5 62.5 t-136.5 156.5l219 107q43 -109 162 -109q117 0 117 72q0 51 -70 82l-180 78q-121 51 -174 122.5t-53 174.5q0 111 63.5 175.5t161.5 84.5zM686 344q74 25 74 96q0 78 -88 117l-195 88q-41 16 -76 43q-78 -29 -77.5 -104.5t86.5 -112.5l184 -80q59 -27 92 -47z" />
<glyph unicode="&#xa8;" horiz-adv-x="1003" d="M844 1040q-57 0 -103.5 45t-46.5 106.5t46 106.5t104 45q59 0 103 -45t44 -106.5t-44 -106.5t-103 -45zM434 1040q-57 0 -102 45t-45 106.5t45 106.5t102 45q59 0 104.5 -45t45.5 -106.5t-45.5 -106.5t-104.5 -45z" />
<glyph unicode="&#xa9;" horiz-adv-x="1218" d="M633 -10q-225 0 -389 157.5t-164 391t164 391t389 157.5q223 0 384 -157.5t161 -391t-161 -391t-384 -157.5zM633 111q176 0 297 118.5t121 309t-121 309.5t-297 119q-180 0 -303 -119t-123 -309.5t123 -309t303 -118.5zM647.5 238q-143.5 0 -230.5 81.5t-87 215.5 q0 139 89 224t224 85q156 0 254 -111l-149 -131q-35 45 -93 45q-47 0 -72.5 -30.5t-25.5 -81.5q0 -47 25.5 -76t68.5 -29q55 0 88 37l140 -125q-88 -104 -231.5 -104z" />
<glyph unicode="&#xaa;" horiz-adv-x="1003" d="M420 317q-123 0 -210 98.5t-87 256.5q0 193 104.5 303t253.5 110q162 0 232 -133l16 117h242l-90 -508q-8 -45 32 -45h52l-31 -184h-100q-113 0 -152 24.5t-49 77.5l-2 10q-43 -66 -90 -96.5t-121 -30.5zM512 520q70 0 114 56.5t44 140.5q0 76 -35 119t-100 43 q-72 0 -115 -53.5t-43 -143.5q0 -74 36 -118t99 -44z" />
<glyph unicode="&#xab;" horiz-adv-x="1024" d="M641 66l-147 335v17l251 346h273l-262 -358l149 -340h-264zM211 66l-148 335v17l252 346h273l-262 -358l149 -340h-264z" />
<glyph unicode="&#xad;" horiz-adv-x="598" d="M59 377l43 237h463l-43 -237h-463z" />
<glyph unicode="&#xae;" horiz-adv-x="1034" d="M397 743l80 445h174q84 0 127 -42t43 -106q0 -106 -98 -141l55 -156h-131l-43 136h-51l-25 -136h-131zM610.5 518q-186.5 0 -314.5 126t-128 320.5t128 320.5t314.5 126t316.5 -126t130 -320.5t-130 -320.5t-316.5 -126zM610 614q152 0 247 93.5t95 257t-95 257 t-247 93.5q-150 0 -244 -93.5t-94 -257t94 -257t244 -93.5zM569 973h64q57 0 57 55q0 47 -43 47h-59z" />
<glyph unicode="&#xaf;" horiz-adv-x="1003" d="M352 1059l35 196h533l-35 -196h-533z" />
<glyph unicode="&#xb0;" horiz-adv-x="665" d="M401 549q-115 0 -196.5 76.5t-81.5 189.5q0 119 84 195.5t203 76.5q115 0 195.5 -73.5t80.5 -186.5q0 -119 -83 -198.5t-202 -79.5zM403.5 709q45.5 0 75 32.5t29.5 83.5q0 49 -27.5 76t-73 27t-75 -32t-29.5 -83q0 -49 27.5 -76.5t73 -27.5z" />
<glyph unicode="&#xb2;" horiz-adv-x="972" d="M-14 0v25l452 426q117 109 159 165t42 117q0 49 -28.5 81t-86.5 32q-113 0 -172 -146l-250 64q53 170 169 246.5t268 76.5q186 0 282.5 -95t96.5 -230q0 -111 -55.5 -198t-186.5 -210l-74 -69q-37 -35 -106 -70q76 10 116 10h265l-39 -225h-852z" />
<glyph unicode="&#xb3;" horiz-adv-x="1042" d="M449 -211q-186 0 -308.5 81t-175.5 204l244 121q70 -166 233 -166q90 0 152.5 54t62.5 159q0 92 -65.5 146t-169.5 54q-94 0 -176 -39l-17 25l289 336q20 23 45 46.5t39 35.5l16 12q-78 -10 -135 -10h-297l39 221h817v-22l-305 -357q-16 -18 -39 -38l-34 -29l-15 -11 q117 -29 207 -122t90 -252q0 -193 -132 -321t-365 -128z" />
<glyph unicode="&#xb4;" horiz-adv-x="1003" d="M471 1024l164 385h323l-278 -385h-209z" />
<glyph unicode="&#xb6;" horiz-adv-x="1347" d="M465 0l88 498h-6q-184 0 -287.5 113.5t-103.5 291.5q0 205 138 347.5t380 142.5h702l-246 -1393h-266l205 1159h-133l-205 -1159h-266z" />
<glyph unicode="&#xb7;" horiz-adv-x="499" d="M268.5 354q-69.5 0 -120 49.5t-50.5 124.5q0 74 50.5 123t120 49t119.5 -49t50 -123q0 -76 -50 -125t-119.5 -49z" />
<glyph unicode="&#xb8;" horiz-adv-x="1003" d="M410 -492q-176 0 -240 127l133 74q33 -57 90 -57q78 0 78 74q0 76 -86 75h-72l35 199h146l-15 -84q61 -10 107.5 -61.5t46.5 -130.5q0 -100 -65.5 -158t-157.5 -58z" />
<glyph unicode="&#xb9;" horiz-adv-x="657" d="M172 0l150 846h-197l39 223h471l-189 -1069h-274z" />
<glyph unicode="&#xba;" horiz-adv-x="958" d="M510 311q-166 0 -275.5 108.5t-109.5 270.5q0 172 123 284.5t299 112.5q166 0 275.5 -109.5t109.5 -270.5q0 -172 -123 -284t-299 -112zM518 518q70 0 114 55.5t44 141.5q0 72 -37 118t-100 46q-74 0 -116 -54.5t-42 -142.5q0 -76 35.5 -120t101.5 -44z" />
<glyph unicode="&#xbb;" horiz-adv-x="1024" d="M436 66l262 358l-149 340h264l148 -336v-16l-252 -346h-273zM6 66l262 358l-149 340h264l147 -336v-16l-251 -346h-273z" />
<glyph unicode="&#xbc;" horiz-adv-x="2838" d="M2590 205h142l-37 -205h-142l-32 -193h-273l35 193h-582l33 188l983 893h29zM2320 205l33 188q8 47 39 131l-19 -19l-38 -39l-38 -38l-172 -156q-45 -41 -98 -73q55 6 113 6h180zM563 0l1083 1393h273l-1084 -1393h-272zM172 0l150 846h-197l39 223h471l-189 -1069h-274z " />
<glyph unicode="&#xbd;" horiz-adv-x="2699" d="M1712 0v25l452 426q117 109 159 165t42 117q0 49 -28.5 81t-86.5 32q-113 0 -172 -146l-250 64q53 170 169 246.5t268 76.5q186 0 282.5 -95t96.5 -230q0 -111 -55.5 -198t-186.5 -210l-74 -69q-37 -35 -106 -70q76 10 116 10h265l-39 -225h-852zM563 0l1083 1393h273 l-1084 -1393h-272zM172 0l150 846h-197l39 223h471l-189 -1069h-274z" />
<glyph unicode="&#xbe;" horiz-adv-x="3223" d="M2975 205h142l-37 -205h-142l-32 -193h-273l35 193h-582l33 188l983 893h29zM2705 205l33 188q8 47 39 131l-19 -19l-38 -39l-38 -38l-172 -156q-45 -41 -98 -73q55 6 113 6h180zM948 0l1083 1393h273l-1084 -1393h-272zM449 -211q-186 0 -308.5 81t-175.5 204l244 121 q70 -166 233 -166q90 0 152.5 54t62.5 159q0 92 -65.5 146t-169.5 54q-94 0 -176 -39l-17 25l289 336q20 23 45 46.5t39 35.5l16 12q-78 -10 -135 -10h-297l39 221h817v-22l-305 -357q-16 -18 -39 -38l-34 -29l-15 -11q117 -29 207 -122t90 -252q0 -193 -132 -321t-365 -128 z" />
<glyph unicode="&#xbf;" horiz-adv-x="1030" d="M641 1069q-70 0 -119 49t-49 121q0 74 49 122t119 48t118 -48t48 -122q0 -72 -49 -121t-117 -49zM510 -12q-205 0 -318.5 116.5t-113.5 294.5q0 164 103.5 270.5t260.5 127.5l23 127h252l-58 -326h-71q-119 0 -178.5 -56.5t-59.5 -144.5q0 -76 44 -123t120 -47 q125 0 211 133l209 -122q-55 -109 -169 -179.5t-255 -70.5z" />
<glyph unicode="&#xc0;" horiz-adv-x="1333" d="M-31 0l848 1405h23l377 -1405h-285l-51 197h-514l-117 -197h-281zM729 1511l-186 385h311l80 -385h-205zM500 420h325l-55 217q-35 137 -35 229q-35 -106 -106 -225z" />
<glyph unicode="&#xc1;" horiz-adv-x="1333" d="M-31 0l848 1405h23l377 -1405h-285l-51 197h-514l-117 -197h-281zM707 1511l163 385h324l-279 -385h-208zM500 420h325l-55 217q-35 137 -35 229q-35 -106 -106 -225z" />
<glyph unicode="&#xc2;" horiz-adv-x="1333" d="M-31 0l848 1405h23l377 -1405h-285l-51 197h-514l-117 -197h-281zM498 1511l395 443h22l240 -443h-209l-88 148l-137 -148h-223zM500 420h325l-55 217q-35 137 -35 229q-35 -106 -106 -225z" />
<glyph unicode="&#xc3;" horiz-adv-x="1333" d="M-31 0l848 1405h23l377 -1405h-285l-51 197h-514l-117 -197h-281zM645 1522l-190 18q20 139 90.5 213t169.5 74q76 0 145 -43q84 -51 107 -51q55 0 71 94l191 -19q-16 -139 -88 -212.5t-172 -73.5q-76 0 -146 43l-25.5 16t-23.5 14l-19 11q-11 6 -19.5 8t-18.5 2 q-56 0 -72 -94zM500 420h325l-55 217q-35 137 -35 229q-35 -106 -106 -225z" />
<glyph unicode="&#xc4;" horiz-adv-x="1333" d="M-31 0l848 1405h23l377 -1405h-285l-51 197h-514l-117 -197h-281zM1057 1518q-57 0 -103.5 45t-46.5 106.5t46 106.5t104 45q59 0 103 -45t44 -106.5t-44 -106.5t-103 -45zM647 1518q-57 0 -102 45t-45 106.5t45 106.5t102 45q59 0 104.5 -45t45.5 -106.5t-45.5 -106.5 t-104.5 -45zM500 420h325l-55 217q-35 137 -35 229q-35 -106 -106 -225z" />
<glyph unicode="&#xc5;" horiz-adv-x="1333" d="M-31 0l848 1405h23l377 -1405h-285l-51 197h-514l-117 -197h-281zM845.5 1499q-108.5 0 -182 71.5t-73.5 172t73.5 172.5t182 72t182.5 -72t74 -172.5t-74 -172t-182.5 -71.5zM500 420h325l-55 217q-35 137 -35 229q-35 -106 -106 -225zM846 1649q37 0 61.5 25.5 t24.5 68.5t-24.5 68.5t-61.5 25.5t-61.5 -25.5t-24.5 -68.5t24.5 -68.5t61.5 -25.5z" />
<glyph unicode="&#xc6;" horiz-adv-x="1980" d="M-41 0l1182 1393h876l-43 -246h-624l-58 -328h547l-43 -241h-547l-59 -332h653l-45 -246h-932l35 197h-469l-162 -197h-311zM625 428h317l62 348q12 78 61 225q-76 -133 -135 -206z" />
<glyph unicode="&#xc7;" horiz-adv-x="1447" d="M647 -492q-176 0 -239 127l133 74q33 -57 90 -57q78 0 78 74q0 76 -86 75h-72l37 215q-203 66 -326 243t-123 409q0 317 217 529t518 212q199 0 327 -69.5t229 -217.5l-230 -149q-117 186 -334 186q-190 0 -312 -142.5t-122 -350.5q0 -190 109.5 -312.5t273.5 -122.5 q215 0 342 160l211 -162q-211 -248 -563 -247q-27 0 -76 4l-12 -70q61 -10 107 -61.5t46 -130.5q0 -100 -65.5 -158t-157.5 -58z" />
<glyph unicode="&#xc8;" horiz-adv-x="1179" d="M66 0l245 1393h903l-43 -246h-624l-58 -328h547l-43 -241h-547l-59 -332h653l-45 -246h-929zM690 1511l-186 385h311l80 -385h-205z" />
<glyph unicode="&#xc9;" horiz-adv-x="1179" d="M66 0l245 1393h903l-43 -246h-624l-58 -328h547l-43 -241h-547l-59 -332h653l-45 -246h-929zM666 1511l163 385h324l-279 -385h-208z" />
<glyph unicode="&#xca;" horiz-adv-x="1179" d="M66 0l245 1393h903l-43 -246h-624l-58 -328h547l-43 -241h-547l-59 -332h653l-45 -246h-929zM449 1511l395 443h22l240 -443h-209l-88 148l-137 -148h-223z" />
<glyph unicode="&#xcb;" horiz-adv-x="1179" d="M66 0l245 1393h903l-43 -246h-624l-58 -328h547l-43 -241h-547l-59 -332h653l-45 -246h-929zM1006 1518q-57 0 -103.5 45t-46.5 106.5t46 106.5t104 45q59 0 103 -45t44 -106.5t-44 -106.5t-103 -45zM596 1518q-57 0 -102 45t-45 106.5t45 106.5t102 45q59 0 104 -45 t45 -106.5t-45 -106.5t-104 -45z" />
<glyph unicode="&#xcc;" horiz-adv-x="575" d="M74 0l245 1393h281l-246 -1393h-280zM365 1511l-187 385h311l80 -385h-204z" />
<glyph unicode="&#xcd;" horiz-adv-x="575" d="M74 0l245 1393h281l-246 -1393h-280zM362 1511l164 385h324l-279 -385h-209z" />
<glyph unicode="&#xce;" horiz-adv-x="575" d="M74 0l245 1393h281l-246 -1393h-280zM152 1511l395 443h22l240 -443h-209l-88 148l-137 -148h-223z" />
<glyph unicode="&#xcf;" horiz-adv-x="575" d="M74 0l245 1393h281l-246 -1393h-280zM713 1518q-57 0 -103.5 45t-46.5 106.5t46 106.5t104 45q59 0 103 -45t44 -106.5t-44 -106.5t-103 -45zM303 1518q-57 0 -102 45t-45 106.5t45 106.5t102 45q59 0 104.5 -45t45.5 -106.5t-45.5 -106.5t-104.5 -45z" />
<glyph unicode="&#xd0;" horiz-adv-x="1366" d="M66 0l100 573h-115l43 240h115l102 580h365q305 0 479 -174.5t174 -468.5q0 -348 -218 -549t-570 -201h-475zM389 246h158q240 0 365.5 142t125.5 374q0 182 -98 283.5t-299 101.5h-92l-60 -334h308l-43 -240h-308z" />
<glyph unicode="&#xd1;" horiz-adv-x="1398" d="M1157 -12l-565 678q-35 43 -129 198q0 -115 -27 -254l-108 -610h-262l247 1405h27l567 -680q72 -88 129 -201q0 115 25 256l108 613h263l-248 -1405h-27zM690 1522l-190 18q20 139 91 213t169 74q76 0 145 -43q84 -51 107 -51q55 0 71 94l191 -19q-16 -139 -88 -212.5 t-172 -73.5q-76 0 -146 43l-25.5 16t-23.5 14l-19 11q-11 6 -19.5 8t-18.5 2q-56 0 -72 -94z" />
<glyph unicode="&#xd2;" d="M815 -18q-289 0 -482.5 194.5t-193.5 495.5q0 330 215 533.5t525 203.5q289 0 483 -194.5t194 -495.5q0 -330 -216 -533.5t-525 -203.5zM825 231q201 0 322 134.5t121 359.5q0 197 -110.5 315.5t-287.5 118.5q-201 0 -321.5 -134t-120.5 -359q0 -197 110.5 -316 t286.5 -119zM805 1511l-187 385h312l80 -385h-205z" />
<glyph unicode="&#xd3;" d="M815 -18q-289 0 -482.5 194.5t-193.5 495.5q0 330 215 533.5t525 203.5q289 0 483 -194.5t194 -495.5q0 -330 -216 -533.5t-525 -203.5zM825 231q201 0 322 134.5t121 359.5q0 197 -110.5 315.5t-287.5 118.5q-201 0 -321.5 -134t-120.5 -359q0 -197 110.5 -316 t286.5 -119zM803 1511l164 385h323l-278 -385h-209z" />
<glyph unicode="&#xd4;" d="M815 -18q-289 0 -482.5 194.5t-193.5 495.5q0 330 215 533.5t525 203.5q289 0 483 -194.5t194 -495.5q0 -330 -216 -533.5t-525 -203.5zM825 231q201 0 322 134.5t121 359.5q0 197 -110.5 315.5t-287.5 118.5q-201 0 -321.5 -134t-120.5 -359q0 -197 110.5 -316 t286.5 -119zM592 1511l395 443h23l239 -443h-209l-88 148l-137 -148h-223z" />
<glyph unicode="&#xd5;" d="M743 1522l-190 18q20 139 91 213t169 74q76 0 145 -43q84 -51 107 -51q55 0 72 94l190 -19q-16 -139 -88 -212.5t-172 -73.5q-76 0 -145 43l-25.5 16t-24.5 14l-19 11q-11 6 -19.5 8t-18.5 2q-56 0 -72 -94zM815 -18q-289 0 -482.5 194.5t-193.5 495.5q0 330 215 533.5 t525 203.5q289 0 483 -194.5t194 -495.5q0 -330 -216 -533.5t-525 -203.5zM825 231q201 0 322 134.5t121 359.5q0 197 -110.5 315.5t-287.5 118.5q-201 0 -321.5 -134t-120.5 -359q0 -197 110.5 -316t286.5 -119z" />
<glyph unicode="&#xd6;" d="M815 -18q-289 0 -482.5 194.5t-193.5 495.5q0 330 215 533.5t525 203.5q289 0 483 -194.5t194 -495.5q0 -330 -216 -533.5t-525 -203.5zM825 231q201 0 322 134.5t121 359.5q0 197 -110.5 315.5t-287.5 118.5q-201 0 -321.5 -134t-120.5 -359q0 -197 110.5 -316 t286.5 -119zM1153 1518q-57 0 -103 45t-46 106.5t46 106.5t103 45q59 0 103 -45t44 -106.5t-44 -106.5t-103 -45zM743 1518q-57 0 -102 45t-45 106.5t45 106.5t102 45q59 0 104.5 -45t45.5 -106.5t-45.5 -106.5t-104.5 -45z" />
<glyph unicode="&#xd7;" horiz-adv-x="839" d="M588 535l157 -189l-172 -147l-157 186l-215 -182l-142 164l217 184l-159 188l176 148l158 -189l221 191l139 -164z" />
<glyph unicode="&#xd8;" d="M1452 1102q104 -172 104 -383q0 -330 -214 -533.5t-517 -203.5q-258 0 -438 147l-164 -149l-145 157l166 152q-104 168 -105 383q0 330 213 533.5t516 203.5q256 0 439 -147l163 149l148 -158zM457 485l653 598q-98 76 -246 76q-193 0 -314.5 -135t-121.5 -358 q0 -99 29 -181zM1239 907l-655 -598q100 -78 247 -78q195 0 316 135.5t121 358.5q0 96 -29 182z" />
<glyph unicode="&#xd9;" horiz-adv-x="1370" d="M662 -18q-264 0 -406.5 157.5t-97.5 413.5l147 840h283l-152 -861q-27 -147 36 -224t204 -77q129 0 198.5 67t94.5 206l157 889h283l-166 -934q-43 -236 -193 -356.5t-388 -120.5zM756 1511l-187 385h312l80 -385h-205z" />
<glyph unicode="&#xda;" horiz-adv-x="1370" d="M662 -18q-264 0 -406.5 157.5t-97.5 413.5l147 840h283l-152 -861q-27 -147 36 -224t204 -77q129 0 198.5 67t94.5 206l157 889h283l-166 -934q-43 -236 -193 -356.5t-388 -120.5zM754 1511l164 385h323l-278 -385h-209z" />
<glyph unicode="&#xdb;" horiz-adv-x="1370" d="M662 -18q-264 0 -406.5 157.5t-97.5 413.5l147 840h283l-152 -861q-27 -147 36 -224t204 -77q129 0 198.5 67t94.5 206l157 889h283l-166 -934q-43 -236 -193 -356.5t-388 -120.5zM543 1511l395 443h23l239 -443h-209l-88 148l-137 -148h-223z" />
<glyph unicode="&#xdc;" horiz-adv-x="1370" d="M662 -18q-264 0 -406.5 157.5t-97.5 413.5l147 840h283l-152 -861q-27 -147 36 -224t204 -77q129 0 198.5 67t94.5 206l157 889h283l-166 -934q-43 -236 -193 -356.5t-388 -120.5zM1104 1518q-57 0 -103.5 45t-46.5 106.5t46.5 106.5t103.5 45q59 0 103 -45t44 -106.5 t-44 -106.5t-103 -45zM694 1518q-57 0 -102 45t-45 106.5t45 106.5t102 45q59 0 104.5 -45t45.5 -106.5t-45.5 -106.5t-104.5 -45z" />
<glyph unicode="&#xdd;" horiz-adv-x="1271" d="M422 0l90 516l-317 877h301l129 -373q37 -106 65 -281q84 168 156 275l258 379h297l-608 -875l-91 -518h-280zM686 1511l164 385h324l-279 -385h-209z" />
<glyph unicode="&#xde;" horiz-adv-x="1193" d="M66 0l245 1393h281l-39 -226h145q217 0 347.5 -104.5t130.5 -314.5q0 -248 -154 -378t-389 -130h-246l-41 -240h-280zM430 483h213q113 0 179.5 60.5t66.5 185.5q0 195 -217 195h-164z" />
<glyph unicode="&#xdf;" horiz-adv-x="1157" d="M866 795q225 -90 226 -344q0 -215 -126 -339t-341 -124q-135 0 -197 35l57 213q51 -20 113 -21q100 0 159.5 60.5t59.5 181.5q0 221 -246 227l37 209q213 14 213 240q0 74 -40 112.5t-105 38.5q-76 0 -120 -49t-62 -158l-226 -1276q-27 -150 -89 -192.5t-212 -42.5h-141 l39 203h82q25 0 37 10t18 41l225 1272q35 203 151 308t304 105q180 0 288.5 -100t108.5 -266q0 -235 -213 -344z" />
<glyph unicode="&#xe0;" horiz-adv-x="1089" d="M410 -18q-145 0 -243.5 114.5t-98.5 302.5q0 227 119.5 359.5t293.5 132.5q197 0 281 -158l18 139h271l-109 -618q-8 -51 37 -51h61l-34 -203h-103q-135 0 -180 29.5t-57 91.5l-2 10q-53 -80 -109.5 -114.5t-144.5 -34.5zM518 215q86 0 139.5 66.5t53.5 171.5 q0 94 -44 148t-124 54q-88 0 -140.5 -66.5t-52.5 -176.5q0 -92 44 -144.5t124 -52.5zM508 1024l-186 385h311l80 -385h-205z" />
<glyph unicode="&#xe1;" horiz-adv-x="1089" d="M410 -18q-145 0 -243.5 114.5t-98.5 302.5q0 227 119.5 359.5t293.5 132.5q197 0 281 -158l18 139h271l-109 -618q-8 -51 37 -51h61l-34 -203h-103q-135 0 -180 29.5t-57 91.5l-2 10q-53 -80 -109.5 -114.5t-144.5 -34.5zM518 215q86 0 139.5 66.5t53.5 171.5 q0 94 -44 148t-124 54q-88 0 -140.5 -66.5t-52.5 -176.5q0 -92 44 -144.5t124 -52.5zM506 1024l164 385h323l-278 -385h-209z" />
<glyph unicode="&#xe2;" horiz-adv-x="1089" d="M410 -18q-145 0 -243.5 114.5t-98.5 302.5q0 227 119.5 359.5t293.5 132.5q197 0 281 -158l18 139h271l-109 -618q-8 -51 37 -51h61l-34 -203h-103q-135 0 -180 29.5t-57 91.5l-2 10q-53 -80 -109.5 -114.5t-144.5 -34.5zM518 215q86 0 139.5 66.5t53.5 171.5 q0 94 -44 148t-124 54q-88 0 -140.5 -66.5t-52.5 -176.5q0 -92 44 -144.5t124 -52.5zM297 1024l395 442h23l239 -442h-209l-88 147l-137 -147h-223z" />
<glyph unicode="&#xe3;" horiz-adv-x="1089" d="M410 -18q-145 0 -243.5 114.5t-98.5 302.5q0 227 119.5 359.5t293.5 132.5q197 0 281 -158l18 139h271l-109 -618q-8 -51 37 -51h61l-34 -203h-103q-135 0 -180 29.5t-57 91.5l-2 10q-53 -80 -109.5 -114.5t-144.5 -34.5zM518 215q86 0 139.5 66.5t53.5 171.5 q0 94 -44 148t-124 54q-88 0 -140.5 -66.5t-52.5 -176.5q0 -92 44 -144.5t124 -52.5zM475 1038l-178 19q18 139 81.5 212.5t151.5 73.5q70 0 129 -40q10 -8 28 -20.5t26 -17.5t18 -9.5t21 -4.5q47 0 63 92l178 -18q-14 -139 -78.5 -213t-154.5 -74q-70 0 -129 41l-29 20 q-16 11 -23.5 17t-18.5 10t-21 4q-48 0 -64 -92z" />
<glyph unicode="&#xe4;" horiz-adv-x="1089" d="M410 -18q-145 0 -243.5 114.5t-98.5 302.5q0 227 119.5 359.5t293.5 132.5q197 0 281 -158l18 139h271l-109 -618q-8 -51 37 -51h61l-34 -203h-103q-135 0 -180 29.5t-57 91.5l-2 10q-53 -80 -109.5 -114.5t-144.5 -34.5zM518 215q86 0 139.5 66.5t53.5 171.5 q0 94 -44 148t-124 54q-88 0 -140.5 -66.5t-52.5 -176.5q0 -92 44 -144.5t124 -52.5zM858 1040q-57 0 -103 45t-46 106.5t46 106.5t103 45q59 0 103.5 -45t44.5 -106.5t-44.5 -106.5t-103.5 -45zM449 1040q-57 0 -102.5 45t-45.5 106.5t45 106.5t103 45q59 0 104 -45 t45 -106.5t-45 -106.5t-104 -45z" />
<glyph unicode="&#xe5;" horiz-adv-x="1089" d="M410 -18q-145 0 -243.5 114.5t-98.5 302.5q0 227 119.5 359.5t293.5 132.5q197 0 281 -158l18 139h271l-109 -618q-8 -51 37 -51h61l-34 -203h-103q-135 0 -180 29.5t-57 91.5l-2 10q-53 -80 -109.5 -114.5t-144.5 -34.5zM518 215q86 0 139.5 66.5t53.5 171.5 q0 94 -44 148t-124 54q-88 0 -140.5 -66.5t-52.5 -176.5q0 -92 44 -144.5t124 -52.5zM636.5 971q-108.5 0 -182 71.5t-73.5 172t73.5 172t182 71.5t182.5 -71.5t74 -172t-74 -172t-182.5 -71.5zM637 1120q37 0 61.5 25.5t24.5 68.5t-24.5 69t-61.5 26t-61.5 -26t-24.5 -69 t24.5 -68.5t61.5 -25.5z" />
<glyph unicode="&#xe6;" horiz-adv-x="1601" d="M389 -18q-160 0 -259 69.5t-99 194.5q0 264 377 264h217l2 12q12 74 -25 114t-119 40q-119 0 -200 -70l-138 172q127 113 347 113q193 0 286 -119q129 119 320 119q227 0 338.5 -150.5t81.5 -384.5h-635q31 -156 209 -155q104 0 206 75l158 -176q-154 -119 -366 -118 q-248 0 -367 157q-107 -157 -334 -157zM887 510h368q2 76 -41 121t-124 45q-166 0 -203 -166zM420 190q152 0 170 115l8 51h-195q-47 0 -74.5 -21.5t-27.5 -60.5q0 -84 119 -84z" />
<glyph unicode="&#xe7;" horiz-adv-x="931" d="M383 -492q-176 0 -240 127l133 74q33 -57 91 -57q78 0 77 74q0 76 -86 75h-71l37 219q-117 51 -184.5 157t-67.5 251q0 205 137 334t344 129q242 0 367 -174l-199 -156q-59 94 -170 94q-90 0 -144.5 -63.5t-54.5 -163.5t45 -156.5t133 -56.5t166 66l156 -179 q-121 -121 -322 -120q-25 0 -65 4l-12 -70q61 -10 107 -61.5t46 -130.5q0 -100 -65.5 -158t-157.5 -58z" />
<glyph unicode="&#xe8;" horiz-adv-x="1079" d="M350 356q31 -156 215 -155q111 0 213 75l158 -176q-154 -119 -373 -118q-225 0 -356 121.5t-131 320.5q0 209 143 338t350 129q227 0 343 -150.5t85 -384.5h-647zM354 510h381q2 76 -45 121t-129 45q-170 0 -207 -166zM477 1024l-186 385h311l80 -385h-205z" />
<glyph unicode="&#xe9;" horiz-adv-x="1079" d="M350 356q31 -156 215 -155q111 0 213 75l158 -176q-154 -119 -373 -118q-225 0 -356 121.5t-131 320.5q0 209 143 338t350 129q227 0 343 -150.5t85 -384.5h-647zM354 510h381q2 76 -45 121t-129 45q-170 0 -207 -166zM475 1024l164 385h324l-279 -385h-209z" />
<glyph unicode="&#xea;" horiz-adv-x="1079" d="M350 356q31 -156 215 -155q111 0 213 75l158 -176q-154 -119 -373 -118q-225 0 -356 121.5t-131 320.5q0 209 143 338t350 129q227 0 343 -150.5t85 -384.5h-647zM354 510h381q2 76 -45 121t-129 45q-170 0 -207 -166zM266 1024l396 442h22l240 -442h-209l-88 147 l-138 -147h-223z" />
<glyph unicode="&#xeb;" horiz-adv-x="1079" d="M350 356q31 -156 215 -155q111 0 213 75l158 -176q-154 -119 -373 -118q-225 0 -356 121.5t-131 320.5q0 209 143 338t350 129q227 0 343 -150.5t85 -384.5h-647zM354 510h381q2 76 -45 121t-129 45q-170 0 -207 -166zM827 1040q-57 0 -103 45t-46 106.5t46 106.5t103 45 q59 0 103.5 -45t44.5 -106.5t-44.5 -106.5t-103.5 -45zM418 1040q-57 0 -102.5 45t-45.5 106.5t45 106.5t103 45q59 0 104 -45t45 -106.5t-45 -106.5t-104 -45z" />
<glyph unicode="&#xec;" horiz-adv-x="532" d="M319 0q-154 0 -206 51t-25 201l109 620h270l-109 -618q-8 -51 37 -51h62l-35 -203h-103zM242 1024l-187 385h312l79 -385h-204z" />
<glyph unicode="&#xed;" horiz-adv-x="532" d="M319 0q-154 0 -206 51t-25 201l109 620h270l-109 -618q-8 -51 37 -51h62l-35 -203h-103zM240 1024l163 385h324l-278 -385h-209z" />
<glyph unicode="&#xee;" horiz-adv-x="532" d="M319 0q-154 0 -206 51t-25 201l109 620h270l-109 -618q-8 -51 37 -51h62l-35 -203h-103zM31 1024l395 442h23l239 -442h-209l-88 147l-137 -147h-223z" />
<glyph unicode="&#xef;" horiz-adv-x="532" d="M319 0q-154 0 -206 51t-25 201l109 620h270l-109 -618q-8 -51 37 -51h62l-35 -203h-103zM584 1040q-57 0 -103.5 45t-46.5 106.5t46 106.5t104 45q59 0 103 -45t44 -106.5t-44 -106.5t-103 -45zM190 1040q-57 0 -102 45t-45 106.5t45 106.5t102 45q59 0 104.5 -45 t45.5 -106.5t-45.5 -106.5t-104.5 -45z" />
<glyph unicode="&#xf0;" horiz-adv-x="1089" d="M528 -18q-195 0 -325.5 128t-130.5 328q0 203 131 328t293 125q141 0 219 -72q-31 131 -105 258l-131 -104l-100 133l137 111q-37 49 -115 143l170 151q76 -70 140 -141l135 107l102 -134l-135 -106q209 -309 209 -702q0 -262 -131.5 -407.5t-362.5 -145.5zM537 209 q94 0 148 68.5t54 177.5q0 94 -50 151.5t-134 57.5q-96 0 -150.5 -63.5t-54.5 -170.5q0 -100 50.5 -160.5t136.5 -60.5z" />
<glyph unicode="&#xf1;" horiz-adv-x="1075" d="M33 0l153 872h271l-33 -157q106 176 283 176q145 0 219.5 -112.5t42.5 -295.5l-41 -229q-8 -51 37 -51h61l-35 -203h-102q-154 0 -206 51t-26 201l39 223q31 176 -123 176q-82 0 -126 -42t-60 -136l-84 -473h-270zM473 1038l-178 19q18 139 81.5 212.5t151.5 73.5 q70 0 129 -40q10 -8 27.5 -20.5t26 -17.5t18.5 -9.5t21 -4.5q49 0 63 92l178 -18q-14 -139 -78.5 -213t-154.5 -74q-70 0 -129 41l-29 20q-16 11 -23.5 17t-18.5 10t-21 4q-50 0 -64 -92z" />
<glyph unicode="&#xf2;" horiz-adv-x="1085" d="M532 -18q-195 0 -327.5 125.5t-132.5 316.5q0 209 139 338t346 129q197 0 329 -125t132 -320q0 -207 -139.5 -335.5t-346.5 -128.5zM541 211q92 0 145 65.5t53 172.5q0 96 -51 152t-139 56q-92 0 -145.5 -65.5t-53.5 -171.5q0 -96 51.5 -152.5t139.5 -56.5zM487 1024 l-186 385h311l80 -385h-205z" />
<glyph unicode="&#xf3;" horiz-adv-x="1085" d="M532 -18q-195 0 -327.5 125.5t-132.5 316.5q0 209 139 338t346 129q197 0 329 -125t132 -320q0 -207 -139.5 -335.5t-346.5 -128.5zM541 211q92 0 145 65.5t53 172.5q0 96 -51 152t-139 56q-92 0 -145.5 -65.5t-53.5 -171.5q0 -96 51.5 -152.5t139.5 -56.5zM485 1024 l164 385h324l-279 -385h-209z" />
<glyph unicode="&#xf4;" horiz-adv-x="1085" d="M532 -18q-195 0 -327.5 125.5t-132.5 316.5q0 209 139 338t346 129q197 0 329 -125t132 -320q0 -207 -139.5 -335.5t-346.5 -128.5zM541 211q92 0 145 65.5t53 172.5q0 96 -51 152t-139 56q-92 0 -145.5 -65.5t-53.5 -171.5q0 -96 51.5 -152.5t139.5 -56.5zM276 1024 l396 442h22l240 -442h-209l-88 147l-137 -147h-224z" />
<glyph unicode="&#xf5;" horiz-adv-x="1085" d="M532 -18q-195 0 -327.5 125.5t-132.5 316.5q0 209 139 338t346 129q197 0 329 -125t132 -320q0 -207 -139.5 -335.5t-346.5 -128.5zM541 211q92 0 145 65.5t53 172.5q0 96 -51 152t-139 56q-92 0 -145.5 -65.5t-53.5 -171.5q0 -96 51.5 -152.5t139.5 -56.5zM455 1038 l-179 19q18 139 82 212.5t152 73.5q70 0 129 -40q10 -8 27.5 -20.5t25.5 -17.5t18.5 -9.5t20.5 -4.5q47 0 64 92l178 -18q-14 -139 -79 -213t-155 -74q-70 0 -129 41l-28 20q-16 11 -23.5 17t-19 10t-21.5 4q-47 0 -63 -92z" />
<glyph unicode="&#xf6;" horiz-adv-x="1085" d="M532 -18q-195 0 -327.5 125.5t-132.5 316.5q0 209 139 338t346 129q197 0 329 -125t132 -320q0 -207 -139.5 -335.5t-346.5 -128.5zM541 211q92 0 145 65.5t53 172.5q0 96 -51 152t-139 56q-92 0 -145.5 -65.5t-53.5 -171.5q0 -96 51.5 -152.5t139.5 -56.5zM838 1040 q-57 0 -103.5 45t-46.5 106.5t46 106.5t104 45q59 0 103 -45t44 -106.5t-44 -106.5t-103 -45zM428 1040q-57 0 -102 45t-45 106.5t45 106.5t102 45q59 0 104.5 -45t45.5 -106.5t-45.5 -106.5t-104.5 -45z" />
<glyph unicode="&#xf7;" horiz-adv-x="825" d="M497.5 745q-65.5 0 -112.5 46.5t-47 117.5q0 70 47 116t112.5 46t112.5 -46t47 -116q0 -72 -47 -118t-112.5 -46zM374.5 27q-65.5 0 -112.5 46t-47 117q0 70 47 116t112.5 46t113 -46t47.5 -116q0 -72 -47.5 -117.5t-113 -45.5zM82 436l41 226h668l-41 -226h-668z" />
<glyph unicode="&#xf8;" horiz-adv-x="1085" d="M961 670q57 -98 57 -224q0 -207 -139.5 -335.5t-346.5 -128.5q-172 0 -299 100l-135 -111l-98 129l129 103q-57 98 -57 221q0 209 139 338t346 129q172 0 299 -100l135 110l94 -129zM340 375l328 264q-51 35 -119 35q-98 0 -155.5 -71t-57.5 -183q0 -16 4 -45zM750 500 l-332 -269q49 -37 123 -36q98 0 155.5 70.5t57.5 183.5q0 18 -4 51z" />
<glyph unicode="&#xf9;" horiz-adv-x="1081" d="M360 -18q-145 0 -219.5 112.5t-42.5 294.5l84 483h273l-84 -475q-31 -176 123 -176q82 0 126 42t60 136l84 473h270l-108 -618q-8 -51 37 -51h61l-35 -203h-102q-135 0 -182.5 30.5t-55.5 94.5l-2 14q-111 -157 -287 -157zM532 1024l-186 385h311l80 -385h-205z" />
<glyph unicode="&#xfa;" horiz-adv-x="1081" d="M360 -18q-145 0 -219.5 112.5t-42.5 294.5l84 483h273l-84 -475q-31 -176 123 -176q82 0 126 42t60 136l84 473h270l-108 -618q-8 -51 37 -51h61l-35 -203h-102q-135 0 -182.5 30.5t-55.5 94.5l-2 14q-111 -157 -287 -157zM530 1024l164 385h324l-279 -385h-209z" />
<glyph unicode="&#xfb;" horiz-adv-x="1081" d="M360 -18q-145 0 -219.5 112.5t-42.5 294.5l84 483h273l-84 -475q-31 -176 123 -176q82 0 126 42t60 136l84 473h270l-108 -618q-8 -51 37 -51h61l-35 -203h-102q-135 0 -182.5 30.5t-55.5 94.5l-2 14q-111 -157 -287 -157zM322 1024l395 442h22l240 -442h-209l-88 147 l-137 -147h-223z" />
<glyph unicode="&#xfc;" horiz-adv-x="1081" d="M360 -18q-145 0 -219.5 112.5t-42.5 294.5l84 483h273l-84 -475q-31 -176 123 -176q82 0 126 42t60 136l84 473h270l-108 -618q-8 -51 37 -51h61l-35 -203h-102q-135 0 -182.5 30.5t-55.5 94.5l-2 14q-111 -157 -287 -157zM883 1040q-57 0 -103.5 45t-46.5 106.5 t46 106.5t104 45q59 0 103 -45t44 -106.5t-44 -106.5t-103 -45zM473 1040q-57 0 -102 45t-45 106.5t45 106.5t102 45q59 0 104.5 -45t45.5 -106.5t-45.5 -106.5t-104.5 -45z" />
<glyph unicode="&#xfd;" horiz-adv-x="980" d="M25 -434l303 526l-232 780h289l78 -329q8 -33 16 -84t15.5 -90t7.5 -41q31 127 82 215l180 329h280l-741 -1306h-278zM469 1024l164 385h323l-278 -385h-209z" />
<glyph unicode="&#xfe;" horiz-adv-x="1097" d="M-43 -434l336 1913h270l-129 -734q90 145 250 146q152 0 252 -114.5t100 -303.5q0 -219 -121.5 -355t-291.5 -136q-203 0 -293 170l-103 -586h-270zM551 215q94 0 148.5 66.5t54.5 177.5q0 92 -47.5 144t-131.5 52q-90 0 -146 -66.5t-56 -170.5q0 -92 47 -147.5 t131 -55.5z" />
<glyph unicode="&#xff;" horiz-adv-x="980" d="M25 -434l303 526l-232 780h289l78 -329q8 -33 16 -84t15.5 -90t7.5 -41q31 127 82 215l180 329h280l-741 -1306h-278zM821 1040q-57 0 -103 45t-46 106.5t46 106.5t103 45q59 0 103.5 -45t44.5 -106.5t-44.5 -106.5t-103.5 -45zM412 1040q-57 0 -102.5 45t-45.5 106.5 t45 106.5t103 45q59 0 104 -45t45 -106.5t-45 -106.5t-104 -45z" />
<glyph unicode="&#x152;" horiz-adv-x="2013" d="M795 0q-307 0 -480.5 175t-173.5 468q0 336 222.5 543t566.5 207h1120l-43 -246h-625l-57 -328h547l-43 -241h-547l-59 -332h653l-45 -246h-1036zM829 246h113l160 901h-178q-240 0 -366 -142.5t-126 -373.5q0 -182 98 -283.5t299 -101.5z" />
<glyph unicode="&#x153;" horiz-adv-x="1742" d="M532 -18q-195 0 -327.5 125.5t-132.5 316.5q0 209 139 338t346 129q219 0 328 -168q117 168 348 168q227 0 343 -150.5t85 -384.5h-647q31 -156 215 -155q111 0 213 75l157 -176q-154 -119 -372 -118q-250 0 -355 159q-113 -159 -340 -159zM541 211q92 0 145 65.5 t53 172.5q0 96 -51 152t-139 56q-92 0 -145.5 -65.5t-53.5 -171.5q0 -96 51.5 -152.5t139.5 -56.5zM1018 510h381q2 76 -45 121t-129 45q-170 0 -207 -166z" />
<glyph unicode="&#x178;" horiz-adv-x="1271" d="M422 0l90 516l-317 877h301l129 -373q37 -106 65 -281q84 168 156 275l258 379h297l-608 -875l-91 -518h-280zM1036 1518q-57 0 -103 45t-46 106.5t46 106.5t103 45q59 0 103.5 -45t44.5 -106.5t-44.5 -106.5t-103.5 -45zM627 1518q-57 0 -102.5 45t-45.5 106.5t45 106.5 t103 45q59 0 104 -45t45 -106.5t-45 -106.5t-104 -45z" />
<glyph unicode="&#x2c6;" horiz-adv-x="1003" d="M279 1024l395 442h22l240 -442h-209l-88 147l-137 -147h-223z" />
<glyph unicode="&#x2dc;" horiz-adv-x="1003" d="M459 1038l-178 19q18 139 81.5 212.5t151.5 73.5q70 0 129 -40q10 -8 27.5 -20.5t26 -17.5t18.5 -9.5t20 -4.5q47 0 64 92l178 -18q-14 -139 -78.5 -213t-155.5 -74q-70 0 -129 41l-28 20q-16 11 -23.5 17t-19 10t-21.5 4q-47 0 -63 -92z" />
<glyph unicode="&#x2000;" horiz-adv-x="993" />
<glyph unicode="&#x2001;" horiz-adv-x="1986" />
<glyph unicode="&#x2002;" horiz-adv-x="993" />
<glyph unicode="&#x2003;" horiz-adv-x="1986" />
<glyph unicode="&#x2004;" horiz-adv-x="661" />
<glyph unicode="&#x2005;" horiz-adv-x="495" />
<glyph unicode="&#x2006;" horiz-adv-x="329" />
<glyph unicode="&#x2007;" horiz-adv-x="329" />
<glyph unicode="&#x2008;" horiz-adv-x="247" />
<glyph unicode="&#x2009;" horiz-adv-x="397" />
<glyph unicode="&#x200a;" horiz-adv-x="108" />
<glyph unicode="&#x2010;" horiz-adv-x="598" d="M59 377l43 237h463l-43 -237h-463z" />
<glyph unicode="&#x2011;" horiz-adv-x="598" d="M59 377l43 237h463l-43 -237h-463z" />
<glyph unicode="&#x2012;" horiz-adv-x="598" d="M59 377l43 237h463l-43 -237h-463z" />
<glyph unicode="&#x2013;" horiz-adv-x="815" d="M47 350l43 238h694l-43 -238h-694z" />
<glyph unicode="&#x2014;" horiz-adv-x="1318" d="M47 350l43 238h1198l-43 -238h-1198z" />
<glyph unicode="&#x2018;" horiz-adv-x="489" d="M348.5 844q-65.5 0 -112 46t-46.5 116q0 74 68 170l152 217h131l-121 -246q86 -49 86 -146q0 -68 -46 -112.5t-111.5 -44.5z" />
<glyph unicode="&#x2019;" horiz-adv-x="489" d="M199 860l120 246q-86 49 -86 145q0 68 46.5 113t112 45t111.5 -46t46 -116q0 -74 -68 -170l-151 -217h-131z" />
<glyph unicode="&#x201a;" horiz-adv-x="489" d="M10 -211l121 246q-86 49 -86 145q0 68 46 113t111.5 45t111.5 -46t46 -116q0 -74 -67 -170l-152 -217h-131z" />
<glyph unicode="&#x201c;" horiz-adv-x="925" d="M782.5 844q-65.5 0 -111.5 46t-46 116q0 74 67 170l152 217h131l-121 -246q86 -49 86 -146q0 -68 -46 -112.5t-111.5 -44.5zM348.5 844q-65.5 0 -112 46t-46.5 116q0 74 68 170l152 217h131l-121 -246q86 -49 86 -146q0 -68 -46 -112.5t-111.5 -44.5z" />
<glyph unicode="&#x201d;" horiz-adv-x="923" d="M633 860l121 246q-86 49 -86 145q0 68 46 113t111.5 45t111.5 -46t46 -116q0 -74 -68 -170l-151 -217h-131zM199 860l120 246q-86 49 -86 145q0 68 46.5 113t112 45t111.5 -46t46 -116q0 -74 -68 -170l-151 -217h-131z" />
<glyph unicode="&#x201e;" horiz-adv-x="923" d="M444 -211l121 246q-86 49 -86 145q0 68 46 113t111.5 45t112 -46t46.5 -116q0 -74 -68 -170l-152 -217h-131zM10 -211l121 246q-86 49 -86 145q0 68 46 113t111.5 45t111.5 -46t46 -116q0 -74 -67 -170l-152 -217h-131z" />
<glyph unicode="&#x2022;" horiz-adv-x="548" d="M291 297q-86 0 -149.5 64.5t-63.5 156.5q0 94 63.5 157.5t149.5 63.5q88 0 152.5 -63.5t64.5 -157.5q0 -92 -64.5 -156.5t-152.5 -64.5z" />
<glyph unicode="&#x2026;" horiz-adv-x="1462" d="M1171.5 -12q-69.5 0 -117.5 48t-48 122q0 72 48 121t117.5 49t117.5 -49.5t48 -120.5q0 -74 -48 -122t-117.5 -48zM686 -12q-70 0 -118 48t-48 122q0 72 49 121t117 49t117 -49.5t49 -120.5q0 -74 -48 -122t-118 -48zM200.5 -12q-69.5 0 -117.5 48t-48 122q0 72 48 121 t117.5 49t118 -49.5t48.5 -120.5q0 -74 -48.5 -122t-118 -48z" />
<glyph unicode="&#x202f;" horiz-adv-x="397" />
<glyph unicode="&#x2039;" horiz-adv-x="593" d="M211 66l-148 335v17l252 346h273l-262 -358l149 -340h-264z" />
<glyph unicode="&#x203a;" horiz-adv-x="593" d="M6 66l262 358l-149 340h264l147 -336v-16l-251 -346h-273z" />
<glyph unicode="&#x2044;" horiz-adv-x="1069" d="M-94 0l1083 1393h273l-1084 -1393h-272z" />
<glyph unicode="&#x205f;" horiz-adv-x="495" />
<glyph unicode="&#x20ac;" horiz-adv-x="1208" d="M715 -18q-174 0 -307.5 91t-190.5 244h-194l28 168h131q0 66 4 95h-120l30 168h131q66 156 206 247.5t304 91.5q145 0 249 -48t185 -156l-202 -140q-41 57 -91.5 83t-136.5 26q-143 0 -221 -104h277l-31 -168h-305q-4 -25 -4 -95h295l-29 -168h-215q66 -104 211 -104 q129 0 217 98l182 -149q-143 -180 -403 -180z" />
<glyph unicode="&#x2122;" horiz-adv-x="1427" d="M748 774l110 627h19l243 -301l350 301h19l-111 -627h-180l43 250l-151 -145h-17l-102 145l-43 -250h-180zM379 1241h-164l27 152h510l-27 -152h-162l-82 -467h-184z" />
<glyph unicode="&#xe000;" horiz-adv-x="870" d="M0 870h870v-870h-870v870z" />
<glyph unicode="&#xfb01;" horiz-adv-x="1181" d="M1036 1032q-66 0 -112.5 45t-46.5 115t46 114t111 44q68 0 115 -44t47 -114q0 -72 -46 -116t-114 -44zM516 649l-149 -848q-27 -150 -89.5 -192.5t-211.5 -42.5h-142l39 203h82q25 0 37 10t18 41l146 829h-144l39 223h144l55 312q29 160 108.5 240.5t231.5 80.5 q139 0 240 -94l-158 -178q-33 31 -70 31q-35 0 -55.5 -19.5t-28.5 -66.5l-53 -306h559l-108 -618q-8 -51 36 -51h62l-35 -203h-102q-154 0 -206 51t-26 201l70 397h-289z" />
<glyph unicode="&#xfb02;" horiz-adv-x="1179" d="M967 0q-154 0 -206 51t-26 201l215 1227h271l-215 -1225q-8 -51 36 -51h78l-35 -203h-118zM246 649h-144l39 223h144l55 312q57 322 324 321q121 0 186 -57l-92 -209q-39 25 -70 25q-63 0 -80 -86l-53 -306h178l-39 -223h-178l-149 -848q-27 -150 -89.5 -192.5 t-211.5 -42.5h-142l39 203h82q25 0 37 10t18 41z" />
<glyph unicode="&#xfb03;" horiz-adv-x="1740" d="M1595 1032q-66 0 -112.5 45t-46.5 115t46 114t111 44q68 0 115 -44t47 -114q0 -72 -46 -116t-114 -44zM1075 649l-141 -796q-27 -150 -89.5 -193t-211.5 -43h-125l39 203h65q25 0 37.5 10t18.5 41l137 778h-289l-149 -848q-27 -150 -89.5 -192.5t-211.5 -42.5h-142 l39 203h82q25 0 37 10t18 41l146 829h-144l39 223h144l49 271q29 160 108.5 240.5t227.5 80.5q125 0 200 -67l-116 -203q-35 29 -72 29q-63 0 -80 -86l-47 -265h289l55 312q29 160 110 240.5t230 80.5q139 0 240 -94l-158 -178q-35 31 -69.5 31t-55 -19.5t-29.5 -66.5 l-55 -306h561l-108 -618q-8 -51 37 -51h61l-35 -203h-102q-154 0 -206 51t-26 201l70 397h-289z" />
<glyph unicode="&#xfb04;" horiz-adv-x="1738" d="M1526 0q-154 0 -206 51t-26 201l215 1227h271l-215 -1225q-8 -51 37 -51h77l-34 -203h-119zM805 649h-289l-149 -848q-27 -150 -89.5 -192.5t-211.5 -42.5h-142l39 203h82q25 0 37 10t18 41l146 829h-144l39 223h144l49 271q29 160 108.5 240.5t227.5 80.5q125 0 200 -67 l-116 -203q-35 29 -72 29q-63 0 -80 -86l-47 -265h289l55 312q57 322 324 321q121 0 186 -57l-92 -209q-39 25 -70 25q-63 0 -80 -86l-53 -306h178l-39 -223h-178l-141 -796q-27 -150 -89.5 -193t-211.5 -43h-125l39 203h65q25 0 37.5 10t18.5 41z" />
</font>
</defs>
</svg>
